#TITLE:Galaxy Friends;
#SUBTITLE:;
#ARTIST:Kobaryo;
#TITLETRANSLIT:;
#SUBTITLETRANSLIT:;
#ARTISTTRANSLIT:;
#GENRE:;
#CREDIT:;
#BANNER:;
#BACKGROUND:;
#LYRICSPATH:;
#CDTITLE:;
#MUSIC:galaxyfriends.ogg;
#OFFSET:0.020000;
#SAMPLESTART:14.380000;
#SAMPLELENGTH:12.000000;
#SELECTABLE:YES;
#DISPLAYBPM:*;
#BPMS:0.000000=150.000000
,35.000000=300.000000
,100.000000=150.000000
,108.000000=300.000000
,156.000000=75.000000
,160.000000=150.000000
,184.000000=75.000000
,184.750000=79.000000
,185.500000=89.000000
,186.000000=98.000000
,186.500000=100.000000
,199.000000=207.000000
,200.000000=100.000000
,216.000000=200.000000
,260.000000=100.000000
,260.250000=50.000000
,260.375000=25.000000
,260.500000=50.000000
,260.625000=100.000000
,260.750000=200.000000
,278.000000=100.000000
,278.500000=102.000000
,279.000000=106.000000
,280.000000=108.000000
,281.000000=113.000000
,282.000000=116.000000
,283.000000=121.000000
,284.000000=128.000000
,286.000000=130.000000
,287.000000=132.000000
,288.000000=134.000000
,289.000000=139.000000
,290.000000=141.000000
,292.000000=144.000000
,294.000000=148.000000
,298.000000=150.000000
,342.000000=300.000000
,406.000000=148.000000
,407.000000=150.000000
;
#STOPS:35.000000=0.185000
;
#BGCHANGES:;
#KEYSOUNDS:;
#ATTACKS:;

//---------------dance-single - ----------------
#NOTES:
     dance-single:
     :
     Challenge:
     19:
     0.982277,1.467671,0.281471,0.368593,0.814256,1026.000000,984.000000,42.000000,55.000000,0.000000,0.000000,0.982277,1.467671,0.281471,0.368593,0.814256,1026.000000,984.000000,42.000000,55.000000,0.000000,0.000000:
0000
0000
0000
0000
,
0001
0010
0001
0100
,
0010
1000
0010
0010
,
1000
0010
1000
0100
,
0010
0000
0001
0000
0010
1000
0001
0100
,
0020
0000
0032
2003
,
3200
0000
0320
0032
,
0023
0000
0000
0000
,
0031
1000
0001
0100
0010
0000
0110
0000
,
0001
0100
0001
0100
1000
0100
0001
0010
,
0000
0010
0001
1000
0010
1000
0001
0010
,
0000
0100
1000
0010
0100
0001
0100
0010
,
0000
0001
0010
1000
0100
0001
0100
1000
,
0000
0001
0010
0100
0001
0100
0010
0001
,
0000
1000
0010
0100
0010
0000
1000
0100
,
0110
0000
0010
0001
1000
1001
0000
1010
,
0000
0001
0010
0001
0100
0010
0100
0001
,
0010
0100
1000
0100
0010
1000
0010
0001
,
0000
1000
0010
0001
0010
1000
0001
0010
,
0000
0010
0001
0100
0010
1000
0100
1000
,
0000
0001
0010
0001
0100
0001
0010
1000
,
0000
1000
0010
0001
1000
0001
0100
1000
,
0000
0000
0000
1000
0000
0000
0100
0000
0000
0010
0000
0000
1000
0000
0010
0000
1000
0000
0001
0000
0000
0010
0000
0000
,
0001
0000
0100
1000
0100
0010
0000
1000
,
0000
1000
0001
0000
0022
0000
0000
0033
,
0001
0100
0010
1000
0010
0100
0001
0010
0100
1000
0100
0010
0001
0100
0010
1000
,
0001
0100
0010
1000
0010
0100
0001
0010
0100
1000
0100
0010
0001
0100
0010
1000
,
0100
1000
0100
1000
0010
1000
0010
0100
,
0010
1000
0010
1000
0001
1000
0001
0010
,
0100
0010
0100
0010
0001
1000
0001
1000
,
0100
0010
0100
0001
0100
0010
0100
1000
,
0010
0001
1000
0100
0001
1000
0100
0010
,
0100
1000
0001
0010
1000
0010
0001
0100
,
0010
0100
0001
0010
0001
0100
0010
0100
0001
0010
0001
1000
,
0010
0100
0010
1000
0100
1000
0010
0100
0010
1000
0100
1000
,
0001
0001
0101
0000
1100
0000
0110
0000
,
1000
0000
0000
0000
0000
0000
0000
0000
0000
0000
0000
0000
0000
0000
0000
0000
0000
0000
0000
0000
0000
0000
0000
0000
1000
0000
0000
0000
0000
0000
0000
0000
0000
0000
0000
0000
0000
0000
0000
0000
0000
0000
0000
0000
0000
0000
0000
0000
2200
3300
0000
0000
0000
0000
0000
0000
0000
0000
0000
0000
0000
0000
0000
0000
0000
0000
0000
0000
0000
0000
0000
0000
0000
0000
0000
0000
0000
0000
0000
0000
0000
0000
0000
0000
0000
0000
0000
0000
0000
0000
0000
0000
0000
0000
0000
0000
2002
3003
0000
0000
0000
0000
0000
0000
0000
0000
0000
0000
0000
0000
0000
0000
0000
0000
0000
0000
0000
0000
0000
0000
0000
0000
0000
0000
0000
0000
0000
0000
0000
0000
0000
0000
0000
0000
0000
0000
0000
0000
0000
0000
0000
0000
0000
0000
0202
0303
0000
0000
0000
0000
0000
0000
0000
0000
0000
0000
0000
0000
0000
0000
0000
0000
0000
0000
0000
0000
0000
0000
0000
0000
0000
0000
0000
0000
0000
0000
0000
0000
0000
0000
0000
0000
0000
0000
0000
0000
0000
0000
0000
0000
0000
0000
,
0010
0100
0001
1000
0010
0100
1000
0100
,
0010
1000
0100
0010
0001
0010
0100
1000
,
2002
0000
0000
0000
0000
0000
0000
0000
0000
0000
0000
0000
0000
0000
0000
0000
0000
0000
0000
0000
0000
0000
0000
0000
0000
0000
0000
0000
0000
0000
0000
0000
0000
0000
0000
0000
0000
0000
0000
0000
3003
0000
0000
0000
0000
0000
0000
0000
0220
0000
0000
0000
0000
0000
0000
0000
0000
0000
0000
0000
0000
0000
0000
0000
0000
0000
0000
0000
0000
0000
0000
0000
0000
0000
0000
0000
0000
0000
0000
0000
0000
0000
0000
0000
0000
0000
0000
0000
0000
0000
0330
0000
0000
0000
0000
0000
2020
0000
0000
0000
0000
0000
0000
0000
0000
0000
0000
0000
0000
0000
0000
0000
0000
0000
0000
0000
0000
0000
0000
0000
0000
0000
0000
0000
0000
0000
0000
0000
0000
0000
0000
0000
0000
0000
0000
0000
0000
0000
3030
0000
0000
0000
0000
0000
0202
0000
0000
0000
0000
0000
0000
0000
0000
0000
0000
0000
0000
0000
0000
0000
0000
0000
0000
0000
0000
0000
0000
0000
0000
0000
0000
0000
0000
0000
0000
0000
0000
0000
0000
0000
0000
0000
0000
0000
0000
0000
0303
0000
0000
0000
0000
0000
,
0020
0000
0000
0000
1030
0000
0100
0100
2000
0000
3001
0000
0010
0000
1100
0000
,
0002
0000
0000
0000
0000
0000
0000
0003
0100
0000
0010
0000
1000
0000
0000
0000
1100
0000
0000
0000
0110
0000
0000
0000
0022
0000
0000
0000
0033
0000
0000
0000
,
0201
0000
0000
1300
0100
0000
1010
0000
,
0012
0000
0000
1003
0000
0000
2020
0000
0000
3030
0000
0000
0002
0000
0000
0003
,
0100
0000
0001
0000
0100
0000
0001
0000
0100
0000
0001
0000
1000
0000
0000
0010
0000
0000
1000
0000
0000
0010
0000
0000
2000
0000
0000
0100
0000
0000
3100
0000
0000
0010
0000
0000
0100
0000
0000
1000
0000
0000
0001
0000
0000
0010
0000
0000
,
0100
0100
0010
0010
0000
0001
1000
0001
0100
0010
0100
0000
1001
0000
0001
0100
,
1000
0100
0010
1000
0100
0010
0001
0100
0010
0000
0100
0001
0010
0000
0001
1000
,
0010
0000
1000
0100
0010
0000
0100
1000
0010
0000
0100
0001
0010
0000
0100
1000
,
0001
0000
0010
0001
0100
0000
0001
1000
0010
0000
1000
0001
0100
0000
0001
0010
,
0001
0000
0100
0010
0100
0000
1000
0100
1000
0000
0100
0010
0100
0000
0000
0000
,
1001
1000
0100
0001
1000
0010
0001
1000
,
0010
0100
0010
1000
0001
0010
0100
1000
,
1001
0010
1000
0100
0001
0100
1000
0010
1001
0010
0001
0100
1000
0100
0001
0010
,
0001
0010
0100
1000
0001
0100
0010
1000
0001
0010
0100
1000
0001
0100
1000
0100
0002
0000
0000
0000
0000
0000
0000
0000
0013
0000
0000
0000
0100
0000
0100
0000
,
2010
3001
0010
1000
0010
0001
0100
0010
,
1000
0100
0001
0100
1000
1010
0100
0011
,
0100
0000
1000
0100
0010
0000
1010
0000
0010
0000
0011
0000
0001
0000
1001
0000
,
1000
0000
0010
0000
0100
0000
1000
0000
0001
0000
0100
0000
0010
0000
1000
0100
,
0001
0100
0001
0100
1000
0100
1000
0100
,
0010
0001
1000
0010
0100
0001
1000
0001
,
0020
1000
0130
0011
0100
1010
0001
1100
,
0010
0100
1000
0010
0100
1000
0100
0001
,
1001
0000
0001
0100
0001
0000
1000
0010
1000
0000
0001
0100
0001
0000
1000
0010
,
1000
0000
0001
0010
0001
0000
1000
0100
1000
0000
0010
0100
0010
0000
0100
0001
,
0100
0000
0010
1000
0010
0000
0100
0001
0010
0000
0100
1000
0010
0000
0100
0001
,
0200
0000
0000
0000
0000
0000
0300
0000
1001
0000
1000
0001
0010
0000
1000
0000
,
0010
0001
1000
0010
0010
0100
1000
0001
,
1000
0100
0001
1000
0200
0320
2030
3002
,
0203
2300
3020
0032
2003
3200
0302
0023
,
2030
0000
3002
0000
0203
0000
1300
0000
1000
0100
0010
0000
0001
0100
0010
0000
,
0100
0010
1000
0000
1000
0001
0100
0000
0100
0001
0010
0000
0010
0001
0100
0000
,
0100
0010
1000
0000
0100
1000
0010
0000
0100
0001
0010
0000
0001
0100
0010
0000
,
0010
1000
0100
0000
0100
1000
0001
0000
0001
0100
0010
0000
1000
0100
0010
0000
,
0001
0010
0100
0000
1000
0010
0100
0000
1001
0000
0100
0000
0001
0000
0100
0000
,
1000
0000
0100
0010
1000
0000
0001
0010
0100
0000
1000
0000
0001
0000
0100
0000
,
1000
0000
0001
0000
0010
0000
1000
0000
1001
0000
0100
0001
0010
0100
1000
0010
,
0100
0001
0010
0100
1000
0010
0100
0010
1000
0010
0100
0001
0010
0100
1000
0010
,
2000
0000
0000
0000
3001
0000
0000
0000
1000
0100
0010
0001
0010
0000
0100
0010
,
0000
0001
0100
1000
0100
0000
0001
0010
0000
0100
0001
0100
1000
0000
0001
1000
,
0000
0100
0010
0100
0010
0000
0010
0001
0000
1000
0001
0010
0100
0000
1000
0100
,
0000
1000
0001
0010
0100
0000
1000
0010
0000
0100
0010
1000
0100
0000
1000
0001
,
0000
1000
0010
1000
0100
0001
0100
1000
0001
0010
0001
0010
0100
1000
0100
1000
,
0010
1000
0010
1000
0001
0100
0001
0100
0001
0010
0100
1000
0001
0100
0010
1000
,
0100
0000
0000
0010
0000
0000
0001
0000
0000
1000
0000
0000
0010
0000
0000
0100
0000
0000
0001
0000
0000
0000
0000
0000
0100
0000
0001
0000
0010
0000
0001
0000
0100
0000
0010
0000
0100
0000
0001
0000
0010
0000
0001
0000
0100
0000
0010
0000
,
1000
0100
0010
0100
1000
0010
1000
0100
0010
0100
1000
0010
0200
0000
0000
0000
0000
0000
0000
0000
0000
0000
0000
0000
,
0000
0300
1001
0000
1000
0100
0001
0100
,
1000
0010
1000
0010
0100
1000
0100
0001
,
0010
0001
0010
0100
0001
0100
1000
0010
,
1000
0010
0100
1000
0100
0001
0010
0000
,
0110
0000
1000
0010
0100
0001
0100
0001
,
0010
1000
0010
0001
1000
0100
1000
0010
,
0001
0010
1000
0001
0100
0001
0100
0001
,
1000
0000
0010
0000
0100
0000
0001
0000
0000
0010
0000
0000
1000
0000
0000
0010
0000
0000
0001
0000
0000
0100
0000
0000
,
1000
0001
0010
1000
0100
1000
0100
1000
,
0010
0001
0010
1000
0001
0100
0001
0010
,
1000
0010
0001
0100
0010
1000
0010
1000
,
0100
0001
0100
1000
0100
0001
0100
0010
,
0100
0000
1000
0000
0100
0000
1000
0000
0100
0000
0010
0000
0001
0000
0000
0010
0000
0000
0001
0000
0000
0100
0000
0000
,
1000
0000
0000
0100
0000
0000
0001
0000
0000
1000
0000
0000
0010
0000
1000
0000
0010
0000
1000
0000
0000
0100
0000
0000
,
0001
0000
0000
0100
0000
0000
1000
0000
0100
0000
1000
0000
0100
0000
0000
0010
0000
0000
0001
0000
1000
0000
0001
0000
,
1000
0010
0100
0001
0010
1000
0010
0001
,
0100
0000
1000
0000
0100
0000
0001
0000
1000
0001
1000
0000
0100
0000
1000
0001
,
0000
0010
0100
0010
0001
0000
0100
0010
0000
1000
0010
0100
0010
0000
0100
0001
,
0000
1000
0100
0010
0100
0000
1000
0001
0000
1000
0100
0010
0001
0000
0100
0010
,
0000
0001
0010
1000
0010
0000
0100
0010
0000
1000
0100
0001
0100
0000
0010
0100
,
0000
1000
0001
0010
0100
0010
0001
1000
0100
0010
0001
0000
0100
0000
0001
0010
,
0000
0100
1000
0000
0010
0000
1000
0100
0000
0010
0001
0000
1000
0000
0001
0010
,
0000
0100
1000
0000
0001
0000
1000
0100
0000
0100
0010
0000
0001
0000
1000
0010
,
0000
0100
0010
0000
1000
0000
0001
0010
0000
0100
1000
0000
0010
0000
0100
0001
,
0000
0100
0001
0000
0010
0000
0100
0010
0100
0000
0000
0000
0000
0000
0000
0000
;

//---------------dance-single - ----------------
#NOTES:
     dance-single:
     :
     Hard:
     16:
     0.579218,0.916771,0.194349,0.395400,0.140736,605.000000,576.000000,29.000000,59.000000,0.000000,0.000000,0.579218,0.916771,0.194349,0.395400,0.140736,605.000000,576.000000,29.000000,59.000000,0.000000,0.000000:
0000
0000
0000
0000
,
2002
0000
0000
0000
,
0000
0000
0000
0000
,
0000
0000
0000
0000
,
0000
0000
0000
0000
3003
1000
0100
0010
,
0002
0000
0203
0320
,
2030
0000
3002
0023
,
0230
0000
0000
0000
,
0000
0000
0300
1001
,
0001
0010
0001
0000
0100
0000
0010
1000
,
0000
1000
0010
0000
0100
0000
0001
0010
,
0000
0010
0001
1000
0010
0000
0010
1000
,
0000
0001
0100
0001
0010
0000
0100
1000
,
0000
1000
0001
0100
0001
0000
0001
1000
,
0000
1000
0010
0000
0100
0000
0100
0001
,
0010
0000
0001
0100
0001
1000
0000
0010
,
0000
1000
0100
0010
0100
1000
0001
1000
,
1001
0000
0010
0100
0010
0000
0010
1000
,
0000
1000
0001
0000
0010
0000
0100
1000
,
0000
1000
0100
0010
0001
0000
0001
1000
,
0000
1000
0010
0100
0001
0000
1000
0010
,
0000
0010
0100
0001
0100
0000
0100
0010
,
0000
1000
0100
1000
0010
0100
0010
1000
,
0001
0000
1000
0100
0010
0001
0000
1001
,
0000
1000
0010
0000
0200
0000
0000
0000
,
0301
0100
1000
0100
0010
0100
0001
0100
,
0010
1000
0001
1000
0100
1000
0010
0100
,
1001
0101
0001
1000
,
0100
1000
0010
0100
,
0001
0010
1000
0010
,
0001
1000
0010
0100
,
0001
0100
0001
0100
0010
1000
0010
1000
,
0001
0010
0001
0010
0100
1000
0100
1000
,
0010
0100
0001
0010
0100
1000
0010
0001
,
0010
1000
0100
0001
0100
1000
0001
0100
,
0101
0000
1000
0000
,
1100
0000
0010
0000
,
1001
0100
1010
0100
,
0011
0001
0101
0100
,
2010
3200
2300
3002
,
0023
0000
0000
0000
0130
0000
0010
0100
2000
0000
0000
0000
3000
0000
0110
0000
,
1001
0000
0100
0001
0010
1000
0200
0300
,
1002
0000
0000
1003
0001
0000
2002
3003
,
0200
0000
0000
0301
0000
0000
0202
0000
0000
0000
0303
0000
1000
0000
0000
0000
,
0100
1000
0100
1000
0100
0010
0100
0010
0100
1000
0001
0000
0100
0000
0001
0000
,
0010
0001
0010
0001
0000
1000
0100
1000
0100
0000
0000
0000
0010
0000
0001
2000
,
0002
0000
0000
0000
,
0000
0000
0000
0000
,
0000
0000
0000
0000
,
0000
0000
0000
3003
,
0100
0010
0100
0010
1000
0001
1000
0001
,
0100
0001
1000
0100
0010
0100
1000
0010
,
0100
0100
0100
0100
0010
0010
1000
1000
,
0001
1000
0001
1000
0001
1000
0001
0000
2002
0000
3003
0000
0010
0000
0100
0010
,
1000
0010
0001
0010
1000
0010
0001
0010
,
1000
0100
1000
0010
0100
0001
0100
1000
,
0001
0010
1000
0010
0001
0010
1000
0010
,
1000
0001
0100
0001
0010
0001
1000
0001
,
1000
0100
0001
0100
1000
0100
0001
0100
,
1000
0001
0010
0001
1000
0100
1000
0010
,
0001
0010
1000
0010
0001
0010
1000
0010
,
0110
0110
1001
1001
,
2000
3001
0002
1003
2000
3010
0020
0130
,
0200
0301
0002
1003
0020
1030
2000
3001
,
0020
0130
2000
3100
0020
0031
2000
3001
,
0200
0000
0300
0000
0100
0001
0010
0000
,
0100
0010
0001
0100
0000
0100
0010
1000
,
0010
0000
0000
0000
0101
0000
0000
0000
1000
0001
1000
0000
0001
0000
1000
0000
,
0010
0100
0010
0000
0100
0000
0010
0000
1000
0000
0001
0000
1000
0000
0001
0000
,
0100
0010
0100
0010
2002
0000
0000
0000
,
0000
0000
0000
0000
,
0000
0000
0000
0000
,
0000
0000
0000
0000
,
3003
1000
0100
0010
0002
0000
0000
0000
,
0203
0320
2030
0000
,
3002
0023
0230
0000
,
0000
0000
0000
0000
,
0300
0000
0000
0000
1001
0000
0000
0000
1000
0000
0010
0000
1000
0000
0001
1000
,
0000
0000
0010
0000
1000
0000
0001
0010
0000
0000
0001
0000
1000
0000
0100
1000
,
0000
0000
0001
0000
0100
0000
0001
0010
0000
0000
0100
0000
1000
0000
0100
0010
,
0000
0000
0001
0000
1000
0000
0100
0010
0000
0000
0010
0000
0100
0000
1000
0001
,
0000
0000
0010
0000
0001
0010
0001
0000
0100
0000
0000
0000
0100
0000
0000
0000
,
0001
0001
1000
1000
,
0001
0000
0000
0000
0001
0000
0000
0000
0100
0010
0100
0010
0100
0010
0100
0010
,
0100
0010
0100
0010
0100
0010
0100
0010
2002
0000
0000
0000
0000
0000
0000
0000
,
0000
0000
3003
0000
1000
0100
0010
0000
,
0100
0000
1000
0010
0000
1000
0010
0000
,
0100
0000
0001
0010
0000
0001
0010
0000
,
0100
0000
1000
0010
0000
1000
0010
0000
,
1000
0001
1000
0001
0000
0100
0010
0000
,
1000
0000
0001
1000
0000
0010
0100
0000
,
0001
0000
1000
0001
0000
0100
0010
0000
,
1000
0010
0100
0000
0001
0010
0100
0000
,
1000
0010
0100
0000
0001
0100
1000
0000
,
0100
0000
0001
1000
0000
0100
1000
0000
,
0001
0000
0100
0001
0000
1000
0001
0000
,
0010
0000
0100
1000
0000
0001
1000
0000
,
0010
0000
0100
0001
0000
1000
0001
0000
,
0010
0000
0001
0100
0000
0010
1000
0000
,
0100
0000
0010
0001
0000
1000
0100
0000
,
0010
0001
0100
0001
0010
0100
1000
0100
,
0010
0001
0100
0010
2002
0000
0000
0000
,
0000
0000
0000
3000
0020
0000
0003
0000
,
0200
0030
2000
0000
,
0000
3300
2002
3000
,
0200
0000
0000
0000
0003
0000
0000
0000
0310
0000
1000
0000
0001
0000
0010
0001
,
0000
0000
1000
0000
0010
0000
1000
0001
0000
0000
0100
0000
0001
0000
0010
0001
,
0000
0000
0100
0000
0010
0000
1000
0100
0000
0000
1000
0000
0010
0000
0100
0010
,
0000
0000
1000
0000
0001
0000
1000
0010
0000
0000
0100
0000
0001
0000
0010
0100
,
0000
0000
1000
0000
0100
0000
0010
0001
0000
0000
0000
0000
0000
0000
0000
0000
;

//---------------dance-single - ----------------
#NOTES:
     dance-single:
     :
     Medium:
     13:
     0.441354,0.697144,0.167542,0.254664,0.013403,461.000000,436.000000,25.000000,38.000000,0.000000,0.000000,0.441354,0.697144,0.167542,0.254664,0.013403,461.000000,436.000000,25.000000,38.000000,0.000000,0.000000:
0000
0000
0000
0000
,
2002
0000
0000
0000
,
0000
0000
0000
0000
,
0000
0000
0000
0000
,
0000
0000
0000
3003
,
0002
0000
2003
3020
,
0230
0000
0302
2003
,
3020
0000
0000
0000
,
0000
0000
0000
0030
,
1000
0010
1000
0100
,
0010
0001
0010
0100
,
1000
0010
1000
0001
,
0010
0001
0010
0001
,
1000
0100
1000
0010
,
0100
0001
0100
0010
,
1000
0000
0000
0000
0001
1000
0000
0001
,
0000
0010
0100
1000
,
0001
0010
0001
0100
,
0010
1000
0010
0100
,
0001
0010
0001
0100
,
0010
1000
0100
0010
,
0100
1000
0100
0010
,
0001
0100
0001
0010
,
0100
0000
0000
0000
1000
0100
0000
1000
,
0000
0010
2002
3003
,
0100
0100
0100
0100
,
0001
0001
0001
0001
,
1000
0100
1000
0001
,
0100
0001
1000
0010
,
1000
0001
0010
0001
,
0010
0100
1000
0010
,
0100
0010
0100
0000
0001
0000
1000
0000
,
0100
0010
0100
0000
1000
0000
0001
0000
,
1000
0001
1000
0000
0010
1000
0010
0000
,
1000
0001
1000
0000
0001
0010
0001
0000
,
0011
0100
1000
0000
,
1010
0100
0001
0000
,
1001
0000
0110
0000
,
1001
1000
0001
0001
,
0200
0320
2030
3200
,
0320
0000
0031
0100
1000
0100
0001
1000
,
0001
0000
1000
0100
0001
0100
1000
0000
,
0020
0000
0000
0130
0010
0000
1010
0000
,
0202
0000
0303
0202
0000
0303
1000
0000
,
0100
1000
0100
1000
0100
0000
0010
0000
0001
0000
0000
0000
1000
0000
0010
0000
,
2002
0000
3003
2002
0000
3003
0000
0000
,
0200
0000
0000
0000
,
0000
0000
0000
0000
,
0000
0000
0000
0000
,
0000
0000
0000
0300
,
0100
0010
0100
0010
1000
0010
1000
0010
,
1000
0001
1000
0001
0100
0001
0100
0001
,
0010
0100
0010
0001
0010
0100
1000
0100
,
0010
0100
0010
0000
0001
1000
0001
0000
0200
0000
0000
0000
0000
0000
0300
0000
,
0010
0100
0010
0000
1000
0100
1000
0000
,
0010
0100
0010
0000
0100
0001
0100
0000
,
0001
0010
0001
0000
1000
0010
1000
0000
,
0001
0010
0001
0010
0100
1000
0100
1000
,
0001
1000
0001
0000
1000
0001
1000
0000
,
0100
1000
0100
0000
1000
0010
1000
0000
,
0001
0100
0001
0000
0001
0010
0001
0000
,
1000
0100
0010
0001
1000
0000
1000
0000
,
1001
1001
1010
1001
,
0101
0011
0110
1100
,
0110
0011
1001
1010
,
0200
0300
0001
0001
,
0010
0000
0100
1000
0000
1000
0100
0000
,
0010
0000
0001
0000
1000
0010
1000
0010
,
0100
0001
0100
0001
1000
0001
1000
0001
,
0010
0001
0010
0001
0200
0000
0000
0000
,
0000
0000
0000
0000
,
0000
0000
0000
0000
,
0000
0000
0000
0000
,
0000
0300
0002
0000
,
0203
0320
2030
0000
,
3002
0203
0320
0000
,
0000
0000
0000
0000
,
0000
0000
0030
0000
0100
0001
0100
0000
,
0010
0000
0010
0000
1000
0100
1000
0000
,
0010
0000
0010
0000
1000
0001
1000
0000
,
0010
0000
0010
0000
0100
0001
0010
0000
,
0100
0000
0100
1000
0100
1000
0100
0000
,
0010
0000
0010
0000
0001
0100
0001
0000
,
0010
0000
0010
0000
0100
1000
0001
0000
,
0010
0010
2002
0000
,
0000
3003
1000
0010
,
1000
0100
0010
0001
,
0010
0100
1000
0010
,
1000
0100
0010
0001
,
0100
0010
1000
0100
,
1000
0010
0100
0001
,
0100
0010
1000
0100
,
1000
0010
0100
0001
,
0010
0100
1000
0010
,
1000
0001
0010
0001
,
0010
0100
1000
0100
,
1000
0001
0100
0001
,
0010
0100
1000
0010
,
1000
0001
0100
0001
,
0010
0100
1000
0010
,
1000
0001
0100
0010
,
1000
0000
0100
0000
1000
0001
1000
0000
,
0100
0000
0100
0000
1000
0010
1000
0000
,
0100
0000
0100
0000
0010
0001
0010
0000
,
0100
0000
0100
0000
0010
0001
1000
0000
,
0010
0000
0010
1000
0001
1000
0001
0000
,
0100
0000
0100
0000
0010
1000
0010
0000
,
0100
0000
0100
0000
0001
0010
0001
0000
,
0100
0000
0100
0000
0010
1000
0001
1000
,
0100
1000
0010
0100
0100
0000
0000
0000
;

//---------------dance-single - ----------------
#NOTES:
     dance-single:
     :
     Beginner:
     6:
     0.136906,0.256842,0.087122,0.187647,0.000000,143.000000,130.000000,13.000000,28.000000,0.000000,0.000000,0.136906,0.256842,0.087122,0.187647,0.000000,143.000000,130.000000,13.000000,28.000000,0.000000,0.000000:
0000
0000
0000
0000
,
2002
0000
0000
0000
,
0000
0000
0000
0000
,
0000
0000
0000
0000
,
0000
0000
3003
0000
,
0002
0000
0003
0000
,
2000
0000
3000
0000
,
0020
0000
0000
0000
,
0000
0000
0030
0000
,
0010
0000
0000
0000
,
0010
0000
0000
0000
,
1000
0000
0000
0000
,
1000
0000
0000
0000
,
0010
0000
0000
0000
,
0010
0000
0000
0000
,
0100
0000
0000
0000
,
0001
0000
0000
0000
,
1000
0000
0000
0000
,
1000
0000
0000
0000
,
0010
0000
0000
0000
,
0010
0000
0000
0000
,
1000
0000
0000
0000
,
1000
0000
0000
0000
,
1001
0000
0000
0000
,
0000
0000
0000
0000
,
0200
0000
0300
0000
,
0020
0000
0030
0000
,
1000
0000
0000
0000
,
0001
0000
0000
0000
,
1000
0000
0000
0000
,
0001
0000
0000
0000
,
0100
0000
0000
0000
,
0010
0000
0000
0000
,
0200
0300
0000
0000
,
0020
0030
0000
0000
,
0110
0000
0000
0000
,
0110
0000
0000
0000
,
1001
0000
0000
0000
,
1001
0000
0000
0000
,
0020
0000
0030
0000
,
1000
0000
1000
0000
,
0001
0000
0001
0000
,
2002
0000
3003
0000
,
0200
0000
0300
0000
,
0002
0000
0003
0000
,
2000
0000
3000
0000
,
0020
0000
0000
0000
,
0000
0000
0000
0000
,
0000
0000
0000
0000
,
0000
0000
0030
0000
,
0010
0000
0010
0000
,
0100
0000
0100
0000
,
0010
0000
0100
0000
,
0220
0000
0330
0000
,
1000
1000
1000
0000
,
0001
0001
0001
0000
,
1000
1000
1000
0000
,
0001
0000
0001
0000
,
0100
0100
0100
0000
,
0010
0010
0010
0000
,
0100
0100
0100
0000
,
0010
0000
0010
0000
,
0110
0000
0100
0000
,
0001
0000
0100
0000
,
0001
0000
0100
0000
,
0020
0030
0000
0000
0010
0000
0000
0000
,
0000
0000
1000
0000
,
0000
0000
1000
0000
,
0010
0000
1000
0000
,
0010
0000
0200
0000
,
0000
0000
0000
0000
,
0000
0000
0000
0000
,
0000
0000
0000
0000
,
0300
0000
0002
0000
,
0003
0000
2000
0000
,
3000
0000
0020
0000
,
0000
0000
0000
0000
,
0030
0000
0010
0000
,
0010
0000
0100
0000
,
0100
0000
0010
0000
,
0010
0000
0100
0000
,
0100
0000
0001
0000
,
0001
0000
1000
0000
,
1000
0000
0001
0000
,
0001
0000
2000
0000
,
3000
0000
1001
0000
,
0000
0000
0001
0000
,
0000
0000
0001
0000
,
0000
0000
0001
0000
,
0000
0000
1001
0000
,
0000
0000
1000
0000
,
0000
0000
1000
0000
,
0000
0000
1000
0000
,
0000
0000
0110
0000
,
0000
0000
0100
0000
,
0000
0000
0100
0000
,
0000
0000
0100
0000
,
0000
0000
0110
0000
,
0000
0000
0010
0000
,
0000
0000
0010
0000
,
0000
0000
0010
0000
,
0010
0000
0020
0000
,
0000
0000
0030
0000
,
1000
0000
0002
0000
,
0000
0000
0003
0000
,
0100
0000
0020
0000
,
0000
0000
0030
0000
,
0010
0000
2000
0000
,
0000
0000
3000
0000
,
0001
0000
0100
0000
;

//---------------dance-single - ----------------
#NOTES:
     dance-single:
     :
     Easy:
     8:
     0.272855,0.587068,0.180946,0.308278,0.000000,285.000000,258.000000,27.000000,46.000000,0.000000,0.000000,0.272855,0.587068,0.180946,0.308278,0.000000,285.000000,258.000000,27.000000,46.000000,0.000000,0.000000:
// measure 0
0000
0000
0000
0000
,  // measure 1
2002
0000
0000
0000
,  // measure 2
0000
0000
0000
0000
,  // measure 3
0000
0000
0000
0000
,  // measure 4
0000
0000
0000
3003
,  // measure 5
0020
0000
2030
0000
,  // measure 6
3200
0000
0320
0000
,  // measure 7
0032
0000
0000
0000
,  // measure 8
0000
0000
0003
0000
,  // measure 9
1000
0000
0100
0000
,  // measure 10
1000
0000
0010
0000
,  // measure 11
0100
0000
0001
0000
,  // measure 12
0100
0000
0010
0000
,  // measure 13
1000
0000
0100
0000
,  // measure 14
0010
0000
0001
0000
,  // measure 15
0100
0000
0001
0000
,  // measure 16
0010
0000
0100
0000
,  // measure 17
1000
0000
1000
0000
,  // measure 18
0001
0000
0100
0000
,  // measure 19
0001
0000
0001
0000
,  // measure 20
0010
0000
0100
0000
,  // measure 21
1000
0000
1000
0000
,  // measure 22
1000
0000
0100
0000
,  // measure 23
0110
0000
0000
0000
,  // measure 24
0000
0000
0002
0000
,  // measure 25
1003
1000
0100
0100
,  // measure 26
0010
0010
0100
0100
,  // measure 27
1000
0001
1000
0000
,  // measure 28
0001
1000
0001
0000
,  // measure 29
1000
0010
1000
0000
,  // measure 30
0001
0100
0001
0000
,  // measure 31
0001
0010
0001
0010
,  // measure 32
0100
1000
0100
1000
,  // measure 33
0010
0000
1001
0000
,  // measure 34
0110
0000
1001
0000
,  // measure 35
2200
0000
3300
0000
,  // measure 36
0202
0000
0303
0000
,  // measure 37
1100
0000
0101
0000
,  // measure 38
1001
0000
0000
0000
,  // measure 39
0020
0130
0200
0301
,  // measure 40
0010
0000
0100
1000
0100
0000
0010
0000
,  // measure 41
0001
0000
0010
0000
0100
1000
0100
0000
,  // measure 42
2002
0000
0000
3003
0000
0000
0010
0000
,  // measure 43
0200
0000
0000
0302
0000
0000
1003
0000
,  // measure 44
0220
0000
0330
1000
,  // measure 45
0002
0000
0000
0203
0000
0000
0310
0000
,  // measure 46
2000
0000
0000
0000
,  // measure 47
0000
0000
0000
0000
,  // measure 48
0000
0000
0000
0000
,  // measure 49
0000
0000
0000
3000
,  // measure 50
0001
0001
0010
0010
,  // measure 51
0100
0100
0010
0010
,  // measure 52
0001
1000
0001
0000
0010
0100
0010
0000
,  // measure 53
0100
1000
0100
1000
0200
0000
0300
0000
,  // measure 54
1001
1000
0100
1000
,  // measure 55
0100
0010
0100
0010
,  // measure 56
0100
0000
1000
0001
0001
0000
0001
0000
,  // measure 57
1001
0110
1001
0000
,  // measure 58
0010
0010
0100
0100
,  // measure 59
0001
1000
0100
1000
,  // measure 60
0001
0000
0010
0001
0001
0000
0001
0000
,  // measure 61
2000
0000
3000
0000
,  // measure 62
0110
1010
0110
0100
,  // measure 63
0101
0110
0101
0001
,  // measure 64
1001
0110
1001
0001
,  // measure 65
0200
0300
0000
0000
0010
0000
1000
0000
,  // measure 66
0010
0000
0100
0001
,  // measure 67
0100
0000
0000
0000
0001
0010
0001
0000
,  // measure 68
0010
0001
0010
0000
0100
1000
0100
0000
,  // measure 69
1000
0100
1000
0000
0020
0000
0000
0000
,  // measure 70
0000
0000
0000
0000
,  // measure 71
0000
0000
0000
0000
,  // measure 72
0000
0000
0000
0000
,  // measure 73
0030
0000
0200
0000
,  // measure 74
0302
0000
0023
0000
,  // measure 75
0230
0000
2300
0000
,  // measure 76
0000
0000
0000
0000
,  // measure 77
0000
3000
0001
0001
,  // measure 78
0100
0100
0001
0001
,  // measure 79
1000
1000
0010
0010
,  // measure 80
1000
1000
0001
0001
,  // measure 81
1000
0001
1000
1000
,  // measure 82
0100
0100
1000
1000
,  // measure 83
0001
0001
0010
0010
,  // measure 84
0100
0100
2002
0000
,  // measure 85
0000
3003
1001
0000
,  // measure 86
0010
0000
0100
0000
,  // measure 87
0010
0000
1000
0000
,  // measure 88
0010
0000
0100
0000
,  // measure 89
0001
0000
0100
0000
,  // measure 90
0010
0000
0100
0000
,  // measure 91
0010
0000
1000
0000
,  // measure 92
1000
0000
0001
0000
,  // measure 93
0001
0000
0100
0000
,  // measure 94
0001
0000
1000
0000
,  // measure 95
0010
0000
1000
0000
,  // measure 96
0001
0000
0100
0000
,  // measure 97
0010
0000
1000
0000
,  // measure 98
1000
0000
0100
0000
,  // measure 99
1000
0000
0001
0000
,  // measure 100
0001
0000
0010
0000
,  // measure 101
0001
0000
2000
0000
,  // measure 102
0000
0000
3002
0000
,  // measure 103
0023
0000
0230
0000
,  // measure 104
0000
0000
0320
0000
,  // measure 105
0032
0000
2003
0000
,  // measure 106
0000
0000
3002
0000
,  // measure 107
0203
0000
0320
0000
,  // measure 108
0000
0000
2030
0000
,  // measure 109
3020
0000
0130
0000
;
