#TITLE:Fivefor;
#SUBTITLE:;
#ARTIST:Stevie Deez;
#TITLETRANSLIT:;
#SUBTITLETRANSLIT:;
#ARTISTTRANSLIT:;
#GENRE:;
#CREDIT:;
#BANNER:;
#BACKGROUND:;
#LYRICSPATH:;
#CDTITLE:;
#MUSIC:fivefor.ogg;
#OFFSET:0.000000;
#SAMPLESTART:38.221699;
#SAMPLELENGTH:12.000000;
#SELECTABLE:YES;
#BPMS:0.000000=188.000000
,40.000000=188.500000
,110.000000=189.000000
;
#STOPS:
;
#BGCHANGES:;
#KEYSOUNDS:;
#ATTACKS:;

//---------------dance-single - ----------------
#NOTES:
     dance-single:
     :
     Beginner:
     2:
     0.128032,0.188962,0.075585,0.043191,0.000000,83.000000,76.000000,7.000000,4.000000,0.000000,0.000000,0.128032,0.188962,0.075585,0.043191,0.000000,83.000000,76.000000,7.000000,4.000000,0.000000,0.000000:
// measure 0
0000
0000
0000
0000
,  // measure 1
0000
0000
0000
0000
,  // measure 2
0000
0000
0000
0000
,  // measure 3
0000
0000
0000
0000
,  // measure 4
0000
0000
0000
0000
,  // measure 5
0000
0000
0000
0000
,  // measure 6
0000
0000
0000
0000
,  // measure 7
0000
0000
0000
0000
,  // measure 8
0000
0000
0000
0000
,  // measure 9
0000
0000
0000
0000
,  // measure 10
0001
0000
0000
0000
,  // measure 11
0000
0001
0000
0000
,  // measure 12
0000
0000
1000
0000
,  // measure 13
0000
0000
0000
1000
,  // measure 14
0000
0000
0000
0000
,  // measure 15
0001
0000
0000
0000
,  // measure 16
0000
1000
0000
0000
,  // measure 17
0000
0000
0001
0000
,  // measure 18
0000
0000
0000
1000
,  // measure 19
0000
0000
0000
0000
,  // measure 20
2000
0000
0000
0000
,  // measure 21
0000
3000
0000
0000
,  // measure 22
0000
0000
0002
0000
,  // measure 23
0000
0000
0000
0003
,  // measure 24
0000
0000
0000
0000
,  // measure 25
0200
0000
0000
0000
,  // measure 26
0000
0300
0000
0000
,  // measure 27
0000
0000
0020
0000
,  // measure 28
0000
0000
0000
0030
,  // measure 29
0000
0000
0000
0000
,  // measure 30
1001
0000
0000
0001
,  // measure 31
0000
1000
0000
0000
,  // measure 32
0001
0000
1000
0000
,  // measure 33
0000
0001
0000
1000
,  // measure 34
0000
0000
0001
0000
,  // measure 35
1001
0000
0000
1000
,  // measure 36
0000
0001
0000
0000
,  // measure 37
1000
0000
0001
0000
,  // measure 38
0000
1000
0000
0001
,  // measure 39
0000
0000
1000
0000
,  // measure 40
1001
0000
0000
0010
,  // measure 41
0000
0100
0000
0000
,  // measure 42
0010
0000
0100
0000
,  // measure 43
0000
0010
0000
0100
,  // measure 44
0000
0000
0010
0000
,  // measure 45
0110
0000
0000
0100
,  // measure 46
0000
0010
0000
0000
,  // measure 47
0100
0000
0010
0000
,  // measure 48
0000
0100
0000
0010
,  // measure 49
0000
0000
0100
0000
,  // measure 50
0000
0000
0000
0001
,  // measure 51
0000
0001
0000
0000
,  // measure 52
1000
0000
1000
0000
,  // measure 53
0000
0001
0000
0001
,  // measure 54
0000
0000
1000
0000
,  // measure 55
1001
0000
0000
0001
,  // measure 56
0000
0010
0000
0000
,  // measure 57
0001
0000
0010
0000
,  // measure 58
0000
0100
0000
1000
,  // measure 59
0000
0000
0100
0000
,  // measure 60
0110
0000
0000
1000
,  // measure 61
0000
0010
0000
0000
,  // measure 62
1000
0000
0010
0000
,  // measure 63
0000
0100
0000
0001
,  // measure 64
0000
0000
0100
0000
,  // measure 65
1001
0000
0000
0001
,  // measure 66
0000
1000
0000
0000
,  // measure 67
0100
0000
0010
0000
,  // measure 68
0000
0100
0000
1000
,  // measure 69
0000
0000
0001
0000
,  // measure 70
0010
0000
0000
0000
;

//---------------dance-single - ----------------
#NOTES:
     dance-single:
     :
     Easy:
     5:
     0.251436,0.302340,0.107979,0.215957,0.000000,163.000000,153.000000,10.000000,20.000000,0.000000,0.000000,0.251436,0.302340,0.107979,0.215957,0.000000,163.000000,153.000000,10.000000,20.000000,0.000000,0.000000:
0000
0000
0000
0000
,
0000
0000
0000
0000
,
0000
0000
0000
0000
,
0000
0000
0000
0000
,
0000
0000
0000
0000
,
0000
0000
0000
0000
,
0000
0000
0000
0000
,
0000
0000
0000
0000
,
0000
0000
0000
0000
,
0000
0000
0000
0000
,
1001
0000
0000
0001
0000
0000
0001
0000
,
0000
0000
0010
0000
0000
0001
0000
0000
,
0010
0000
0000
0000
0100
0000
0000
1000
,
0000
0100
0000
0010
,
0000
0010
0000
0000
0001
0000
0000
0000
,
1001
0000
0000
1000
0000
0000
1000
0000
,
0000
0000
0010
0000
0000
1000
0000
0000
,
0010
0000
0000
0000
0100
0000
0000
0001
,
0000
0100
0000
0010
,
0000
0010
0000
0000
1000
0000
1000
0000
,
2000
0000
0000
3000
,
0000
0001
0010
0100
,
1000
0001
2000
0000
,
0000
3000
0000
0001
,
0100
0010
1000
0001
,
2000
0000
0000
3000
,
0000
0002
0000
0000
,
0003
0000
2000
0000
,
0000
0000
0000
0002
,
0000
0000
0000
3003
,
2002
0000
3003
0001
,
0100
0010
0000
1000
,
0001
0000
0010
0000
0100
0000
0000
0010
,
0000
0001
0100
0010
,
0000
0010
0000
0000
1000
0000
0001
0000
,
2002
0000
3003
1000
,
0100
0010
0000
0100
,
1000
0000
0010
0000
0100
0000
0000
0010
,
0000
1000
0100
0010
,
0000
0100
0000
0000
1000
0000
0001
0000
,
2002
3003
0000
0000
0000
0000
0001
0000
,
0010
0001
0000
1000
,
0100
0010
0001
0000
,
0000
1000
0001
0100
,
0000
0100
0010
0100
,
0220
0000
0330
1000
,
0010
1000
0000
0001
,
0100
0010
1000
0000
,
0000
0001
1000
0100
,
0000
0010
0001
0001
,
0000
0000
0000
1001
,
0000
0100
0000
0001
,
1000
0010
1000
0000
,
0000
0001
0010
0001
,
0000
0000
1000
0100
,
0220
0000
0330
0001
,
1000
0001
0000
0000
,
1000
0100
0010
0000
,
0000
0010
0100
1000
,
0000
0000
0010
0100
,
0202
0000
0303
1000
,
0010
0000
0100
0000
0000
0001
0000
0000
,
1000
0000
0100
0000
0010
0000
0000
0001
,
0000
1000
0100
1000
,
0000
0010
0000
0000
0100
0000
0001
0000
,
2002
0000
3003
0001
,
0010
0000
0100
0000
0000
1000
0000
0000
,
0001
0000
0100
0000
0010
0000
0000
1000
,
0000
0001
0100
0001
,
0000
0010
0000
0000
0100
0000
1000
0000
,
1000
0000
0000
0000
;

//---------------dance-single - ----------------
#NOTES:
     dance-single:
     :
     Medium:
     8:
     0.385638,0.566887,0.129574,0.291542,0.000000,250.000000,238.000000,12.000000,27.000000,0.000000,0.000000,0.385638,0.566887,0.129574,0.291542,0.000000,250.000000,238.000000,12.000000,27.000000,0.000000,0.000000:
0000
0000
0000
0000
,
0000
0000
0000
0000
,
0000
0000
0000
0000
,
0000
0000
0000
0000
,
0000
0000
0000
0000
,
0000
0000
0000
0000
,
0000
0000
0000
0000
,
0000
0000
0000
0000
,
0000
0000
0000
0000
,
0000
0000
0000
0000
,
1002
0000
0000
1000
0000
0000
2003
0000
,
0000
3001
0100
0000
0000
0010
0000
0000
,
1000
0000
0000
0100
0010
0000
0000
0001
,
0000
0000
0010
0000
0000
0100
1000
0000
,
0000
0001
0000
0000
1000
0000
0000
0001
,
0100
0000
0000
0001
0000
0000
1000
0000
,
0000
0010
1000
0000
0000
0001
0000
0000
,
0010
0000
0000
0001
1000
0000
0000
0100
,
0000
0000
1000
0000
0000
0100
0010
0000
,
0000
0110
0000
0000
0110
0000
0000
0010
,
0002
0000
0000
0000
0003
1000
0000
0001
,
1000
0010
0100
0010
,
1000
0100
2000
0000
,
3000
0001
0000
1000
0001
0000
0010
0000
,
0100
0010
0001
0100
,
0002
0000
0000
0000
0003
1000
0000
0001
,
0000
0000
2000
0000
0000
0000
3000
0010
,
0000
0100
0000
0000
0020
0000
0000
0000
,
0030
0100
0000
2002
,
0000
0000
0000
3003
,
2002
0000
0000
0000
3003
0000
0001
0100
,
0001
0100
0010
0000
0000
0100
0000
0000
,
0001
0010
0100
1000
0002
1003
0000
0001
,
0000
0000
1000
0010
0100
0001
2000
3001
,
0000
1000
0000
0000
0010
0100
0010
0000
,
2002
0000
0000
0000
3003
0000
1000
0100
,
1000
0100
0010
0000
0000
0100
0000
0000
,
1000
0100
0010
0001
2000
3001
0000
1000
,
0000
0000
0001
0100
0010
1000
0002
1003
,
0000
0001
0000
0000
0010
0100
0010
0000
,
2002
0000
3003
1000
,
0010
1000
0010
0000
0000
0100
0000
0001
,
0100
0000
0001
0100
0001
0000
0000
1000
,
0000
0001
1000
0000
0001
1000
0001
0000
,
0000
0000
0010
0000
0100
1000
0001
0000
,
2002
0000
0000
0000
3003
0000
1000
0010
,
1000
0000
0100
0000
0000
0010
0000
0000
,
0100
1000
0001
1000
0001
0000
0000
0010
,
0000
0000
0001
1000
0010
1000
0010
0000
,
0000
1000
0000
0000
1001
0000
1000
0000
,
0000
0000
0000
0010
,
1000
0000
0100
0000
0000
0010
0000
0000
,
0100
1000
0001
1000
0100
0000
0000
1000
,
0000
0000
0010
1000
0001
1000
0010
0000
,
0000
0100
0000
0000
0001
0010
0001
0000
,
2002
0000
0000
0000
3003
0000
0001
0010
,
0100
0000
1000
0000
0000
0001
0000
0000
,
0010
0001
1000
0001
0010
0000
0000
0100
,
0000
0000
1000
0001
0100
0001
1000
0000
,
0000
0010
0000
0000
1000
0100
1000
0000
,
2002
0000
0000
0000
3003
0000
1000
0100
,
1000
0100
1000
0000
0000
0001
0000
0000
,
0010
0100
1000
0100
0010
0000
0000
0001
,
0000
0000
1000
0100
0010
0001
1000
0000
,
0000
0001
0000
0000
0100
0010
0100
0000
,
2002
0000
0000
0000
3003
0000
0001
0100
,
0001
0100
0001
0000
0000
0010
0000
0000
,
0001
0100
0010
1000
0001
0000
0000
1000
,
0000
0000
0001
0100
0010
0100
0001
1000
,
0100
1000
0001
1000
0100
0010
0001
0010
,
0001
0000
0000
0000
;

//---------------dance-single - ----------------
#NOTES:
     dance-single:
     :
     Hard:
     11:
     0.564573,0.642472,0.291542,0.345531,0.026995,366.000000,339.000000,27.000000,32.000000,0.000000,0.000000,0.564573,0.642472,0.291542,0.345531,0.026995,366.000000,339.000000,27.000000,32.000000,0.000000,0.000000:
0000
0000
0000
0000
,
0000
0000
0000
0000
,
0000
0000
0000
0000
,
0000
0000
0000
0000
,
0000
0000
0000
0000
,
0000
0000
0000
0000
,
0000
0000
0000
0000
,
0000
0000
0000
0000
,
0000
0000
0000
0000
,
0000
0000
0000
0000
,
1010
0000
0000
1010
0000
0000
1010
0000
,
1000
0001
0011
0000
0000
0011
0000
0000
,
0011
0000
0001
1000
1100
0000
0000
1100
,
0000
0000
1100
0000
1000
0001
0011
0000
,
0000
0011
0000
0000
0110
0000
0000
0100
,
2000
0000
0000
0001
0000
0000
3001
0000
,
1000
0010
1010
0000
0000
1010
0000
0000
,
1010
0000
0010
0100
0101
0000
0000
0101
,
0000
0000
0101
0000
0100
0010
0110
0000
,
0000
0110
0000
0000
0110
0000
0100
0000
,
0002
0000
0000
0000
0000
0103
0000
0001
,
1000
0001
0010
0000
0100
0000
1000
0000
,
0010
0100
0002
0000
,
0000
1003
0000
0100
0010
0001
1000
0000
,
0010
1000
0010
0100
,
0002
0000
0000
0000
0000
1003
0000
0100
,
0010
0001
2000
0000
0000
0000
0000
3001
,
0000
0100
0010
1000
0001
0100
0001
0010
,
0001
0100
0010
1000
0100
1000
0010
1000
,
0100
0010
0001
0100
0010
1000
0001
0000
,
2002
0000
0000
0000
3003
0000
1000
0100
,
1000
0100
0010
0100
0010
0001
1000
0001
,
0100
0010
1000
0001
0020
0130
0000
0020
,
0130
0000
1000
0010
1000
0001
0020
0130
,
0000
0020
0130
0000
1000
0100
0010
0200
,
2000
0000
0000
0000
3300
0000
0001
0100
,
0001
0100
0010
0100
0010
1000
0001
1000
,
0100
0010
0001
1000
0020
0130
0000
0020
,
0130
0000
0001
0010
0001
1000
0020
0130
,
0000
0020
0130
0000
0001
0010
0001
0010
,
0220
0000
0000
0000
0330
0000
0001
1000
,
0100
1000
0010
0100
0001
1000
0001
0100
,
0010
1000
0100
0010
0002
1003
0000
0002
,
1003
0000
0001
0100
1000
0100
0002
1003
,
0000
0002
1003
0000
0010
1000
0010
1000
,
0002
0000
0000
0000
0003
0000
1000
0001
,
0100
0001
0010
0100
1000
0001
1000
0100
,
0010
0100
1000
0010
1000
0000
0100
0010
,
0100
0010
0001
0010
0100
1000
0001
0000
,
1000
0010
0100
0010
0001
0010
1000
0010
,
0000
0000
0000
0000
0000
0100
0110
0000
,
0100
0000
0010
1000
0010
1000
0001
0100
,
0001
1000
0100
1000
0010
0100
0001
0010
,
0100
0000
1000
0000
0010
0000
0000
0100
0000
0000
0001
0000
0010
0000
0100
0000
,
1000
0000
0010
0000
0100
0000
0001
0000
0010
0000
0000
0100
0000
0000
1000
0000
,
0002
0000
0000
0000
0003
0000
1000
0001
,
1000
0100
0010
0100
0010
0100
1000
0100
,
0001
0100
1000
0001
0010
0001
0100
0010
,
1000
0000
0100
0000
0010
0000
0000
0100
0000
0000
1000
0000
0010
0000
1000
0000
,
0100
0010
0001
1000
0010
0010
0001
0010
,
0200
0000
0300
1001
,
1000
0000
0010
1000
0010
0100
0001
0100
,
0001
0010
0100
0010
0002
1003
0000
0002
,
1003
0000
0000
0000
0010
0000
0000
0100
0000
0000
0001
0000
2000
0000
3001
0000
,
0000
0000
2000
0000
3001
0000
0000
0000
0100
0000
0000
0010
0000
0000
1000
0000
,
2002
0000
0000
0000
3003
0000
1000
0010
,
0100
0001
0010
1000
0010
0001
1000
0001
,
0100
1000
0100
0001
0010
0000
0100
0010
,
0001
1000
0010
0100
0001
0010
1000
0000
,
0001
0100
0010
0001
1000
0001
0100
0010
,
0110
0000
0000
0000
;
