#TITLE:Fire Power;
#SUBTITLE:;
#ARTIST:Audiofreq;
#TITLETRANSLIT:;
#SUBTITLETRANSLIT:;
#ARTISTTRANSLIT:;
#GENRE:;
#CREDIT:;
#BANNER:banner.png;
#BACKGROUND:background.png;
#LYRICSPATH:;
#CDTITLE:;
#MUSIC:audiofreq-fire-power.ogg;
#OFFSET:-0.009000;
#SAMPLESTART:28.809231;
#SAMPLELENGTH:14.400005;
#SELECTABLE:YES;
#DISPLAYBPM:100.000000:200.000000;
#BPMS:0.000000=200.000000
,96.000000=100.000000
,100.000000=200.000000
,107.000000=400.000000
,108.000000=200.000000
,164.000000=100.000000
,168.000000=200.000000
,200.000000=100.000000
,216.000000=200.000000
,240.000000=100.000000
,243.500000=200.000000
,308.000000=100.000000
;
#STOPS:107.500000=0.150000,
243.500000=0.150000
;
#BGCHANGES:;
#KEYSOUNDS:;
#ATTACKS:;

//---------------dance-single - ----------------
#NOTES:
     dance-single:
     Intended Chart (But more):
     Challenge:
     13:
     0.819099,1.180707,0.199275,0.471014,0.860507,633.000000,611.000000,22.000000,52.000000,26.000000,4.000000,0.819099,1.180707,0.199275,0.471014,0.860507,633.000000,611.000000,22.000000,52.000000,26.000000,4.000000:
0000
0000
0000
0000
,
0000
0000
0000
0000
,
0000
0000
0000
0000
,
0000
0000
0000
0000
,
0000
0000
0000
0000
,
0000
0000
0000
0000
,
0000
0000
0000
0000
,
0000
0000
0000
0000
,
1000
0000
0100
0000
0001
0100
1000
0010
,
0001
0000
0010
0000
1000
0100
0010
0001
,
0100
0000
0010
0000
1000
0100
0010
0001
,
0100
0000
0001
0000
0010
1000
0001
0100
,
0010
0000
0001
1000
0010
0001
1000
0100
,
0001
0000
1000
0010
0001
0010
0100
0001
,
1000
0000
0100
0001
0100
1000
0001
0100
,
0020
0000
2030
0000
,
3001
1000
0100
0010
0100
0010
0001
0010
,
0100
1000
0001
0100
0010
0100
0010
0100
,
0001
1000
0100
0010
0100
0001
0100
0010
,
0100
1000
0001
0100
0010
0100
1000
0100
,
0010
0100
0001
1000
0100
0010
0001
0100
,
0001
0010
0100
1000
0010
0100
0001
0010
,
0001
0100
0010
1000
0100
0010
0100
1000
,
0100
1000
0100
1000
0100
0010
0100
0010
0001
0010
0001
1000
0001
1000
0010
1000
,
0020
0000
0000
0030
,
011M
1001
1100
0011
,
1010
0000
0101
0000
0110
0000
1001
00M0
,
0001
0000
0000
0000
1000
0000
0100
00M0
0100
0000
0000
0000
0001
0000
0100
00M0
0100
0000
0000
0000
1000
0000
0100
00M0
0100
0000
0000
0000
0001
0000
0100
00M0
,
0100
0000
1000
0100
0010
0000
0001
1000
0001
0100
0001
1000
0001
0010
0001
0010
,
0001
0000
0000
0000
1000
0000
0010
0M00
0010
0000
0000
0000
0001
0000
0010
0M00
0010
0000
0000
0000
1000
0000
0010
0M00
0010
0000
0000
0000
0001
0000
0010
0000
,
0400
0000
0000
0000
0000
0000
1010
0300
,
1001
0000
0000
0000
1001
0000
0000
0000
0110
0000
0000
0000
1001
0000
0000
0000
1001
0000
0000
0000
0001
0000
1000
0000
0400
0300
0000
0000
1000
0000
0001
0000
,
0400
0300
0000
0000
0001
0000
1000
0000
0040
0030
0000
0000
1000
0000
0001
0000
0040
0030
0000
0000
0100
0000
0010
0000
0004
0003
0000
0000
0010
0000
0100
0000
,
0001
0100
0010
0100
2000
0000
0000
0000
0101
0000
3000
0000
0100
00M0
0100
0000
,
0004
4003
3400
0340
,
0131
0000
0000
0000
0000
0000
1010
0000
0000
0000
0000
0000
0101
0000
0000
0000
1001
0000
0000
0000
0000
0000
0000
0000
2000
3000
0000
0000
0001
0000
0010
0000
,
0200
0300
0000
0000
1000
0000
0010
0000
0200
0300
0000
0000
0001
0000
0010
0000
0100
0000
00M0
0000
0100
0000
0000
0000
0100
0000
0000
0000
0100
0000
0000
0000
,
0200
0000
0000
0000
0000
0000
0000
0000
0000
0000
0000
0000
0000
0000
0000
0000
0000
0000
0000
0000
0000
0000
0000
0000
0300
0000
0000
0000
0000
0000
0000
0000
0000
0000
0000
0000
0000
0000
0000
0000
0000
0000
0000
0000
0000
0000
0000
0000
4000
0000
0000
0000
0000
0000
0000
0000
0000
0000
0000
0000
3000
0000
0000
0000
0000
0000
0000
0000
0000
0000
0000
0000
0002
0000
0000
0000
0000
0000
0003
0000
0000
0000
0000
0000
0000
0000
0000
0000
0000
0000
0000
0000
0000
0000
0000
0000
0020
0000
0000
0000
0000
0000
0030
0000
0000
0000
0000
0000
0000
0000
0000
0000
0000
0000
0000
0000
0000
0000
0000
0000
0001
0000
0000
0000
0000
0000
0000
0000
0010
0000
0000
0000
0000
0000
0000
0000
0001
0000
0000
0000
0000
0000
0000
0000
0020
0000
0000
0000
0000
0000
0030
0000
0000
0000
0000
0000
0000
0000
0000
0000
0000
0000
0000
0000
0000
0000
0000
0000
0200
0000
0000
0000
0000
0000
0300
0000
0000
0000
0000
0000
0000
0000
0000
0000
0000
0000
0000
0000
0000
0000
0000
0000
,
1000
0000
0100
0000
0001
0000
0100
0000
2000
3000
0000
0000
0002
0003
0000
0000
0200
0300
0000
0000
0000
0000
0000
0000
2MMM
0000
0000
0000
0000
0000
0000
0000
,
3200
0000
0000
0000
0000
0000
0000
0000
0344
0033
0000
0000
0000
0000
0000
0000
4400
3300
0000
0000
0000
0000
0000
0000
0004
0003
0000
0000
0000
0000
0000
0000
,
4000
3000
0000
0000
0000
0000
0000
0000
0400
0300
0000
0000
0000
0000
0000
0000
0040
0030
0000
0000
0100
0000
1000
0000
0100
0000
0010
0000
0100
0000
1000
0000
,
020M
0320
0230
2300
3002
0000
0000
0000
,
M103
0001
0100
0001
0100
0010
0100
0010
1000
0010
1000
0010
1000
0001
1000
0001
,
0010
0000
0100
0000
0010
0000
0100
0000
0010
0000
0001
0000
1000
0000
0001
0000
1000
0000
0010
0000
0200
0300
0000
0000
0020
0030
0000
0000
2000
3000
0000
0000
,
0001
0010
0001
0010
0100
0010
0100
1000
0100
1000
0001
1000
0010
0100
0010
0100
,
0001
1000
0001
1000
0400
0000
0000
0000
0340
0000
0000
0000
0032
0000
0000
0000
,
0010
0000
0010
0003
0010
0001
0010
0100
0010
0100
1000
0100
1000
0001
1000
0001
,
0100
0000
0001
0000
0100
0000
0010
0000
0100
0000
0010
0000
1000
0000
0001
0000
2000
3000
0000
0000
2000
3000
0000
0000
0100
0000
0010
0000
0001
0000
1000
0000
,
0100
0010
0100
1000
0100
0010
0001
1000
0010
0100
0010
1000
0040
0000
0000
0000
,
2030
000M
0M00
000M
,
3M20
0000
0230
0000
,
0302
0000
0000
0000
,
0023
0000
0230
0000
,
2300
0000
0000
0000
0000
0000
0000
0000
0000
0000
0000
0000
0000
0000
0000
0000
3400
0000
0300
0000
0010
0100
0010
0000
0200
0000
0000
0000
2300
0000
0000
0000
,
30M1
1000
0010
0100
,
0001
0000
0100
0000
0010
0000
1000
0001
,
0010
0100
1000
0100
,
0010
0000
0001
0000
1000
0010
0100
0010
,
1000
0001
0010
0100
1000
0001
0100
0010
,
1000
0010
1000
0010
0100
0010
0100
0001
0100
0001
1000
0001
1000
0100
1000
0100
,
002M
0230
2300
3002
0203
0000
0000
M300
,
0001
0100
0001
0100
0010
0100
0010
1000
0010
1000
0001
1000
0100
0010
0100
1000
,
0100
0000
0010
0000
0001
0000
1000
0000
0001
0000
0010
0000
0100
0000
0010
0000
0100
0000
1000
0000
0100
0000
1000
0000
0004
0003
0000
0000
0004
0003
0000
0000
,
1000
0000
0001
0000
0100
0000
0001
0000
1000
0000
0001
0000
0100
0000
0010
0000
1000
0000
0010
0000
0100
0000
0001
0000
0040
0030
0000
0000
0400
0300
0000
0000
,
0010
0001
0010
0100
0010
0100
1000
0001
4000
0000
0000
0000
3040
0000
0000
0000
,
0130
0001
0100
0010
1000
0001
1000
0100
0010
0100
1000
0001
1000
0010
0100
0010
,
0100
0000
0000
0000
0000
0000
0000
0000
0000
0000
0000
0000
0001
0000
0000
0000
0000
0000
0000
0000
0000
0000
0000
0000
1000
0000
0000
0000
0000
0000
0000
0000
0000
0000
0000
0000
0001
0000
0000
0000
0000
0000
0000
0000
0000
0000
0000
0000
0010
0000
0000
0000
0000
0000
0000
0000
0000
0000
0000
0000
0100
0000
0000
0000
0000
0000
0000
0000
0000
0000
0000
0000
0010
0000
0000
0000
0000
0000
0000
0000
0000
0000
0000
0000
0001
0000
0000
0000
0000
0000
0000
0000
0000
0000
0000
0000
0040
0000
0000
0000
0000
0000
0030
0000
0000
0000
0000
0000
0000
0000
0000
0000
0000
0000
0000
0000
0000
0000
0000
0000
0100
0000
0000
0000
0000
0000
0000
0000
1000
0000
0000
0000
0000
0000
0000
0000
0100
0000
0000
0000
0000
0000
0000
0000
1000
0000
0000
0000
0000
0000
0000
0000
0000
0000
0000
0000
0000
0000
0000
0000
0000
0000
0000
0000
0000
0000
0000
0000
0001
0000
0000
0000
0000
0000
0000
0000
0010
0000
0000
0000
0000
0000
0000
0000
0001
0000
0000
0000
0000
0000
0000
0000
,
0010
0000
0001
0100
0020
0000
0000
0000
0230
0000
0000
0000
0320
0000
0000
0000
,
4M30
3004
0403
0304
4003
3000
0200
0300
,
2000
0000
3001
0000
10M0
0001
0100
0001
1000
0100
1000
0001
0100
0010
0100
0001
,
1000
0000
0100
0000
0010
0000
0100
0000
1000
0000
0001
0000
0100
0000
0010
0000
0100
0000
0001
0000
1000
0000
0100
0000
0040
0030
0000
0000
0040
0030
0000
0000
,
0010
0100
1000
0001
0100
0010
0100
0001
2000
0000
3001
0010
0100
1000
0001
1000
,
0010
0000
0100
0000
0001
0000
0100
0000
0001
0000
1000
0000
0400
0000
0000
0000
0300
0000
0000
0000
4000
3000
0000
0000
0100
0000
0010
0000
0100
0000
1000
0000
,
0001
0000
0100
0000
0010
0000
1000
0000
0001
0000
0010
0000
0400
0300
0000
0000
1000
0000
0100
0000
0010
0000
0001
0000
1000
0000
0001
0000
0100
0000
0010
0000
,
1000
0000
0000
0000
0000
0000
0000
0000
0000
0000
0000
0000
0001
0000
0000
0000
0000
0000
0000
0000
0000
0000
0000
0000
1000
0000
0000
0000
0000
0000
0000
0000
0000
0000
0000
0000
0100
0000
0000
0000
0000
0000
0000
0000
0000
0000
0000
0000
0010
0000
0000
0000
0000
0000
0000
0000
0000
0000
0000
0000
0001
0000
0000
0000
0000
0000
0000
0000
0000
0000
0000
0000
1000
0000
0000
0000
0000
0000
0000
0000
0000
0000
0000
0000
0001
0000
0000
0000
0000
0000
0000
0000
0000
0000
0000
0000
0400
0000
0000
0000
0000
0000
0300
0000
0000
0000
0000
0000
0000
0000
0000
0000
0000
0000
0000
0000
0000
0000
0000
0000
0010
0000
0000
0000
0000
0000
0000
0000
1000
0000
0000
0000
0000
0000
0000
0000
0010
0000
0000
0000
0000
0000
0000
0000
1000
0000
0000
0000
0000
0000
0000
0000
0000
0000
0000
0000
0000
0000
0000
0000
0000
0000
0000
0000
0000
0000
0000
0000
0001
0000
0000
0000
0000
0000
0000
0000
0100
0000
0000
0000
0000
0000
0000
0000
0001
0000
0000
0000
0000
0000
0000
0000
,
0200
0000
0000
0300
0000
0000
0010
0000
0000
1000
0000
0000
0200
0000
0000
0300
0000
0000
0000
0000
0000
0000
0000
0000
0010
0000
0000
0001
0000
0000
0100
0000
0010
0000
0000
0000
1000
0000
0000
0000
0001
0000
0000
0000
0010
0000
0000
0000
,
0100
1000
0010
0100
0001
1000
0400
0000
0000
0300
0000
0000
,
2002
0000
3003
0000
,
0000
0000
0000
0000
,
00M0
0000
0000
0000
;

//---------------dance-single - ----------------
#NOTES:
     dance-single:
     Intended Chart:
     Hard:
     12:
     0.729814,1.037591,0.117754,0.498188,0.611413,564.000000,551.000000,13.000000,55.000000,21.000000,1.000000,0.729814,1.037591,0.117754,0.498188,0.611413,564.000000,551.000000,13.000000,55.000000,21.000000,1.000000:
0000
0000
0000
0000
,
0000
0000
0000
0000
,
0000
0000
0000
0000
,
0000
0000
0000
0000
,
0000
0000
0000
0000
,
0000
0000
0000
0000
,
0000
0000
0000
0000
,
0000
0000
0000
0000
,
0001
0000
1000
0000
0100
0010
0100
1000
,
0001
0000
0100
0000
0010
0000
1000
0010
,
0100
0000
0001
0000
1000
0100
0010
0001
,
1000
0000
0010
0000
0100
0000
0001
0100
,
0010
0000
1000
0000
0100
0010
0001
0100
,
0010
0000
0100
0000
0001
0000
0010
0100
,
2000
0000
0000
0000
,
0000
0000
0000
3000
,
0001
1000
0100
0010
0100
1000
0100
0010
,
0001
1000
0001
0100
0010
1000
0010
0100
,
0001
1000
0100
0010
0100
0010
0001
1000
,
0010
0100
0010
0100
0001
0100
0001
1000
,
0100
0010
0001
1000
0010
0100
0010
1000
,
0001
0010
0100
1000
0010
0100
0001
1000
,
0100
0010
0001
0100
0010
1000
0100
1000
,
0100
1000
0100
1000
0100
0010
0100
0010
0001
0010
0001
1000
0001
1000
0010
1000
,
0020
0000
0000
0030
,
101M
0110
0101
1001
,
1100
0000
0110
0000
0011
0000
0002
M003
,
0010
0000
0001
0010
0001
0000
1000
0001
1000
0000
0010
1000
0010
0000
0100
0010
,
0100
0000
0001
0100
0001
0000
1000
0010
1000
0010
0100
0010
0100
0001
0100
0001
,
2000
3000
0000
0000
0001
0000
1000
0000
0100
0000
0000
0000
1000
0000
0100
0000
0010
0000
0000
0000
0100
0000
0010
0000
0001
0000
0000
0000
0010
0000
0001
0000
,
4000
0000
0000
0101
,
31M0
0000
0100
0000
01M0
0000
0100
0000
0100
0000
1000
0100
1000
0000
0100
0010
,
0100
0000
0010
0001
0010
0000
0001
1000
0001
0000
1000
0010
1000
0000
0010
0100
,
0010
0100
0001
0100
0002
0000
0000
0000
0100
0000
0003
0000
0001
0000
0001
0000
,
0004
0000
4003
0000
3400
0000
0340
0030
,
0110
0000
0000
1100
0000
0000
1001
0000
1001
0000
0000
0000
0001
0000
0100
0001
,
0100
0000
0001
1000
0001
0000
1000
0100
1000
0000
0100
0000
0001
0000
0100
0000
,
2000
0000
0000
3000
0000
0000
0000
0000
0000
0001
0000
0000
0100
0000
0000
0000
0000
0000
0010
0000
0000
0000
0000
0000
0100
0000
0000
0000
0000
0000
0001
0000
0100
0000
0000
0000
0001
0000
0000
0000
0000
0000
0100
0000
0000
0000
0000
0000
,
0010
1000
0001
0010
0100
0000
1000
0000
0100
0000
0000
0000
2MMM
0000
0000
0000
,
3100
0000
0010
0001
1000
0000
0001
1000
0010
0000
0100
0010
1000
0000
0001
1000
,
0100
0000
0010
0100
1000
0000
0001
0100
0010
0000
0100
0001
1000
0001
0100
0010
,
020M
0320
2030
3200
0320
0000
0000
0000
,
M130
0000
0010
0000
0001
0000
1000
0000
0001
1000
0001
1000
0010
1000
0010
1000
,
0010
0000
0100
0000
0001
0000
1000
0000
0100
1000
0100
1000
0100
0010
0100
0010
,
0100
0000
0010
0000
0001
0000
1000
0000
0010
1000
0010
1000
0001
0100
0001
0100
,
0002
2003
3020
0230
,
0310
0000
0100
0000
0001
0000
1000
0000
0100
1000
0100
1000
0001
0100
0001
0100
,
0001
0000
1000
0000
0010
0000
0100
0000
0001
0100
0001
0100
0010
1000
0010
1000
,
0001
0000
0000
0000
1000
0000
0000
0000
0100
0000
0000
0000
0010
0000
0000
0000
0001
0000
1000
0000
0001
0000
1000
0000
0001
0000
0100
0000
0004
0003
0000
0000
,
M200
00M0
M000
000M
,
0320
0000
2030
0000
,
3200
0000
0000
0000
,
0320
0000
0032
0000
,
2003
0000
0000
0000
0000
0000
0000
0000
0000
0000
0000
0000
0000
0000
0000
0000
3004
0000
0003
0000
0100
0010
0100
0000
0020
0000
0000
0000
0230
0000
0000
0000
,
M301
0100
0010
1000
,
0100
0000
0010
0000
0001
0000
1000
0001
,
0010
0100
1000
0001
,
0100
0000
0000
0000
0010
0000
0000
0000
0100
0000
0001
0000
0010
0M00
0010
0000
,
1000
0100
0010
0001
0100
0010
1000
0100
,
1000
0100
1000
0100
1000
0001
1000
0001
0100
0001
0100
0010
0100
0010
1000
0010
,
200M
3020
0230
0302
0023
0000
0000
M030
,
0001
0000
0010
0000
0001
0010
0001
0010
0100
0010
0100
0010
0001
0010
0001
0010
,
0200
0300
0000
0000
1000
0000
0000
0000
0001
0000
0100
0000
0001
0000
0100
0000
0010
0000
0100
0000
0010
0000
0100
0000
0002
0003
0000
0000
0002
0003
0000
0000
,
0002
0003
0000
0000
1000
0000
0000
0000
0100
0000
1000
0000
0100
0000
1000
0000
0002
0003
0000
0000
0100
0000
0001
0000
0200
0000
0000
0000
0300
0000
0000
0000
,
0001
0000
0100
0000
0001
0000
0100
0000
0020
0030
0000
0000
0100
0000
0000
0000
0020
0000
0000
0000
0030
0000
0000
0000
2000
0000
0000
0000
3000
0000
0000
0000
,
0001
0000
1000
0000
0100
1000
0100
1000
0100
0010
0100
0010
0100
1000
0100
1000
,
0100
0000
0000
0000
0000
0000
0000
0000
0000
0000
0000
0000
0000
0000
0000
0000
0000
0000
0000
0000
0000
0000
0000
0000
0010
0000
0000
0000
0000
0000
0000
0000
0000
0000
0000
0000
0000
0000
0000
0000
0000
0000
0000
0000
0000
0000
0000
0000
0001
0000
0000
0000
0000
0000
0000
0000
0000
0000
0000
0000
0010
0000
0000
0000
0000
0000
0000
0000
0000
0000
0000
0000
0001
0000
0000
0000
0000
0000
0000
0000
0000
0000
0000
0000
0010
0000
0000
0000
0000
0000
0000
0000
0000
0000
0000
0000
0001
0000
0000
0000
0000
0000
0000
0000
0000
0000
0000
0000
0000
0000
0000
0000
0000
0000
0000
0000
0000
0000
0000
0000
1000
0000
0000
0000
0000
0000
0000
0000
0001
0000
0000
0000
0000
0000
0000
0000
0000
0000
0000
0000
0000
0000
0000
0000
2000
0000
0000
0000
0000
0000
3000
0000
0000
0000
0000
0000
0000
0000
0000
0000
0000
0000
0000
0000
0000
0000
0000
0000
0001
0000
0000
0000
0000
0000
0000
0000
0100
0000
0000
0000
0000
0000
0000
0000
0000
0000
0000
0000
0000
0000
0000
0000
,
0002
0003
0000
0000
0100
0000
0001
0000
2000
0000
0000
0000
0000
0000
0000
0000
3002
0000
0000
0000
0000
0000
0000
0000
0203
0000
0000
0000
0000
0000
0000
0000
,
M340
0430
0304
2003
,
3100
0000
0010
0000
010M
0010
0100
0010
0100
1000
0100
1000
0100
0010
0100
1000
,
0200
0300
0000
0000
1000
0000
0000
0000
0001
0000
1000
0000
0001
0000
1000
0000
0010
0000
1000
0000
0010
0000
1000
0000
0001
0000
1000
0000
0010
0000
1000
0000
,
0001
0000
1000
0000
0100
0000
1000
0000
0010
0M00
0010
0000
0001
0000
0010
0000
,
0100
0000
1000
0000
0100
0000
0001
0000
0100
0000
0010
0001
0010
0000
0100
1000
,
0200
0000
0000
0300
2000
3000
0100
0000
1000
0100
0010
0100
1000
0100
0010
0100
,
2000
3000
0000
0000
0001
0000
0000
0000
0100
0000
0001
0000
0100
0000
0010
0000
0100
0000
0001
0000
0100
0000
0010
0000
0200
0300
0000
0000
0010
0000
1000
0000
,
0002
0000
0000
0000
0000
0000
0003
0000
0000
0000
0000
0000
0000
0000
0000
0000
0000
0000
0000
0000
0000
0000
0000
0000
1000
0000
0000
0000
0000
0000
0000
0000
0000
0000
0000
0000
0100
0000
0000
0000
0000
0000
0000
0000
0000
0000
0000
0000
0020
0000
0000
0000
0000
0000
0000
0000
0000
0000
0000
0000
0000
0000
0000
0000
0000
0000
0000
0000
0000
0000
0000
0000
0000
0000
0000
0000
0000
0000
0000
0000
0000
0000
0000
0000
0000
0000
0000
0000
0000
0000
0000
0000
0000
0000
0000
0000
0130
0000
0000
0000
0000
0000
0000
0000
0000
0000
0000
0000
1000
0000
0000
0000
0000
0000
0000
0000
0000
0000
0000
0000
0001
0000
0000
0000
0000
0000
0000
0000
0000
0000
0000
0000
0000
0000
0000
0000
0000
0000
0000
0000
0000
0000
0000
0000
1000
0000
0000
0000
0000
0000
0000
0000
0000
0000
0000
0000
0000
0000
0000
0000
0001
0000
0000
0000
0000
0000
0000
0000
0000
0000
0000
0000
0000
0000
0000
0000
1000
0000
0000
0000
0000
0000
0000
0000
0000
0000
0000
0000
0000
0000
0000
0000
,
0020
0000
0000
0030
,
2002
0000
3003
0000
,
0000
0000
0000
0000
,
00M0
0000
0000
0000
;

//---------------dance-single - ----------------
#NOTES:
     dance-single:
     For that friend that plays:
     Medium:
     10:
     0.566770,0.679801,0.054348,0.425725,0.054348,438.000000,432.000000,6.000000,47.000000,12.000000,0.000000,0.566770,0.679801,0.054348,0.425725,0.054348,438.000000,432.000000,6.000000,47.000000,12.000000,0.000000:
// measure 0
0000
0000
0000
0000
,  // measure 1
0000
0000
0000
0000
,  // measure 2
0000
0000
0000
0000
,  // measure 3
0000
0000
0000
0000
,  // measure 4
0000
0000
0000
0000
,  // measure 5
0000
0000
0000
0000
,  // measure 6
0000
0000
0000
0000
,  // measure 7
0000
0000
0000
0000
,  // measure 8
1000
0000
0100
0000
0010
0000
0100
1000
,  // measure 9
0010
0000
0100
0000
0001
0000
0100
0010
,  // measure 10
1000
0000
0001
0000
0010
0000
0100
0010
,  // measure 11
0001
0000
0010
0000
0100
1000
0001
0100
,  // measure 12
0010
0000
1000
0000
0001
0000
0010
0100
,  // measure 13
1000
0001
0100
0010
,  // measure 14
2000
0000
0000
0000
,  // measure 15
0000
0000
0000
0000
,  // measure 16
3001
1000
0100
0010
0100
1000
0001
0100
,  // measure 17
0010
1000
0010
0100
0001
1000
0100
0010
,  // measure 18
0100
0010
0001
1000
0010
0100
0010
0100
,  // measure 19
0010
1000
0001
0010
0100
1000
0001
1000
,  // measure 20
0010
0100
0001
1000
0001
0010
0100
1000
,  // measure 21
0100
0010
0001
0100
0010
1000
0001
1000
,  // measure 22
0100
0010
0001
0100
0010
1000
0100
0010
,  // measure 23
0001
0100
0001
0010
0100
1000
0010
0100
,  // measure 24
0002
0000
0000
0000
,  // measure 25
M403
0300
0104
0003
0004
0003
4001
3000
,  // measure 26
4000
3000
1400
0300
0400
0300
0110
0000
,  // measure 27
001M
0100
1000
0100
0001
0100
1000
0001
,  // measure 28
0100
0010
1000
0010
0001
0010
1000
0010
,  // measure 29
0100
0001
0100
1000
0100
0001
0200
0300
,  // measure 30
0004
0000
0000
0000
,  // measure 31
0103
0000
0200
0000
0001
0300
0001
0000
1000
0000
0001
0000
1000
0000
0100
0000
,  // measure 32
0001
0100
1000
0001
0100
1000
0100
0001
,  // measure 33
0100
0001
0100
0000
0001
0000
0100
0000
0010
0000
1000
0000
0001
0000
0010
0000
,  // measure 34
0200
2300
3002
0203
,  // measure 35
0310
0000
0000
0110
0000
0000
0100
0000
0001
0000
0010
0000
0100
0000
1000
0000
,  // measure 36
0010
0001
0010
1000
0001
0010
0M10
0010
,  // measure 37
0001
0000
0010
0000
0100
0000
1000
0000
0010
0000
0100
0010
0100
0000
0001
0000
,  // measure 38
1000
0001
1000
0000
0100
0000
0010
0000
0100
0000
0001
0000
2000
0000
3000
0000
,  // measure 39
0001
0100
0010
0001
1000
0010
0100
1000
,  // measure 40
0001
0000
1000
0000
0100
0000
0010
0000
1000
0000
0010
1000
0010
1000
0010
0000
,  // measure 41
200M
3020
0230
0302
2003
0000
3200
0000
,  // measure 42
031M
0100
1000
0010
0100
0001
0010
0100
,  // measure 43
1000
0000
0100
0000
0010
0000
0001
0000
0100
0000
0020
0000
1000
0000
1000
0030
,  // measure 44
1000
0010
0100
0001
1000
0100
0010
0001
,  // measure 45
2000
3002
0023
0230
,  // measure 46
0010
0310
0100
1000
0001
0100
0010
2000
,  // measure 47
0010
3000
0010
0000
0100
0000
0001
0000
1000
0000
0010
0100
0010
0100
0020
0000
,  // measure 48
0100
0030
0100
0000
0010
0000
1000
0000
0001
0000
0010
0000
0100
0000
0010
0000
,  // measure 49
0002
0000
0000
0000
,  // measure 50
0023
0000
0230
0000
,  // measure 51
2300
0000
0000
0000
,  // measure 52
3020
0000
0230
0000
,  // measure 53
0302
0000
0000
0000
0000
0000
0000
0000
0103
0000
0010
0100
0002
0000
0203
0000
,  // measure 54
M310
0100
0001
1000
,  // measure 55
0100
0000
0010
0000
0001
0000
1000
0001
,  // measure 56
0010
0100
1000
0001
,  // measure 57
0100
0000
0010
0000
1000
0010
0100
0010
,  // measure 58
1000
0001
0010
0100
1000
0010
0100
0001
,  // measure 59
1000
0100
0010
0001
0010
0100
0010
0001
,  // measure 60
M020
0230
0320
0032
2003
0000
0000
3000
,  // measure 61
010M
0010
0100
1000
0100
0010
0100
1000
,  // measure 62
0001
0100
0010
0100
0001
0100
0010
0100
,  // measure 63
0001
0000
0000
0000
1000
0000
0000
0000
0010
0000
0000
0000
0100
0000
0000
0000
0010
0000
0000
0000
1000
0000
0000
0000
0040
0030
0000
0000
0400
0300
0000
0000
,  // measure 64
0010
0000
1000
0000
0001
0000
0010
0000
0200
0300
0000
0000
1000
0000
0010
0000
,  // measure 65
0100
0010
0001
0010
0100
0001
1000
0001
,  // measure 66
0010
0000
0000
0000
0100
0000
0000
0000
0010
0000
0000
0000
1000
0000
0000
0000
0010
0000
0000
0000
0400
0300
0000
0000
0040
0030
0000
0000
0400
0300
0000
0000
,  // measure 67
1000
0000
0100
1000
0200
0000
0300
0000
0020
0000
0030
0000
0002
0000
0003
0000
,  // measure 68
2000
0000
3020
0000
0130
0001
0200
0000
,  // measure 69
0000
0000
M301
0010
0100
1000
0010
0100
,  // measure 70
0001
1000
0100
0010
0001
1000
0001
0100
,  // measure 71
0010
0000
0000
0000
1000
0000
0000
0000
0001
0000
0000
0000
1000
0000
0000
0000
0100
0000
0000
0000
0004
0003
0000
0000
0100
0000
0000
0000
1000
0000
0000
0000
,  // measure 72
0001
0000
0100
00M0
0100
0000
1000
0000
0100
00M0
0100
0000
0002
0000
0000
0000
,  // measure 73
1003
0100
0010
1000
0010
0001
1000
0010
,  // measure 74
0001
0010
1000
0001
0010
0100
0010
1000
,  // measure 75
0001
0100
0010
0001
1000
0010
0001
1000
,  // measure 76
0200
0000
0000
0000
0000
0300
0000
0000
,  // measure 77
2002
0000
3003
0000
,  // measure 78
0000
0000
0000
0000
,  // measure 79
00M0
0000
0000
0000
;

//---------------dance-single - ----------------
#NOTES:
     dance-single:
     For that friend's friend:
     Easy:
     9:
     0.535714,0.644022,0.018116,0.452899,0.054348,414.000000,412.000000,2.000000,50.000000,13.000000,0.000000,0.535714,0.644022,0.018116,0.452899,0.054348,414.000000,412.000000,2.000000,50.000000,13.000000,0.000000:
0000
0000
0000
0000
,
0000
0000
0000
0000
,
0000
0000
0000
0000
,
0000
0000
0000
0000
,
0000
0000
0000
0000
,
0000
0000
0000
0000
,
0000
0000
0000
0000
,
0000
0000
0000
0000
,
0001
1000
0100
0010
,
0100
0000
1000
0000
0001
0000
0100
0001
,
1000
0010
0100
0010
,
1000
0000
0001
0000
0010
0000
0100
0010
,
0001
0010
0001
1000
,
0010
0000
0100
0000
0010
0000
1000
0001
,
0200
0000
0000
0000
,
0000
0000
0000
0000
,
0301
0100
0001
0100
0010
1000
0010
1000
,
0001
0010
0001
0010
0100
1000
0100
1000
,
0100
0010
0001
1000
0001
0010
0100
1000
,
0001
0100
0010
1000
0010
0100
0001
1000
,
0010
1000
0001
0100
0010
1000
0001
0010
,
0100
1000
0001
0100
0010
1000
0010
0100
,
0001
1000
0100
0010
0001
0100
0010
1000
,
0100
0010
0001
0100
0010
1000
0100
0010
,
M002
0000
0000
0000
,
M023
0030
0000
0000
0200
0300
0000
0000
0020
0030
0000
0000
0002
0003
0000
0000
,
2000
3000
0000
0000
0020
0030
0000
0000
0200
0300
0000
0000
0002
0000
M003
0000
,
0100
0001
1000
0100
0010
0100
0010
0100
,
1000
0000
0001
0000
1000
0000
0010
0000
1000
0000
0001
0000
1000
0000
0100
00M0
,
0100
0001
0100
0010
0100
0001
1000
0100
,
2200
0000
0300
0000
,
3100
0200
0310
0010
0001
0010
0100
1000
,
0100
0010
0001
1000
0010
0100
0010
1000
,
0001
0000
0010
0M00
0010
0000
1000
0000
0010
0000
1000
0000
0001
0000
1000
0000
,
0200
0000
2300
0000
,
3400
0300
0000
4000
3000
0000
0004
0003
0400
0300
0010
0000
0100
0000
0001
0000
,
1000
0000
0100
0000
0010
0000
0001
0000
1000
0000
0001
0000
1000
0000
0100
00M0
,
0100
0001
0100
0010
0100
0001
1000
0001
,
1000
0100
1000
0000
0100
0000
0010
0000
0001
0000
1000
0000
0020
0000
0000
0030
,
0100
0010
1000
0010
0100
0001
1000
0100
,
0010
0000
0001
0000
1000
0000
0010
0000
0100
0000
0001
0100
0001
0000
0100
0000
,
M020
0230
0302
2003
3200
0000
0000
0000
,
130M
0100
0010
0100
1000
0100
0001
0100
,
1000
0001
0100
0010
2000
3010
0020
1030
,
1000
0010
0100
0010
0001
0010
1000
0001
,
2000
3200
0320
0032
,
0013
0010
0100
1000
0001
0100
0010
0100
,
0001
0000
1000
0000
0100
0000
0010
0000
0001
0000
1000
0100
1000
0000
0001
0000
,
0010
0100
1000
0010
0100
0001
0400
0300
,
0202
0000
0003
0000
,
0302
0000
2003
0000
,
3200
0000
0000
0000
,
0320
0000
0032
0000
,
2003
0000
0000
0000
0000
0000
0000
0000
3010
0000
0100
0001
0400
0300
0040
0030
,
M100
0001
0100
0010
,
1000
0000
0001
0000
1000
0000
0100
0010
,
0001
1000
0010
0100
,
0001
0010
0100
0010
,
0001
0100
0010
1000
0001
0010
0100
1000
,
0010
0100
0001
1000
0100
0010
0001
0010
,
0002
0023
0230
2300
3020
0000
0000
003M
,
1000
0010
0100
0010
0001
0010
0100
0010
,
1000
0001
0010
0100
0010
1000
0010
0100
,
1000
0001
0100
1000
0100
0001
1000
0100
,
0001
0100
1000
0100
0020
0000
0032
0000
,
1003
0010
0100
0010
0001
0010
0100
0001
,
1000
0100
0010
1000
0010
0100
0010
0001
,
1000
0000
0100
1000
0200
0000
0000
0000
0320
0000
0000
0000
0032
0000
0000
0000
,
4003
0000
0000
0000
3040
0000
0000
0000
0430
0000
0000
0300
0400
0000
0000
0300
,
0020
0000
M130
0001
1000
0100
0010
0100
,
1000
0000
0001
0000
0100
0000
0010
0000
1000
0000
0001
0000
0010
0M00
0010
0000
,
1000
0100
0001
0100
1000
0001
0100
1000
,
0100
0001
4000
0000
3000
0100
0010
0100
,
1000
0000
0001
0000
0200
0300
0000
0000
0010
0000
0100
0000
0001
0000
0010
0000
,
0100
0000
1000
0000
0010
0000
0100
0000
0001
0000
0010
0001
0010
0000
0100
1000
,
0200
0000
2300
0000
,
0002
0000
0000
0000
,
3003
0000
0000
0000
,
0000
0000
0000
0000
,
00M0
0000
0000
0000
;

//---------------dance-single - ----------------
#NOTES:
     dance-single:
     :
     Beginner:
     5:
     0.279503,0.357790,0.000000,0.235507,0.000000,216.000000,216.000000,0.000000,26.000000,1.000000,0.000000,0.279503,0.357790,0.000000,0.235507,0.000000,216.000000,216.000000,0.000000,26.000000,1.000000,0.000000:
0000
0000
0000
0000
,
0000
0000
0000
0000
,
0000
0000
0000
0000
,
0000
0000
0000
0000
,
0000
0000
0000
0000
,
0000
0000
0000
0000
,
0000
0000
0000
0000
,
0000
0000
0000
0000
,
1000
0000
0001
0000
,
0100
0000
0010
0100
,
0010
0000
0100
0000
,
0001
0000
1000
0001
,
1000
0000
0100
0000
,
0010
0000
0100
0010
,
0200
0000
0000
0000
,
0000
0000
0000
0000
,
1300
0100
1000
0000
,
0001
0100
0001
0000
,
0100
0010
0100
0000
,
0010
0100
0010
0000
,
0001
1000
0001
0010
,
0001
1000
0001
0010
,
0001
1000
0010
1000
,
0001
1000
0010
1000
,
0002
0000
0000
0000
,
1003
0001
1000
0001
,
1000
0000
0001
0000
1000
0000
0002
0003
,
1000
1000
0001
0001
,
0100
0100
0001
0001
,
1000
1000
0100
0100
,
2000
0000
3000
0000
,
0100
1000
0100
0000
1000
0000
1000
0000
,
0001
0001
0100
0100
,
0001
0001
0100
0100
,
0020
0000
0000
0000
,
0430
0000
0310
0010
,
0100
0000
0100
0000
0001
0100
0001
0000
,
0100
0100
0010
0010
,
1000
1000
0002
0003
,
1000
1000
0100
0100
,
0010
0010
0100
0100
,
2000
3200
0320
0000
,
0031
0010
0001
0000
,
1000
0010
1000
1000
,
1000
0100
1000
0000
,
0001
0100
0010
0100
,
0001
0100
0001
0000
,
1000
0100
1000
0000
,
0010
0100
0010
0100
,
0020
0000
0000
0000
,
0230
0000
0302
0000
,
2003
0000
0000
0000
,
3200
0000
0320
0000
,
0032
0000
0013
0100
,
0010
0100
0010
0000
,
0001
0010
0001
0000
,
1000
0010
1000
0000
,
0001
0100
0001
0000
,
1000
0100
1000
0100
,
0010
0100
0010
0001
,
0020
0000
0230
0000
2300
0000
0000
3000
,
0100
1000
0100
1000
,
0001
1000
0001
1000
,
0001
0100
0001
0100
,
0010
0100
0020
0000
,
0130
0010
0100
0010
,
1000
0010
1000
0010
,
2000
0000
3002
0000
,
0023
0000
0230
0000
,
1300
0000
1000
0100
,
0010
0100
1000
0100
,
0010
0001
0010
0001
,
0010
0001
2000
0000
,
3010
1000
0010
0100
,
0010
0100
0001
0100
,
0001
1000
0001
1000
,
0002
0000
0000
0000
,
0003
0000
0000
0000
,
0000
0000
0000
0000
,
00M0
0000
0000
0000
;
