#TITLE:Eternal Ending;
#SUBTITLE:;
#ARTIST:Kobaryo;
#TITLETRANSLIT:;
#SUBTITLETRANSLIT:;
#ARTISTTRANSLIT:;
#GENRE:;
#CREDIT:;
#BANNER:eternalending-bn.png;
#BACKGROUND:eternalending-bg.png;
#LYRICSPATH:;
#CDTITLE:;
#MUSIC:eternalending.ogg;
#OFFSET:0.040000;
#SAMPLESTART:21.559999;
#SAMPLELENGTH:12.000000;
#SELECTABLE:YES;
#BPMS:0.000000=100.000000
,36.000000=400.000000
,50.000000=100.000000
,50.500000=400.000000
,64.500000=100.000000
,65.000000=400.000000
,111.000000=100.000000
,111.500000=400.000000
,125.500000=100.000000
,126.000000=400.000000
,158.000000=200.000000
,254.000000=400.000000
,268.000000=100.000000
,268.500000=400.000000
,282.500000=100.000000
,283.000000=400.000000
,315.000000=200.000000
,375.000000=100.000000
,377.000000=400.000000
,505.000000=200.000000
,533.000000=400.000000
,541.000000=100.000000
;
#STOPS:
;
#BGCHANGES:;
#KEYSOUNDS:;
#ATTACKS:;

//---------------dance-single - ----------------
#NOTES:
     dance-single:
     :
     Challenge:
     17:
     0.899322,1.677547,0.360158,0.277621,0.221347,839.000000,791.000000,48.000000,37.000000,0.000000,0.000000,0.899322,1.677547,0.360158,0.277621,0.221347,839.000000,791.000000,48.000000,37.000000,0.000000,0.000000:
// measure 0
0000
0000
0000
0000
,  // measure 1
0012
0000
0000
0100
0000
0000
1000
0000
0000
0100
0000
0000
0023
0000
0130
0000
,  // measure 2
2000
0000
0000
0100
0000
0000
0001
0000
0000
0100
0000
0000
3020
0000
0130
0000
,  // measure 3
0120
0000
0000
0001
0000
0000
0100
0000
0000
1000
0000
0000
0230
0000
0301
0000
,  // measure 4
0020
0000
0000
0001
0000
0000
0100
0000
0000
1000
0000
0000
0230
0000
1300
0000
,  // measure 5
1000
1000
0001
0001
0100
0100
0001
0001
,  // measure 6
1000
1000
0001
0001
1000
1000
0100
0100
,  // measure 7
1000
0010
1000
0010
0100
0001
0010
0100
1000
0100
1000
0010
0100
0001
0010
0100
,  // measure 8
1000
0010
0001
1000
0100
0001
0010
1000
0001
0100
1000
0001
0010
0001
1000
0000
,  // measure 9
1010
0100
0010
1000
,  // measure 10
0100
1000
0001
0010
,  // measure 11
0001
1000
0010
1000
,  // measure 12
0001
0000
0100
0000
0110
1100
0000
1000
,  // measure 13
0000
0001
0000
0100
0000
0001
0000
1000
,  // measure 14
0000
0010
0000
1000
0000
0001
0000
0010
,  // measure 15
0000
0001
0000
1000
0000
0100
0000
0010
,  // measure 16
0000
0011
0101
0000
0010
0000
0100
0000
,  // measure 17
0001
0100
0001
0010
,  // measure 18
0100
0010
0100
1000
,  // measure 19
0100
1000
0001
1002
,  // measure 20
0023
0130
1000
0100
,  // measure 21
0010
0001
0010
1000
,  // measure 22
0010
0001
1000
0020
,  // measure 23
1030
0001
0010
0100
,  // measure 24
1000
0010
0100
0010
,  // measure 25
0001
0010
0001
0010
,  // measure 26
0100
0010
0100
0000
0001
0000
0100
0000
,  // measure 27
0001
0000
0010
0000
0100
0000
1100
1010
,  // measure 28
0000
1000
0010
1000
0000
0001
0000
0100
,  // measure 29
0000
0001
0100
0010
0000
0100
0000
0010
,  // measure 30
0000
1000
0001
0010
0000
0100
0000
0010
,  // measure 31
0000
0001
1000
1001
0110
0000
0010
0100
,  // measure 32
0010
0000
1000
0010
1000
0000
0010
0100
,  // measure 33
0001
0000
1000
0001
0100
0000
0001
1000
,  // measure 34
0010
0000
1000
0010
0100
0000
0010
0100
,  // measure 35
0002
0000
0023
0000
0130
1000
0001
0000
,  // measure 36
0100
0000
0001
1000
0100
0000
0010
0000
,  // measure 37
0001
1000
0010
0000
0100
0000
0002
0000
,  // measure 38
0203
0301
1000
0100
,  // measure 39
0110
0010
1001
1001
,  // measure 40
1001
0000
1001
0100
0000
0001
1000
0001
,  // measure 41
0011
0001
1000
0001
1001
0000
1001
0010
,  // measure 42
0000
0100
0001
1010
0000
1000
0100
1000
,  // measure 43
0001
1000
0100
1000
0101
0001
0100
1000
,  // measure 44
0100
0001
1000
0001
0100
1000
0100
0001
,  // measure 45
1000
0100
1000
0001
0012
0000
0103
0000
,  // measure 46
2100
0001
0000
3010
0010
0000
0011
0000
,  // measure 47
0110
0000
1010
0000
1100
0100
0001
0100
,  // measure 48
1000
0010
0001
0010
1000
0100
0010
0100
,  // measure 49
1000
0010
0001
1000
0001
0010
1000
0100
,  // measure 50
0010
0001
0100
0001
0010
0001
1000
0010
,  // measure 51
1000
0100
0001
0100
1000
0001
1000
0010
,  // measure 52
0100
0001
0010
1000
0010
0001
0100
1000
,  // measure 53
0100
0001
1000
0010
1000
0100
0001
0100
,  // measure 54
1000
0010
0001
0010
0100
0001
1000
0001
,  // measure 55
0010
0000
0001
0000
2001
0001
0001
3100
,  // measure 56
1000
1000
0010
1000
0010
0100
0001
0100
,  // measure 57
0001
0010
0100
1000
1020
1000
1000
0130
,  // measure 58
0010
0010
1000
0010
1000
0001
0100
0001
,  // measure 59
1000
0010
0100
0001
0021
0001
0001
0130
,  // measure 60
0010
0010
0001
0010
0001
1000
0100
1000
,  // measure 61
0001
0010
0100
1000
1020
0100
0031
0010
,  // measure 62
0100
0010
1000
0100
1000
0010
0100
0010
,  // measure 63
1000
0010
0100
0001
1000
0000
1000
0000
,  // measure 64
1000
0001
0100
0001
,  // measure 65
1000
0010
1000
0100
,  // measure 66
1000
0100
0010
0100
,  // measure 67
0101
1100
0000
1000
0000
1000
0000
0010
,  // measure 68
0000
0100
0000
0010
0000
1000
0000
0001
,  // measure 69
0000
1000
0000
0100
0000
0010
0000
0100
,  // measure 70
0000
1000
0000
0100
0000
0110
0101
0000
,  // measure 71
0001
0001
1000
0100
,  // measure 72
1000
0001
0010
0001
,  // measure 73
1000
0100
1000
0001
,  // measure 74
0010
0100
1000
0010
,  // measure 75
0010
0010
0100
0001
,  // measure 76
0100
0010
1000
0010
,  // measure 77
0001
0010
1000
0100
,  // measure 78
0010
1001
0000
0010
,  // measure 79
0010
0000
0000
0000
1000
0010
1000
0000
0001
0000
0000
0000
0100
0000
0000
0000
,  // measure 80
0100
0000
0000
0000
0001
0010
0001
0000
1000
0000
0000
0000
0100
0000
0000
0000
,  // measure 81
0100
0000
0000
0000
1000
0010
1000
0000
0001
0000
0000
0000
1000
0000
0000
0000
,  // measure 82
1000
0000
0000
0000
0001
0100
0001
0000
0010
0000
0000
0000
0100
0000
1000
0000
,  // measure 83
0100
0000
0000
0000
0010
0001
1000
0000
0010
0000
0000
0000
0100
0000
0001
0000
,  // measure 84
0100
0000
0000
0000
0010
1000
0001
0000
0100
0000
0000
0000
0010
0000
1000
0000
,  // measure 85
0010
0000
0000
0000
0100
0001
1000
0000
0100
0000
0000
0000
0010
0000
0001
0000
,  // measure 86
0010
0000
1000
0000
0010
0001
0100
0000
0010
0000
0010
0000
0101
0000
0000
0000
,  // measure 87
1100
0000
0000
0000
0100
1000
0000
0100
1000
0000
0100
0010
0001
0000
1000
0000
,  // measure 88
0001
0000
0100
0000
0010
1000
0000
0010
1000
0000
0001
0100
0010
0000
0100
0000
,  // measure 89
0010
0000
0100
0000
0001
1000
0000
0001
1000
0000
0001
0100
0001
0000
1000
0010
,  // measure 90
0000
1000
0100
0000
0010
0001
0000
0001
1000
0010
1000
0000
0110
0000
0000
0000
,  // measure 91
0101
0000
0000
0000
0100
0010
0000
0100
0010
0000
1000
0100
0010
0000
0001
0000
,  // measure 92
0010
0000
1000
0000
0010
0001
0000
0001
1000
0010
0100
0000
0001
0000
0100
0000
,  // measure 93
0001
0000
1000
0000
0100
1000
0000
1000
0001
0000
0100
0010
0110
0000
1010
0000
,  // measure 94
2200
3300
0010
0000
1000
0000
0010
0000
,  // measure 95
1000
0000
0001
0100
0000
0100
0010
0000
,  // measure 96
1000
0100
0010
0000
0100
0000
0010
0000
,  // measure 97
0100
1000
0001
0000
1000
0001
0200
0000
,  // measure 98
0310
0100
0001
0000
1000
0000
0001
0000
,  // measure 99
1000
0100
0000
1000
0100
0000
1000
0000
,  // measure 100
0001
0100
0010
0000
1000
0010
0000
0100
,  // measure 101
0001
0000
0010
0001
0000
1000
0200
0000
,  // measure 102
2300
3010
0100
0010
,  // measure 103
0100
0000
0001
0100
0000
0100
0010
0000
,  // measure 104
1000
0001
0010
0000
0100
0000
0010
0000
,  // measure 105
0100
0000
1000
0001
0000
0001
0100
0000
,  // measure 106
0010
1000
0100
0000
0010
0000
0100
0000
,  // measure 107
0010
0000
0100
1000
0000
0001
0010
0000
,  // measure 108
0001
1000
0010
0000
0010
0100
0010
0000
,  // measure 109
1000
0010
1000
0000
0010
0100
0020
0000
,  // measure 110
0030
0000
1000
0010
0100
0000
0010
0000
,  // measure 111
0100
0000
0010
1000
0100
0000
0010
0000
,  // measure 112
0100
1000
0001
0000
1000
0000
0001
0000
,  // measure 113
1000
0100
0010
0000
0100
1000
0002
0000
,  // measure 114
0013
0001
1000
0000
0010
0000
1000
0000
,  // measure 115
0001
0100
0010
0000
0100
0000
0010
0000
,  // measure 116
1000
0001
0010
0000
0100
1000
0000
1000
,  // measure 117
0010
0000
0010
0100
0000
0100
0002
0000
,  // measure 118
1003
0000
0001
0010
0001
0010
0001
0000
,  // measure 119
1000
0000
0010
0100
0001
0100
0010
0000
,  // measure 120
1000
0000
0100
0010
0001
0010
0100
0000
,  // measure 121
1000
0000
0010
0100
0010
0000
2000
0000
,  // measure 122
3001
0000
0010
0100
0010
0100
1000
0100
,  // measure 123
1000
0100
0010
0100
0010
0100
0001
0100
,  // measure 124
0001
0100
1000
0000
0001
0100
0000
1000
,  // measure 125
0010
0000
0100
0001
0000
1000
0100
0000
,  // measure 126
0010
2002
0000
3003
,  // measure 127
0000
0000
0000
0000
0100
0000
0000
0000
0100
0000
0000
0000
0010
0100
0010
0000
,  // measure 128
1000
0000
0001
0000
0010
0000
0000
0000
0010
0000
0000
0000
0001
1000
0001
0000
,  // measure 129
0100
0000
0010
0000
1000
0000
0000
0000
1000
0000
0000
0000
0001
0010
0100
0000
,  // measure 130
0010
0001
0201
0000
0001
0000
1000
0000
,  // measure 131
1000
0010
0010
0001
,  // measure 132
0301
2200
0000
0000
,  // measure 133
3300
0000
1000
0100
0001
0100
1000
0001
,  // measure 134
0100
0000
0000
1000
0000
0000
0100
0000
0000
0001
0000
0000
1000
0000
0000
0010
0000
0000
0100
0000
0001
0000
0010
0000
,  // measure 135
0100
2002
3003
0000
;

//---------------dance-single - ----------------
#NOTES:
     dance-single:
     :
     Hard:
     15:
     0.690302,1.675999,0.225098,0.435190,0.093791,644.000000,614.000000,30.000000,58.000000,0.000000,0.000000,0.690302,1.675999,0.225098,0.435190,0.093791,644.000000,614.000000,30.000000,58.000000,0.000000,0.000000:
0000
0000
0000
0000
,
2001
0000
0000
0001
0000
0000
3100
0000
0000
1000
0000
0000
0010
0000
0100
0000
,
0002
0000
0000
1000
0000
0000
0103
0000
0000
0001
0000
0000
0010
0000
0100
0000
,
0210
0000
0000
0010
0000
0000
1000
0000
0000
1300
0000
0000
0001
0000
0100
0000
,
0020
0000
0000
1000
0000
0000
0130
0000
0000
0010
0000
0000
0100
0000
0001
0000
,
0001
0001
0001
0001
1000
1000
1000
1000
,
0010
0010
0010
0010
0100
0100
0100
0100
,
0010
1000
0010
1000
0010
1000
0010
1000
0001
0010
0001
0010
0100
1000
0100
1000
,
0001
0010
0100
1000
0010
0100
0001
0010
0100
1000
0010
0100
0001
1000
0001
0000
,
0011
0001
0010
0001
,
1000
0001
1000
0010
,
1000
0001
0100
0001
,
1000
0000
0001
0000
1001
0110
0000
0100
,
0000
0010
0000
1000
0000
0010
0000
1000
,
0000
0001
0000
1000
0000
0001
0000
0010
,
0000
0001
0000
0010
0000
0100
0000
1000
,
0000
1100
1001
0000
1000
0000
0001
0000
,
0100
0001
0100
0010
,
0100
0010
1000
0010
,
1000
0100
1000
0200
,
0310
0001
1000
0001
,
0010
0001
0010
0001
,
1000
0001
1000
0020
,
1030
0001
0010
0100
,
0010
0001
1000
0001
,
0100
0001
0100
0001
,
0010
0001
0010
0100
,
0010
0000
0100
0000
1000
0000
1100
1010
,
0000
1000
0000
0010
0000
1000
0000
0001
,
0000
1000
0000
0001
0000
0100
0000
0001
,
0000
0010
0000
0001
0000
0010
0000
0100
,
0000
1000
0000
1100
0101
0000
0001
0000
,
0100
0010
0100
0010
,
1000
0010
1000
0001
,
0100
0001
0010
0100
,
2000
3200
0310
0100
,
0010
0001
0010
0001
,
1000
0001
1000
0020
,
2030
3001
1000
0010
,
0100
0001
0101
1001
,
1100
0000
1000
0001
0000
0100
0001
0000
,
1000
0001
0100
0000
0100
0000
0010
1000
,
0000
0100
1000
0010
0000
0100
0001
1000
,
0100
1000
0001
0100
0110
0000
0100
0000
,
0001
0010
0000
0100
0000
1000
0000
0100
,
1000
0010
0000
0010
0100
0001
0000
0001
,
1000
0100
0000
0011
0000
0000
0001
0000
,
1000
0000
1000
0100
0001
0100
1000
0100
,
0001
0100
1000
0010
0100
0001
0100
1000
,
0100
0001
1000
0001
0100
1000
0100
0001
,
0000
0001
1000
0100
0000
0100
1000
0000
,
0010
0000
0100
0000
0001
0100
0001
0100
,
0001
0000
0001
0000
1000
0100
1000
0100
,
1000
1000
0110
0001
,
1000
0100
0000
0011
0000
0001
1000
0000
,
1000
0000
1000
0000
0202
0000
0003
2000
,
0000
3000
0020
0000
0300
2000
0000
3030
,
0002
0000
0013
0100
0220
0000
0030
2000
,
0000
0300
0002
0000
3000
0200
0000
0003
,
0320
0000
1030
0100
0220
0000
0300
0002
,
0000
0030
0200
0000
0003
0020
0000
0300
,
2000
0030
3001
0100
2020
0000
0030
0200
,
0000
3000
0020
0000
0300
0002
0000
0030
,
1003
0001
1000
0000
0010
0000
0100
0000
,
0010
0100
0001
0100
,
0001
0100
0010
1000
,
0010
1000
0100
0010
,
0011
1000
0000
0100
0000
1000
0000
0100
,
0000
1000
0000
0001
0000
1000
0000
0001
,
0000
0010
0000
0001
0000
0010
0000
0001
,
0000
1000
0000
0001
0000
0101
1000
0000
,
0010
1000
0010
0100
,
0010
0100
0010
1000
,
0001
1000
0001
0010
,
0100
0010
0100
1000
,
0100
0010
0001
0100
,
0010
1000
0010
0100
,
0001
0010
0100
1000
,
0010
1010
0000
0200
,
0000
0302
0000
2003
,
0000
3002
0000
0203
,
0000
0320
0000
1030
,
0010
0100
0001
2100
,
0000
3002
0000
0023
,
0000
0032
0000
2003
,
0000
3020
0000
0031
,
0010
0000
1000
0000
0001
0000
1000
0010
,
1000
0000
0001
0100
0001
0000
1000
0100
,
1000
0000
0001
0010
0001
0000
1000
0010
,
0100
0000
0001
0100
0010
0000
1000
0100
,
0001
0000
0001
0100
1000
0000
0010
0100
,
0010
0000
1000
0001
0010
0000
0001
1000
,
0010
0000
0100
0001
0010
0000
0100
1000
,
0010
0000
0001
0010
1000
0000
2002
0000
,
0000
3003
0001
0000
0010
0000
0001
0000
,
1000
0000
0001
1000
0001
0000
1000
0000
,
0010
0100
0010
1000
,
0010
0000
0100
0010
0100
0000
0002
0000
,
0103
0001
1000
0100
,
1000
0000
0001
0010
0001
0000
0010
0001
,
0010
0100
1000
0010
,
0100
0010
1000
0200
,
0310
0001
1000
0001
,
1000
0000
0001
0100
0001
0000
1000
0000
,
0010
1000
0001
1000
,
0001
0000
0100
0010
0100
0000
0002
0000
,
2003
3001
0010
0001
,
0010
0000
0100
0010
0100
0000
1000
0000
,
0010
0100
0001
0010
,
0100
1000
0010
0200
,
0300
0001
0010
0001
,
0010
0000
0001
0100
0010
0000
0100
0000
,
0010
1000
0001
1000
,
0001
0000
1000
0100
0010
0000
0100
0000
,
1000
0100
1000
0100
,
1000
0000
0100
1000
0100
1000
0010
0000
,
0100
0010
1000
0010
,
0001
0010
1000
0001
,
0100
0000
0001
0100
0001
0000
0010
0000
,
0001
0000
1000
0001
1000
0000
0010
0000
,
1000
0000
0100
1000
0100
0000
0010
0000
,
0001
0000
1000
0010
0100
0000
0001
0000
,
0010
0000
0100
0010
0100
0010
0100
0000
,
0000
0000
1000
0001
1000
0001
1000
0000
,
0000
0000
0010
0100
0010
0100
0010
0000
,
0100
0001
0010
0100
,
1000
0220
0000
0000
,
0000
0000
0000
0000
,
0330
0000
0000
0000
,
0000
0000
0000
0000
,
0000
2001
0010
0001
,
0001
3002
0010
1000
,
1003
0000
0010
0100
0001
1000
0010
0100
,
0001
1000
0010
1000
0000
0001
0010
0000
,
0100
0000
0000
1000
0000
0000
0000
0000
0000
0001
0000
0000
0100
0000
0000
0000
0000
0000
0010
0000
0100
0000
0010
0000
,
0100
0000
0220
0330
0000
0000
0000
0000
;

//---------------dance-single - ----------------
#NOTES:
     dance-single:
     :
     Medium:
     14:
     0.489857,0.863393,0.202589,0.472707,0.037516,457.000000,430.000000,27.000000,63.000000,0.000000,0.000000,0.489857,0.863393,0.202589,0.472707,0.037516,457.000000,430.000000,27.000000,63.000000,0.000000,0.000000:
0000
0000
0000
0000
,
0002
0000
0000
0023
0000
0000
0230
0000
0000
2300
0000
0000
3010
0000
0010
0000
,
2000
0000
0000
3020
0000
0000
0230
0000
0000
0302
0000
0000
0013
0000
0100
0000
,
2000
0000
0000
3002
0000
0000
0203
0000
0000
0320
0000
0000
0130
0000
0001
0000
,
0020
0000
0000
0230
0000
0000
2300
0000
0000
3002
0000
0000
0103
0000
0010
0000
,
1000
0010
1000
0000
0001
0100
0001
0000
,
1000
0100
1000
0000
0001
0010
0001
0000
,
0100
0100
0010
1000
0100
0100
0010
0001
,
0201
0000
0000
0320
0000
0000
2030
0000
0000
3200
0000
0000
0310
0000
0011
0000
,
0001
0000
0001
0100
,
0000
0100
0010
0000
,
0010
1000
0000
1000
,
0100
0000
0000
0000
0110
1000
0000
0000
,
0000
1000
0000
0010
0000
0000
0000
0010
,
0000
1000
0000
0000
0000
1000
0000
0001
,
0000
0000
0000
0001
0000
0100
0000
0000
,
0000
0101
1000
0000
0000
0000
1000
0000
,
0100
0000
0100
0010
,
0000
0010
0100
0000
,
0100
1000
0000
0002
,
0103
0010
0000
0010
,
1000
0000
1000
0001
,
0000
0001
0010
0000
,
0010
0100
0000
1000
,
0000
0010
0000
1000
,
0001
0000
0010
0100
,
0000
1000
0001
0000
,
1000
0000
0010
0000
0000
0000
1010
0100
,
0000
0000
0000
0001
0000
0010
0000
0000
,
0000
0100
0000
1000
0000
0000
0000
0010
,
0000
0100
0000
0000
0000
0001
0000
0010
,
0000
0000
0000
0011
0010
0000
0000
0000
,
0010
0001
0000
0100
,
0001
0000
0010
0100
,
0000
0100
1000
0000
,
0020
0130
0001
0000
,
0001
1000
0000
1000
,
0100
0000
0010
0100
,
0000
1000
0001
0000
,
1001
0000
0100
0100
,
0001
1000
0100
1000
,
0010
0100
0001
0001
,
0010
0001
0100
0001
,
0010
0100
1000
1000
,
0100
1000
0010
1000
,
0001
1000
0010
0010
,
1000
0010
0001
0010
,
1000
1000
0001
0100
,
1000
0100
0001
1000
,
0001
1000
0010
0100
,
0001
0010
0100
1000
,
0100
1000
0001
0001
,
0001
0001
0010
0010
,
0100
0100
1000
0010
,
0001
0010
0100
0010
,
1000
0000
0001
0000
0012
0000
0000
2003
,
0000
0000
3020
0000
0000
0230
0000
0000
,
0301
0000
0010
0001
2000
0000
0000
3200
,
0000
0000
0302
0000
0000
0203
0000
0000
,
1300
0000
0010
1000
0002
0000
0000
2003
,
0000
0000
3200
0000
0000
0320
0000
0000
,
0130
0000
1000
0001
0200
0000
0000
0320
,
0000
0000
2030
0000
0000
3020
0000
0000
,
0130
0100
0110
0000
,
0110
0000
1000
0001
,
1000
0000
0001
1000
,
0001
0000
1001
0000
,
0100
1010
0000
0000
0000
1010
0000
0000
,
0000
0001
0000
0100
0000
0001
0000
0000
,
0000
0010
0000
0100
0000
0010
0000
0000
,
0000
1000
0000
0000
0000
1100
1001
0000
,
0000
1001
0000
0010
,
1000
0010
0000
0100
,
0001
0010
0000
0010
,
0001
0100
0000
0001
,
1000
0100
0000
1000
,
0001
1000
0000
0100
,
1000
0010
0000
0100
,
0010
0110
0000
0002
,
0000
0000
0000
0203
,
0000
0000
0000
0320
,
0000
0000
0000
0000
,
0000
0000
0000
2030
,
0000
3000
2000
0000
0000
3000
0200
0000
,
0000
0300
0200
0000
0000
0300
0020
0000
,
0000
0000
0000
0000
,
0000
0000
0030
1001
,
0001
1000
1000
0010
,
1000
0100
1000
0010
,
0010
0100
0100
0001
,
0010
1000
0010
0001
,
0001
1000
1000
0100
,
0001
0100
1000
0010
,
0010
0100
0100
2002
,
0000
3003
1000
0000
0100
0000
0010
0000
,
0100
1000
0000
1000
,
0000
0001
0100
0010
,
0100
0001
0000
0002
,
0003
0000
1000
0010
,
1000
0010
0100
0010
,
0000
1010
0000
0011
,
0000
0101
0000
1100
,
0000
1000
0001
1000
,
0001
0100
0001
0100
,
0000
0010
1000
0010
,
1000
0100
0010
0200
,
0300
1000
0001
1000
,
0001
0010
0001
1000
,
0000
0010
1000
0100
,
0000
0010
0001
0100
,
0000
0010
0010
1000
,
0001
0010
0010
0001
,
1000
0100
0100
1000
,
0001
0100
0100
0002
,
1003
0010
0100
0010
,
1000
0001
1000
0001
,
0010
0100
0010
0001
,
1000
0100
0010
0200
,
1300
0001
0001
0010
,
0100
1000
1000
0010
,
0100
0001
0001
0100
,
0010
1000
1000
0100
,
0010
0001
1000
0001
,
1000
0010
1000
0001
,
0100
0010
0100
0001
,
1000
0010
0100
0010
,
1000
2200
0000
0000
,
0000
0000
0000
0000
,
0000
3300
0000
0000
,
0000
0000
0000
0000
,
0000
2100
0000
3002
,
0000
2003
0000
3020
,
0030
0220
0000
0000
,
0330
1000
0001
1000
,
0001
1000
0001
2000
,
3000
0000
0220
0330
0000
0000
0000
0000
;

//---------------dance-single - ----------------
#NOTES:
     dance-single:
     :
     Easy:
     10:
     0.315138,0.660242,0.150066,0.247608,0.007503,294.000000,274.000000,20.000000,33.000000,0.000000,0.000000,0.315138,0.660242,0.150066,0.247608,0.007503,294.000000,274.000000,20.000000,33.000000,0.000000,0.000000:
0000
0000
0000
0000
,
0120
0000
0000
0000
,
2030
0000
0000
0000
,
3002
0000
0000
0000
,
0023
0000
0000
0000
,
0130
0100
0010
0010
,
0001
0001
1000
1000
,
0010
0100
0010
0000
0100
0010
0100
0000
,
0001
0000
0000
0001
0000
0000
1000
0000
0000
1000
0000
0000
1001
0000
0000
0000
,
0010
0000
0010
0000
,
1000
0000
0001
0000
,
1000
0000
0010
0000
,
0010
0000
0000
0000
0000
0100
0000
0000
,
0000
0100
0000
0000
0000
0010
0000
0000
,
0000
1000
0000
0000
0000
0001
0000
0000
,
0000
0010
0000
0000
0000
0100
0000
0000
,
0000
1000
0000
1000
,
0000
0001
0000
0010
,
0000
0001
0000
1000
,
0000
0100
0000
2000
,
3000
0010
0000
0010
,
0000
1000
0000
0001
,
0000
0010
0000
0200
,
0300
1000
0000
0000
,
0000
1001
0000
0010
,
0000
0100
0000
0010
,
0000
1000
0000
0010
,
0000
0000
0100
0000
0000
0000
0000
1001
,
0000
0000
0000
0100
0000
0000
0000
0010
,
0000
0000
0000
0100
0000
0000
0000
0001
,
0000
0000
0000
0100
0000
0000
0000
0010
,
0000
0000
0110
0000
,
0010
0000
1000
0000
,
0100
0000
0010
0000
,
0010
0000
0001
0000
,
0200
0300
0010
0000
,
0000
0010
0000
0000
,
1000
0000
0000
0001
,
0000
0000
0100
0000
,
0010
0000
0100
0010
,
0100
0010
1000
0010
,
0100
0010
1000
1000
,
0001
1000
0001
0000
,
0000
0000
1001
0010
,
0100
1000
0100
0010
,
0001
0001
1000
0010
,
0100
0001
1000
0000
,
0000
0000
1000
0100
,
1000
1000
0001
0100
,
0001
0001
1000
0010
,
1000
1000
0001
0000
,
0000
0000
0100
0001
,
0010
0001
0100
0100
,
0010
0010
1000
0100
,
0010
0001
1000
0000
,
0000
0000
2001
0000
,
0000
3020
0000
0000
,
0130
0001
1002
0000
,
0000
0023
0000
0000
,
0130
1000
2010
0000
,
0000
3200
0000
0000
,
0310
0100
2100
0000
,
0000
3002
0000
0000
,
0103
0001
0001
0000
,
0001
0000
1000
0000
,
1000
0000
0010
0000
,
0010
0000
0100
0000
,
0110
1000
0000
0000
0000
1000
0000
0000
,
0000
0100
0000
0000
0000
0100
0000
0000
,
0000
0010
0000
0000
0000
0010
0000
0000
,
0000
0001
0000
0000
0000
1001
0100
0000
,
0000
0100
0000
0001
,
0000
0001
0000
0010
,
0000
0010
0000
0100
,
0000
0100
0000
1000
,
0000
1000
0000
0010
,
0000
0010
0000
1000
,
0000
1000
0000
0001
,
0000
1000
0000
0200
,
0000
0000
0000
0000
,
0000
0000
0000
0300
,
0000
0000
0000
0000
,
0000
0000
0000
0020
,
0000
0000
0000
0000
,
0000
0000
0000
0030
,
0000
0000
0000
0000
,
0000
0000
0000
1001
,
0000
0100
0000
0001
,
0000
0100
0000
0010
,
0000
1000
0000
0100
,
0000
0010
0000
0011
,
0000
0010
0000
0100
,
0000
1000
0000
0001
,
1000
0001
0001
0002
,
0000
0003
0100
0000
0000
0000
0001
0000
,
0000
0010
0000
0001
,
0000
0100
0000
0100
,
0000
0010
0000
0220
,
0330
0010
0000
0010
,
0000
1000
0000
1000
,
0000
0100
0000
0010
,
0000
0001
0000
0020
,
0030
0100
0000
0100
,
0000
0100
0000
1000
,
0000
0001
0000
0001
,
0000
0100
0000
0202
,
0303
0100
0000
0010
,
0000
0100
0000
0001
,
0000
0100
0000
0010
,
0000
0100
0000
0200
,
0300
0010
0100
0010
,
0000
0010
0000
1000
,
0000
0001
1000
0001
,
0000
0001
0000
0010
,
0000
0100
0010
0100
,
0000
0100
0000
1000
,
0000
0010
0000
0100
,
0000
0001
0000
1000
,
0000
1000
0001
1000
,
0000
0100
0000
1000
,
0000
0010
0100
0010
,
0000
0100
0000
0001
,
0000
1000
0001
1000
,
0000
1000
0000
0010
,
0000
0100
0000
0001
,
0000
0010
0000
0001
,
0000
0200
0000
0000
,
0000
0000
0000
0000
,
0000
0300
0000
0000
,
0000
0000
0000
0000
,
0000
2002
0000
0000
,
0000
0000
0000
0000
,
3003
0220
0000
0000
,
0330
0202
0000
0000
,
0000
0000
0000
0303
,
0000
0000
2020
3030
0000
0000
0000
0000
;

//---------------dance-single - ----------------
#NOTES:
     dance-single:
     :
     Beginner:
     6:
     0.229386,0.457091,0.090039,0.180079,0.000000,214.000000,202.000000,12.000000,24.000000,0.000000,0.000000,0.229386,0.457091,0.090039,0.180079,0.000000,214.000000,202.000000,12.000000,24.000000,0.000000,0.000000:
0000
0000
0000
0000
,
2002
0000
3003
0000
,
0020
0000
0030
0000
,
0220
0000
0330
0000
,
0200
0000
0300
0000
,
0001
0001
1000
1000
,
0001
0001
1000
1000
,
0010
0100
0010
0100
,
0010
0010
0010
0000
,
1000
0000
0000
1000
,
0000
0000
0100
0000
,
0000
0100
0000
0000
,
0100
0000
0000
0000
0000
0001
0000
0000
,
0000
0000
0000
0001
0000
0000
0000
0000
,
0000
0010
0000
0000
0000
0000
0000
0010
,
0000
0000
0000
0000
0000
0010
0000
0000
,
0000
0001
0000
0000
,
0001
0000
0000
1000
,
0000
0000
1000
0000
,
0000
1000
0000
0000
,
0000
0100
0000
0000
,
0100
0000
0000
0010
,
0000
0000
0010
0000
,
0000
0010
0000
0000
,
0000
1000
0000
0000
,
1000
0000
0000
0010
,
0000
0000
0010
0000
,
0000
0000
0010
0000
0000
0000
0000
0100
,
0000
0000
0000
0000
0000
0100
0000
0000
,
0000
0000
0000
0001
0000
0000
0000
0000
,
0000
0001
0000
0000
0000
0000
0000
0001
,
0000
0000
1000
0000
,
0000
1000
0000
0000
,
0100
0000
0000
0100
,
0000
0000
0100
0000
,
0000
0000
0010
0000
,
0000
0010
0000
0000
,
0001
0000
0000
0001
,
0000
0000
0001
0000
,
0000
0000
1000
0000
,
1000
0000
0100
0000
,
1000
0000
0001
0000
,
0001
0000
0001
0000
,
0000
0000
1000
0000
,
1000
0000
0010
0000
,
1000
0000
0001
0000
,
0010
0000
0001
0000
,
0000
0000
0100
0000
,
0100
0000
0010
0000
,
0100
0000
0001
0000
,
0001
0000
0001
0000
,
0000
0000
1000
0000
,
1000
0000
0010
0000
,
0010
0000
0100
0000
,
0100
0000
0010
0000
,
0000
0000
0220
0000
,
0000
0330
0000
0000
,
0010
0000
2002
0000
,
0000
3003
0000
0000
,
1000
0000
2002
0000
,
0000
3003
0000
0000
,
0001
0000
0220
0000
,
0000
0330
0000
0000
,
0100
0000
0010
0000
,
0010
0000
0010
0000
,
0000
0000
0100
0000
,
0100
0000
0100
0000
,
0000
0001
0000
0000
0000
0001
0000
0000
,
0000
0001
0000
0000
0000
0000
0000
0000
,
0000
1000
0000
0000
0000
1000
0000
0000
,
0000
1000
0000
0000
0000
0000
0001
0000
,
0000
0001
0000
0001
,
0000
0000
0000
0100
,
0000
0100
0000
0100
,
0000
0000
0000
0010
,
0000
0010
0000
0010
,
0000
0000
0000
1000
,
0000
1000
0000
1000
,
0000
0000
0000
2002
,
0000
0000
0000
0000
,
0000
0000
0000
3003
,
0000
0000
0000
0000
,
0000
0000
0000
0000
,
0000
0000
0000
0000
,
0000
0000
0000
0000
,
0000
0000
0000
0000
,
0000
0000
0000
0010
,
0010
0010
0000
0100
,
0100
0100
0000
0001
,
0000
1000
0000
0001
,
0000
1000
0000
0001
,
0001
0001
0000
1000
,
1000
1000
0000
0010
,
0000
0010
0000
0200
,
0300
0100
0000
0100
,
0000
0100
0000
0000
,
0000
0001
0000
0001
,
0000
0001
0000
1001
,
0000
0001
0000
0001
,
0000
0001
0000
0000
,
0000
0100
0000
0100
,
0000
0100
0000
0110
,
0000
0100
0000
0100
,
0000
0100
0000
0000
,
0000
1000
0000
1000
,
0000
1000
0000
1001
,
0000
1000
0000
1000
,
0000
1000
0000
0000
,
0000
0010
0000
0010
,
0000
0020
0000
0030
,
0000
0010
0000
0010
,
0000
1000
0000
1000
,
0000
0001
0000
0001
,
0000
1000
0000
1000
,
0000
0001
0000
0001
,
0000
0100
0000
0100
,
0000
0010
0000
0010
,
0000
0100
0000
0100
,
0000
0001
0000
0001
,
0000
1000
0000
1000
,
0000
0001
0000
0001
,
0000
0100
0000
0100
,
0000
0010
0000
0010
,
0000
0100
0000
0100
,
0000
0010
0000
0010
,
0000
1000
0000
1000
,
0000
2000
0000
0000
,
0000
0000
0000
0000
,
0000
3000
0000
0000
,
0000
0000
0000
0000
,
0000
0002
0000
0000
,
0000
0000
0000
0000
,
0000
0003
0000
0000
,
0000
2002
0000
0000
,
0000
0000
0000
3003
,
0000
0000
2002
3003
0000
0000
0000
0000
;
