#TITLE:Electro;
#SUBTITLE:;
#ARTIST:Sungazer;
#TITLETRANSLIT:;
#SUBTITLETRANSLIT:;
#ARTISTTRANSLIT:;
#GENRE:;
#CREDIT:;
#BANNER:;
#BACKGROUND:;
#LYRICSPATH:;
#CDTITLE:;
#MUSIC:electro.ogg;
#OFFSET:0.000000;
#SAMPLESTART:99.960007;
#SAMPLELENGTH:12.000000;
#SELECTABLE:YES;
#BPMS:0.000000=132.000000
,32.000000=66.000000
,48.000000=132.000000
;
#STOPS:164.833328=-0.227273,
165.666672=-0.113636,
166.833328=-0.227273,
167.666672=-0.113636,
168.833328=-0.227273,
169.666672=-0.113636,
170.833328=-0.227273,
171.666672=-0.113636,
172.833328=-0.227273,
173.666672=-0.113636,
174.833328=-0.227273,
175.666672=-0.113636,
176.833328=-0.227273,
177.666672=-0.113636,
178.833328=-0.227273,
179.666672=-0.113636,
180.833328=-0.227273,
181.666672=-0.113636,
182.833328=-0.227273,
183.666672=-0.113636,
184.833328=-0.227273,
185.666672=-0.113636,
186.833328=-0.227273,
187.666672=-0.113636,
188.833328=-0.227273,
189.666672=-0.113636,
190.833328=-0.227273,
191.666672=-0.113636,
192.833328=-0.227273,
193.666672=-0.113636,
194.833328=-0.227273,
195.666672=-0.113636,
196.833328=-0.227273,
197.666672=-0.113636,
198.833328=-0.227273,
199.666672=-0.113636,
200.833328=-0.227273,
201.666672=-0.113636,
202.833328=-0.227273,
203.666672=-0.113636,
204.833328=-0.227273,
205.666672=-0.113636,
206.833328=-0.227273,
207.666672=-0.113636,
208.833328=-0.227273,
209.666672=-0.113636,
210.833328=-0.227273,
211.666672=-0.113636,
212.833328=-0.227273,
213.666672=-0.113636,
214.833328=-0.227273,
215.666672=-0.113636,
216.833328=-0.227273,
217.666672=-0.113636,
218.833328=-0.227273,
219.666672=-0.113636,
220.833328=-0.227273,
221.666672=-0.113636,
222.833328=-0.227273,
223.666672=-0.113636,
224.833328=-0.227273,
225.666672=-0.113636,
226.833328=-0.227273,
227.666672=-0.113636,
228.833328=-0.227273,
229.666672=-0.113636,
230.833328=-0.227273,
231.666672=-0.113636,
232.833328=-0.227273,
233.666672=-0.113636,
234.833328=-0.227273,
235.666672=-0.113636,
236.833328=-0.227273,
237.666672=-0.113636,
238.833328=-0.227273,
239.666672=-0.113636,
240.833328=-0.227273,
241.666672=-0.113636,
242.833328=-0.227273,
243.666672=-0.113636,
244.833328=-0.227273,
245.666672=-0.113636,
246.833328=-0.227273,
247.666672=-0.113636,
248.833328=-0.227273,
249.666672=-0.113636,
250.833328=-0.227273,
251.666672=-0.113636,
252.833328=-0.227273,
253.666672=-0.113636,
254.833328=-0.227273,
255.666672=-0.113636,
256.833344=-0.227273,
257.666656=-0.113636,
258.833344=-0.227273,
259.666656=-0.113636,
260.833344=-0.227273,
261.666656=-0.113636,
262.833344=-0.227273,
263.666656=-0.113636,
264.833344=-0.227273,
265.666656=-0.113636,
266.833344=-0.227273,
267.666656=-0.113636,
268.833344=-0.227273,
269.666656=-0.113636,
270.833344=-0.227273,
271.666656=-0.113636,
272.833344=-0.227273,
273.666656=-0.113636,
274.833344=-0.227273,
275.666656=-0.113636,
276.833344=-0.227273,
277.666656=-0.113636,
278.833344=-0.227273,
279.666656=-0.113636,
280.833344=-0.227273,
281.666656=-0.113636,
282.833344=-0.227273,
283.666656=-0.113636,
284.833344=-0.227273,
285.666656=-0.113636,
286.833344=-0.227273,
287.666656=-0.113636,
288.833344=-0.227273,
289.666656=-0.113636,
290.833344=-0.227273,
291.666656=-0.113636,
292.833344=-0.227273,
293.666656=-0.113636,
294.833344=-0.227273,
295.666656=-0.113636,
296.833344=-0.227273,
297.666656=-0.113636,
298.833344=-0.227273,
299.666656=-0.113636,
300.833344=-0.227273,
301.666656=-0.113636,
302.833344=-0.227273,
303.666656=-0.113636,
304.833344=-0.227273,
305.666656=-0.113636,
306.833344=-0.227273,
307.666656=-0.113636,
308.833344=-0.227273,
309.666656=-0.113636,
310.833344=-0.227273,
311.666656=-0.113636,
312.833344=-0.227273,
313.666656=-0.113636,
314.833344=-0.227273,
315.666656=-0.113636,
316.833344=-0.227273,
317.666656=-0.113636,
318.833344=-0.227273,
319.666656=-0.113636,
320.833344=-0.227273,
321.666656=-0.113636,
322.833344=-0.227273,
323.666656=-0.113636,
324.833344=-0.227273,
325.666656=-0.113636,
326.833344=-0.227273,
327.666656=-0.113636,
328.833344=-0.227273,
329.666656=-0.113636,
330.833344=-0.227273,
331.666656=-0.113636,
332.833344=-0.227273,
333.666656=-0.113636,
334.833344=-0.227273,
335.666656=-0.113636,
336.833344=-0.227273,
337.666656=-0.113636,
338.833344=-0.227273,
339.666656=-0.113636,
340.833344=-0.227273,
341.666656=-0.113636,
342.833344=-0.227273,
343.666656=-0.113636,
344.833344=-0.227273,
345.666656=-0.113636,
346.833344=-0.227273,
347.666656=-0.113636,
348.833344=-0.227273,
349.666656=-0.113636,
350.833344=-0.227273,
351.666656=-0.113636,
352.833344=-0.227273,
353.666656=-0.113636
;
#BGCHANGES:;
#KEYSOUNDS:;
#ATTACKS:;

//---------------dance-single - ----------------
#NOTES:
     dance-single:
     :
     Challenge:
     16:
     0.695295,0.775962,0.276869,0.539166,0.921683,668.000000,630.000000,38.000000,74.000000,44.000000,2.000000,0.695295,0.775962,0.276869,0.539166,0.921683,668.000000,630.000000,38.000000,74.000000,44.000000,2.000000:
// measure 0
0000
0000
0000
0000
,  // measure 1
0000
0000
0000
0000
,  // measure 2
0000
0000
0000
0000
,  // measure 3
0000
0000
0000
0000
0000
0000
0000
0000
0000
0000
0000
0000
0000
1000
0001
1000
,  // measure 4
0100
1000
0010
0000
0100
0000
0001
1000
0000
0010
0000
0100
0000
0000
0000
0110
,  // measure 5
0000
0000
1000
0100
0010
0000
0001
1000
0000
0010
0000
1000
0000
0022
0000
0033
,  // measure 6
0000
0000
0000
0000
0000
0000
1000
0000
0000
0010
0000
0000
0100
0000
0000
0000
0000
0000
0000
0000
0000
0100
0000
0000
00M0
0000
0000
0100
0000
0000
00M0
0000
0000
0100
0000
0000
0000
0000
0000
0000
0000
0000
0010
0000
1000
0000
0010
0000
,  // measure 7
0100
0001
1000
0000
0100
0000
1000
0001
0000
0010
0000
00M0
1000
0000
0001
0000
,  // measure 8
0201
0310
1000
0000
1000
0010
0000
0010
0100
0000
0100
0001
0000
0001
1000
0000
,  // measure 9
1000
0100
0000
0100
1000
0000
1000
0100
0000
0100
1000
0000
1000
0100
0000
0010
,  // measure 10
0001
0000
1000
0010
0000
0100
0001
0000
1000
0100
0000
0001
0100
0000
0010
0001
,  // measure 11
0000
1000
0010
0000
0100
1000
0000
0010
2002
0000
0000
0000
3003
0000
0000
0000
,  // measure 12
2100
0000
0000
0000
3010
0010
0001
1000
0000
0200
0000
0301
0100
0000
1000
0000
,  // measure 13
0020
0000
0000
2030
0000
0000
0001
0000
310M
0020
0000
0002
0000
0000
0033
0000
,  // measure 14
2001
3000
0000
0000
0010
1000
0100
0000
0010
0000
0100
0000
1000
0010
0000
0100
,  // measure 15
0001
0000
0010
0000
0001
1000
0000
0010
1000
0001
0010
0100
1000
0010
0100
0000
,  // measure 16
0012
0000
0000
0103
0100
0000
2000
0000
3001
0010
0000
1000
0000
0010
0000
0000
,  // measure 17
0002
0000
0000
2003
0000
0000
3010
0000
0100
0000
0000
0022
2200
0000
3333
0000
,  // measure 18
MMMM
0000
0000
0000
0001
0000
0010
0011
0000
1001
0000
1100
0000
0110
0000
0010
,  // measure 19
0002
0000
0000
0003
,  // measure 20
0102
0000
0000
0000
0013
0010
1000
0001
0000
0200
0000
1300
0100
0000
0001
0000
,  // measure 21
0020
0000
0000
0032
0000
0000
1000
0000
M103
0020
0000
2000
0000
0000
3030
0000
,  // measure 22
1002
0003
0000
0000
0010
0001
0100
0000
0010
0000
0100
0000
0001
0010
0000
0100
,  // measure 23
1000
0000
0010
0000
1000
0001
0000
0010
0001
1000
0010
0100
0001
0010
0100
0000
,  // measure 24
2010
0000
0000
3100
0100
0000
0002
0000
1003
0010
0000
0001
0000
0010
0000
0000
,  // measure 25
2000
0000
0000
3002
0000
0000
0013
0000
0100
0000
0000
2020
0202
0000
3333
0000
,  // measure 26
MMMM
0000
0000
0000
1000
0000
0010
1010
0000
1001
0000
0101
0000
0110
0000
0010
,  // measure 27
1000
1000
0001
0001
,  // measure 28
2000
0010
3002
0100
2003
0100
3002
0010
,  // measure 29
0023
0000
0100
0000
0230
0000
1000
0000
1300
0010
0000
0200
0002
0000
0303
0000
,  // measure 30
2MMM
0000
0000
3100
0200
0000
0301
0000
0200
0000
0310
0000
0100
0000
1000
0100
,  // measure 31
0020
0000
1030
0000
0020
0000
0130
0000
0020
0000
0031
0000
2000
0000
3100
0001
,  // measure 32
1000
0200
0310
0200
2300
0001
3002
0010
,  // measure 33
2003
0000
3100
0000
1000
0000
0020
0000
1030
0001
0000
0020
0200
0000
0330
0000
,  // measure 34
MMMM
0000
0200
1300
1002
0010
2003
3100
,  // measure 35
0020
0000
0001
0000
0230
0000
1300
0001
0000
1000
0000
0001
0000
0100
0010
0000
,  // measure 36
0000
0000
0000
0000
,  // measure 37
0000
0000
0000
0000
0000
M000
000M
0000
00M0
0000
M000
0M00
000M
0000
00M0
0000
,  // measure 38
0000
0000
0000
0000
0000
0000
0000
0000
0000
00M0
M000
0000
0M00
0000
00M0
M000
,  // measure 39
0000
000M
00M0
0000
0000
0000
0000
0000
0000
0000
0000
0000
0000
000M
00M0
0000
,  // measure 40
0M00
0000
M000
0M00
00M0
0000
000M
0000
0000
0000
0000
0000
0000
0000
0000
0000
,  // measure 41
0001
0010
0100
0010
0000
0000
0001
0000
1000
0100
0010
0100
0000
0000
1000
0000
,  // measure 42
0001
0000
0000
0000
0000
0100
0000
0000
0000
0000
0000
0000
0000
0000
0000
0000
0000
0000
0000
0000
0000
0000
0000
0000
0000
0000
0000
0000
0000
0000
0000
0000
,  // measure 43
0010
1000
0100
0010
0000
0000
0001
0000
0020
0000
0000
0000
0000
0000
0000
0000
,  // measure 44
0000
0030
0000
0000
,  // measure 45
0001
1000
0010
1000
0000
0000
0MMM
0000
2000
0000
0000
0000
0000
0000
0000
0000
,  // measure 46
3000
0000
0000
0000
0000
0000
0000
0000
0000
0000
0000
0000
0000
0000
0000
0000
0010
0000
0000
0100
0000
0001
0000
0000
0000
0000
0000
0200
0000
0000
0000
0000
,  // measure 47
0000
0000
0300
0000
,  // measure 48
0001
0010
0100
0001
0000
0000
0100
0000
1000
0000
0000
0000
0000
0000
0000
0000
,  // measure 49
0001
0100
0010
0100
0000
0000
0000
0000
0001
0000
1000
0100
0000
0000
0000
0000
,  // measure 50
0010
0000
0100
1000
0000
0000
0000
0000
0001
0000
0100
0010
0000
0000
0000
0000
,  // measure 51
1000
0100
0010
0001
0000
0000
1000
0000
0001
0000
1000
0010
0000
0000
0000
0000
,  // measure 52
0100
0000
0001
0100
0000
0000
0000
0000
0010
0000
1000
0100
0000
0000
0000
0000
,  // measure 53
1000
0010
0100
0010
0000
0000
0100
0000
0001
0010
0100
0010
0000
0000
0100
0000
,  // measure 54
1000
0100
0010
0100
0000
0000
0001
0000
0100
1000
0001
1000
0000
0000
0010
0000
,  // measure 55
0100
0001
0100
0010
0000
0000
0100
0000
0001
0010
0100
0010
0000
0000
1000
0000
,  // measure 56
0010
0001
0010
0100
0000
0000
1000
0000
0001
0000
0000
0000
0000
0000
0000
0000
,  // measure 57
1010
0000
0100
0001
0000
0000
0000
0000
1010
0000
0100
0001
0000
0000
0000
0000
,  // measure 58
1010
0000
0100
0001
0000
0000
0000
0000
0010
0001
0010
0001
0000
0000
0000
0000
,  // measure 59
1000
0100
1000
0001
0000
0000
1000
0000
0001
0100
0001
1000
0000
0000
0001
0000
,  // measure 60
1000
0010
0100
0010
0000
0000
1000
0000
0001
0010
0001
1000
0000
0000
0100
0000
,  // measure 61
0010
0000
0001
0010
0000
0000
1000
0000
0000
0010
0000
0001
0000
0000
0000
0000
,  // measure 62
0101
0000
1100
0000
0000
0000
0001
0000
0000
1000
0000
0001
0000
0000
0100
0000
,  // measure 63
0010
0100
0010
0100
0000
0000
0001
0000
0010
0100
1000
0001
0000
0000
0100
0000
,  // measure 64
0010
1000
0001
0010
0000
0000
0100
0000
1000
0100
0010
0001
0000
0000
1000
0000
,  // measure 65
0001
0000
0010
0000
0000
0000
0001
0000
0011
0000
0100
1000
0000
0000
0000
0000
,  // measure 66
0011
0000
0100
1000
0000
0000
0000
0000
0010
1000
0010
0000
0000
0000
0100
0000
,  // measure 67
0001
0000
1000
0100
0000
0000
1000
0000
0001
0000
1000
0100
0000
0000
1000
0000
,  // measure 68
0001
0000
1000
0100
0000
0000
0001
0000
0100
0010
0001
0100
0000
0000
0010
0000
,  // measure 69
1000
0010
1000
0001
0000
0000
0000
0000
0001
0010
0001
0010
0000
0000
0000
0000
,  // measure 70
0100
1000
0001
1000
0000
0000
0010
0000
0100
0010
1000
0001
0000
0000
1000
0000
,  // measure 71
0100
0010
0100
1000
0000
0000
0001
0000
1000
0010
1000
0001
0000
0000
0100
0000
,  // measure 72
0010
0100
0001
0010
0000
0000
0001
0000
0010
0100
1000
0001
0000
0000
0100
0000
,  // measure 73
0001
0010
1000
0010
0000
0000
0001
0000
1000
0010
0001
0010
0000
0000
1000
0000
,  // measure 74
0001
0010
1000
0010
0000
0000
0001
0000
1000
0010
0001
0010
0000
0000
1000
0000
,  // measure 75
0001
0100
1000
0100
0000
0000
0001
0000
1000
0100
0001
0100
0000
0000
1000
0000
,  // measure 76
0001
0100
1000
0100
0000
0000
0001
0000
1000
0100
0001
0100
0000
0000
1000
0000
,  // measure 77
0010
1000
0100
1000
0000
0000
0010
0000
0100
0001
0010
0001
0000
0000
0100
0000
,  // measure 78
0010
1000
0100
1000
0000
0000
0010
0000
0100
0001
0010
0001
0000
0000
1000
0000
,  // measure 79
0100
1000
0010
1000
0000
0000
0100
0000
0010
0001
0100
0001
0000
0000
0010
0000
,  // measure 80
0100
1000
0010
1000
0000
0000
0100
0000
0010
0001
0100
0001
0000
0000
1000
0000
,  // measure 81
2010
0000
0000
0001
0000
0000
3000
0000
2010
0000
0000
0001
0000
0000
3000
0000
,  // measure 82
1010
0000
1000
0100
0000
0000
0000
0000
2010
0000
0001
0000
0000
0000
3000
0000
,  // measure 83
0012
0000
0000
1000
0000
0000
0003
0000
2100
0000
3002
0000
0000
0000
0003
0000
,  // measure 84
0021
0000
0100
0000
0000
0000
0030
0000
1100
0100
0010
0001
0000
0000
0010
0000
,  // measure 85
1000
0010
0100
0001
0000
0000
1000
0000
0001
0010
0100
1000
0000
0000
0001
0000
,  // measure 86
1000
0100
0001
0100
0000
0000
0010
0000
0001
0010
1000
0010
0000
0000
0100
0000
,  // measure 87
1000
0100
1000
0100
0000
0000
0010
0000
0001
1000
0001
1000
0000
0000
0010
0000
,  // measure 88
0100
0001
0100
0001
0000
0000
1000
0000
0010
0010
0100
0100
0100
0000
0000
0000
;
