#VERSION:0.83;
#TITLE:Dimension W;
#SUBTITLE:;
#ARTIST:Unknown artist;
#TITLETRANSLIT:;
#SUBTITLETRANSLIT:;
#ARTISTTRANSLIT:;
#GENRE:;
#ORIGIN:;
#CREDIT:;
#BANNER:banner.png;
#BACKGROUND:background.png;
#PREVIEWVID:;
#JACKET:;
#CDIMAGE:;
#DISCIMAGE:cd.png;
#LYRICSPATH:;
#CDTITLE:;
#MUSIC:Dimension W Opening 1.ogg;
#OFFSET:0.000000;
#SAMPLESTART:1.300000;
#SAMPLELENGTH:18.000000;
#SELECTABLE:YES;
#BPMS:0.000=174.000,
32.000=348.000,
164.000=174.000,
180.000=261.000,
183.000=87.000,
184.000=261.000,
187.000=87.000,
188.000=261.000,
191.000=87.000,
192.000=261.000,
193.000=275.000,
194.000=315.000,
195.000=332.000,
196.000=364.000,
197.000=384.000,
198.000=395.000,
199.000=429.000,
200.000=174.000,
228.000=130.500,
231.000=348.000,
351.000=435.000,
361.000=261.000,
364.000=87.000,
365.000=261.000,
368.000=87.000,
369.000=261.000,
372.000=87.000,
373.000=261.000,
376.000=87.000,
377.000=261.000,
380.000=87.000,
381.000=261.000,
384.000=87.000,
385.000=261.000,
388.000=87.000,
389.000=10.000;
#STOPS:32.000=0.650;
#DELAYS:;
#WARPS:;
#TIMESIGNATURES:0.000=4=4;
#TICKCOUNTS:0.000=4;
#COMBOS:0.000=1;
#SPEEDS:0.000=1.000=0.000=0;
#SCROLLS:0.000=1.000;
#FAKES:;
#LABELS:0.000=Song Start,
20.000=Start,
36.000=melody start,
100.000=singing start,
164.000=slow build,
180.000=dubstep,
200.000=chill,
216.000=buildio 2io,
231.000=amazing melody,
277.000=break of dawn,
295.000=melody b1,
303.000=melody b2,
311.000=melody b3,
319.000=melody b4,
327.000=melody c1,
335.000=melody c2,
343.000=melody c3,
351.000=swoosh,
361.000=more wubs,
389.000=ending;
#BGCHANGES:1.250=Dimension W Opening 1.mp4=1.000=0=0=1=====,
99999=-nosongbg-=1.000=0=0=0 // don't automatically add -songbackground-
;
#KEYSOUNDS:;
#ATTACKS:
;

//---------------dance-single - ----------------
#NOTEDATA:;
#CHARTNAME:;
#STEPSTYPE:dance-single;
#DESCRIPTION:;
#CHARTSTYLE:Pad;
#DIFFICULTY:Medium;
#METER:13;
#RADARVALUES:0.492226,0.813483,0.278769,0.524086,0.000000,309.000000,284.000000,25.000000,47.000000,0.000000,0.000000,0.000000,0.000000,0.000000,0.492226,0.813483,0.278769,0.524086,0.000000,309.000000,284.000000,25.000000,47.000000,0.000000,0.000000,0.000000,0.000000,0.000000;
#CREDIT:Elik;
#NOTES:
// measure 0
0000
0000
0000
0000
,  // measure 1
0000
0000
0000
0000
,  // measure 2
0000
0000
0000
0000
,  // measure 3
0000
0000
0000
0000
,  // measure 4
0000
0000
0000
0000
,  // measure 5
1000
0001
0100
1000
,  // measure 6
0100
0001
0010
0100
,  // measure 7
0010
0001
1000
0010
,  // measure 8
0001
0000
0000
0000
,  // measure 9
1000
0100
1000
0100
,  // measure 10
0000
0100
0010
0100
,  // measure 11
0000
0010
0001
0010
,  // measure 12
0000
0010
0100
1000
,  // measure 13
0010
0100
0010
0100
,  // measure 14
0000
0001
0010
0200
,  // measure 15
0000
2300
0000
3100
,  // measure 16
0010
0001
0010
0000
,  // measure 17
0010
0001
0100
0010
,  // measure 18
0000
0010
1000
0010
,  // measure 19
0000
0100
0001
0100
,  // measure 20
0000
0010
1000
0100
,  // measure 21
0010
0100
1000
0001
,  // measure 22
0000
0010
1000
0020
,  // measure 23
0000
0032
0000
0103
,  // measure 24
1000
0100
0001
0000
,  // measure 25
0010
0001
0010
0001
,  // measure 26
0100
0010
0100
0010
,  // measure 27
1000
0100
1000
0100
,  // measure 28
0020
0000
0230
0000
,  // measure 29
0300
0000
0100
0100
,  // measure 30
1000
0010
0000
0101
,  // measure 31
0000
1010
0000
0100
,  // measure 32
0001
0100
1000
0000
,  // measure 33
1001
0000
0001
0010
,  // measure 34
0100
1000
0010
1000
,  // measure 35
0100
0010
0001
0100
,  // measure 36
0020
0000
0230
0000
,  // measure 37
0300
0000
0001
0010
,  // measure 38
0100
0010
0001
0200
,  // measure 39
0000
0300
0010
0100
,  // measure 40
0001
0000
1000
0100
,  // measure 41
0020
0001
0031
0000
,  // measure 42
0200
1000
0310
0000
,  // measure 43
0002
0010
0103
0000
,  // measure 44
0020
1000
0031
0000
,  // measure 45
2200
0000
0000
3300
0000
0000
1010
0000
,  // measure 46
0202
0000
0000
0303
0000
0000
0110
0000
,  // measure 47
2002
0000
0000
3003
0000
0000
0101
0000
,  // measure 48
2200
0000
0000
0000
,  // measure 49
3300
0000
0000
0000
,  // measure 50
1000
1000
0100
0010
,  // measure 51
0001
0001
0100
0010
,  // measure 52
1000
0100
0001
0100
,  // measure 53
1000
0010
0100
1000
,  // measure 54
0100
0100
0001
0001
,  // measure 55
0010
0010
0100
0100
,  // measure 56
1000
0100
1000
0100
1000
0010
0100
0001
,  // measure 57
0020
0000
0030
0100
,  // measure 58
1000
0010
0001
0010
,  // measure 59
1000
0200
0300
0100
,  // measure 60
0010
0001
0100
0010
,  // measure 61
0100
0002
0003
0001
,  // measure 62
0010
1000
0010
0001
,  // measure 63
0100
2000
3000
1000
,  // measure 64
0100
0010
1000
0100
,  // measure 65
0010
0002
0003
0001
,  // measure 66
0010
1000
0010
0001
,  // measure 67
0010
0200
0300
0100
,  // measure 68
1000
0010
0100
0001
,  // measure 69
0010
0200
0000
0020
,  // measure 70
0300
0000
0032
0000
,  // measure 71
0000
2003
0000
0000
,  // measure 72
0000
0010
0000
0010
,  // measure 73
0000
3010
0000
0100
,  // measure 74
0001
0010
0100
0010
,  // measure 75
0001
0200
0300
0010
,  // measure 76
1000
0100
0001
0100
,  // measure 77
1000
0020
0030
0100
,  // measure 78
1000
0100
0010
1000
,  // measure 79
0001
0020
0030
1000
,  // measure 80
0010
0001
0100
0010
,  // measure 81
1000
0200
0300
0001
,  // measure 82
0100
0010
0001
1000
,  // measure 83
0010
0200
0300
0001
,  // measure 84
0010
0100
0010
0001
,  // measure 85
1000
0010
0100
1000
,  // measure 86
0100
0001
0010
0100
,  // measure 87
0001
0100
1000
0200
,  // measure 88
0000
0000
0000
0000
,  // measure 89
0000
0000
0300
0000
,  // measure 90
0000
0000
2200
0000
0000
3300
0000
0000
,  // measure 91
0011
0000
0202
0000
0000
0303
0000
0000
,  // measure 92
1010
0000
0220
0000
0000
0330
0000
0000
,  // measure 93
1001
0000
1000
0000
0000
0100
0000
0000
,  // measure 94
0010
0001
0012
0000
0000
0103
0000
0000
,  // measure 95
0110
0000
2100
0000
0000
3100
0000
0000
,  // measure 96
0110
0000
0101
0000
0000
0011
0000
0000
,  // measure 97
1100
0000
0000
0000
0000
0000
1010
0000
0000
0000
0000
0000
0202
0303
0000
0000
0000
0000
0000
0000
0000
0000
0000
0000
0000
0000
0000
0000
0000
0000
0000
0000
0000
0000
0000
0000
0000
0000
0000
0000
0000
0000
0000
0000
0000
0000
0000
0000
;

//---------------dance-single - ----------------
#NOTEDATA:;
#CHARTNAME:;
#STEPSTYPE:dance-single;
#DESCRIPTION:;
#CHARTSTYLE:Pad;
#DIFFICULTY:Easy;
#METER:10;
#RADARVALUES:0.329744,0.596554,0.133809,0.412578,0.000000,207.000000,195.000000,12.000000,37.000000,0.000000,0.000000,0.000000,0.000000,0.000000,0.329744,0.596554,0.133809,0.412578,0.000000,207.000000,195.000000,12.000000,37.000000,0.000000,0.000000,0.000000,0.000000,0.000000;
#CREDIT:Elik;
#NOTES:
// measure 0
0000
0000
0000
0000
,  // measure 1
0000
0000
0000
0000
,  // measure 2
0000
0000
0000
0000
,  // measure 3
0000
0000
0000
0000
,  // measure 4
0000
0000
0000
0000
,  // measure 5
1000
0100
0010
0010
,  // measure 6
0100
0100
0010
0001
,  // measure 7
0100
0100
0010
0010
,  // measure 8
2000
3000
0000
0000
,  // measure 9
0001
0000
0001
0000
,  // measure 10
0001
0000
1000
0000
,  // measure 11
0100
0000
0100
0000
,  // measure 12
0100
0000
1000
0000
,  // measure 13
0010
0000
0100
0000
,  // measure 14
0010
0000
0100
0000
,  // measure 15
0001
0000
0010
0000
,  // measure 16
0100
0000
1000
0000
,  // measure 17
0001
0000
0010
0000
,  // measure 18
0100
0000
1000
0000
,  // measure 19
0010
0000
1000
0000
,  // measure 20
0010
0000
1000
0000
,  // measure 21
0100
0000
1000
0000
,  // measure 22
0001
0000
0100
0000
,  // measure 23
0010
0000
0100
0000
,  // measure 24
0010
0000
1000
0000
,  // measure 25
0100
0000
0010
0000
,  // measure 26
0001
0000
0010
0000
,  // measure 27
0100
0000
1000
0000
,  // measure 28
0010
0000
0200
0000
,  // measure 29
0300
0000
0010
0000
,  // measure 30
1000
0000
0010
0000
,  // measure 31
0100
0000
0001
0000
,  // measure 32
0100
0000
0020
0000
,  // measure 33
0030
0000
0010
0000
,  // measure 34
1000
0000
0100
0000
,  // measure 35
0010
0000
0100
0000
,  // measure 36
1000
0000
0020
0000
,  // measure 37
0030
0000
0100
0000
,  // measure 38
0001
0000
0100
0000
,  // measure 39
0010
0000
2000
0000
,  // measure 40
3000
0000
0001
0000
,  // measure 41
0200
0000
0310
0000
,  // measure 42
0020
0000
1030
0000
,  // measure 43
0002
0000
0103
0000
,  // measure 44
0200
0000
0310
0000
,  // measure 45
0220
0000
0330
0010
,  // measure 46
2002
0000
3003
1000
,  // measure 47
0220
0000
0330
0010
,  // measure 48
2200
0000
0000
0000
,  // measure 49
3300
0000
0000
0000
,  // measure 50
1000
1000
1000
0100
,  // measure 51
0010
0010
0010
0001
,  // measure 52
0100
0010
1000
0100
,  // measure 53
1000
0010
0100
0001
,  // measure 54
0010
0010
0100
0100
,  // measure 55
1000
1000
0001
0001
,  // measure 56
0100
0001
0100
0000
0010
1000
0010
0000
,  // measure 57
0200
0000
0300
0010
,  // measure 58
0000
1000
0000
0010
,  // measure 59
0000
0001
0000
0010
,  // measure 60
0000
1000
0000
0100
,  // measure 61
0000
0010
0000
0100
,  // measure 62
0000
1000
0000
0010
,  // measure 63
0000
0100
0000
0001
,  // measure 64
0000
0100
0000
0010
,  // measure 65
0000
0100
0000
0001
,  // measure 66
0000
0010
0000
0100
,  // measure 67
0000
1000
0000
0001
,  // measure 68
0000
0010
0000
0100
,  // measure 69
0000
0010
0000
0002
,  // measure 70
0000
0003
0200
0000
,  // measure 71
0300
0020
0000
0030
,  // measure 72
0000
0100
0000
0010
,  // measure 73
0000
1000
0000
0100
,  // measure 74
0000
0010
0000
0100
,  // measure 75
0000
0010
0001
0010
,  // measure 76
0000
0100
0000
1000
,  // measure 77
0000
0001
0000
0100
,  // measure 78
0000
0010
0000
1000
,  // measure 79
0000
0010
1000
0010
,  // measure 80
0000
0100
0000
0010
,  // measure 81
0000
0100
0000
0001
,  // measure 82
0000
1000
0000
0100
,  // measure 83
0000
0010
0000
0100
,  // measure 84
0000
1000
0000
0010
,  // measure 85
0000
0100
0000
0001
,  // measure 86
0000
0010
0000
0100
,  // measure 87
0000
0010
0000
0200
,  // measure 88
0000
0000
0000
0000
,  // measure 89
0000
0300
0000
0000
,  // measure 90
0000
0200
0000
0300
,  // measure 91
0100
0220
0000
0330
,  // measure 92
0010
2020
0000
3030
,  // measure 93
0100
2200
0000
3300
,  // measure 94
1000
0202
0000
0303
,  // measure 95
0010
2020
0000
3030
,  // measure 96
0100
2002
0000
3003
,  // measure 97
1001
0000
0000
0000
0000
0000
0000
0000
0000
0000
0000
0000
0220
0330
0000
0000
0000
0000
0000
0000
0000
0000
0000
0000
0000
0000
0000
0000
0000
0000
0000
0000
0000
0000
0000
0000
0000
0000
0000
0000
0000
0000
0000
0000
0000
0000
0000
0000
;

//---------------dance-single - ----------------
#NOTEDATA:;
#CHARTNAME:;
#STEPSTYPE:dance-single;
#DESCRIPTION:;
#CHARTSTYLE:Pad;
#DIFFICULTY:Hard;
#METER:16;
#RADARVALUES:0.665860,1.355950,0.200714,0.669046,0.105932,418.000000,400.000000,18.000000,60.000000,0.000000,0.000000,0.000000,0.000000,0.000000,0.665860,1.355950,0.200714,0.669046,0.105932,418.000000,400.000000,18.000000,60.000000,0.000000,0.000000,0.000000,0.000000,0.000000;
#CREDIT:Elik;
#NOTES:
// measure 0
0000
0000
0000
0000
,  // measure 1
0000
0000
0000
0000
,  // measure 2
0000
0000
0000
0000
,  // measure 3
0000
0000
0000
0000
,  // measure 4
0000
0000
0000
0000
,  // measure 5
0001
0100
1000
0100
,  // measure 6
0010
1000
0100
0010
,  // measure 7
0100
1000
0010
1000
0100
0010
0001
0010
,  // measure 8
0200
0000
0300
0000
,  // measure 9
1000
0100
1000
0000
0010
0000
0100
0000
,  // measure 10
0001
0010
0100
2000
,  // measure 11
3000
0000
0010
0100
0010
0000
0200
0000
,  // measure 12
0300
0000
0001
0010
0001
0000
0010
0000
,  // measure 13
0100
1000
0100
0020
,  // measure 14
0030
0000
0100
1000
0100
0000
0202
0000
,  // measure 15
0303
2020
3030
0001
,  // measure 16
0100
0000
1000
0000
0100
0000
0001
0010
,  // measure 17
0100
1000
0010
0100
,  // measure 18
0001
0010
0100
0010
,  // measure 19
0001
0100
1000
0200
,  // measure 20
0300
0000
0010
1000
0100
0000
0100
0000
,  // measure 21
0100
0001
0100
0200
,  // measure 22
0300
0000
1000
0100
1000
0000
0202
0000
,  // measure 23
0303
2020
3030
0100
,  // measure 24
0001
0100
0010
0001
,  // measure 25
1000
1000
1000
0001
,  // measure 26
0010
0100
1000
0000
0100
0000
0001
0000
,  // measure 27
0100
1000
0010
0100
,  // measure 28
0001
0010
0100
0000
2000
0000
0000
0000
,  // measure 29
0100
0000
3000
0000
0100
0010
0001
0000
,  // measure 30
0100
0000
0001
0010
0100
0000
2000
0000
,  // measure 31
3000
0020
0030
0002
,  // measure 32
0023
0230
0302
0023
,  // measure 33
0130
0000
1000
0010
,  // measure 34
0100
0000
0010
0000
0100
0000
0001
0010
,  // measure 35
0100
0000
1000
0000
0010
0100
0001
0000
,  // measure 36
0010
0000
0100
1000
0100
1000
0100
0000
,  // measure 37
1000
0000
1100
0000
,  // measure 38
0010
0001
0100
1000
,  // measure 39
0100
0000
0010
0000
1000
0100
0010
0000
,  // measure 40
0001
0000
0100
0010
1000
0000
0000
0000
,  // measure 41
2010
0000
0001
0000
,  // measure 42
3020
0230
0302
0013
,  // measure 43
1200
0000
0010
0000
,  // measure 44
0302
0000
0023
0000
0130
1000
0100
0000
,  // measure 45
2100
0000
0000
0000
0000
0000
3100
0000
0000
0000
0000
0000
1000
0100
0010
0000
,  // measure 46
0120
0000
0000
0000
0000
0000
0130
0000
0000
0000
0000
0000
0001
0100
0010
0000
,  // measure 47
0012
0000
0000
0000
0000
0000
0013
0000
0000
0000
0000
0000
0100
0010
0100
0000
,  // measure 48
2002
0000
0000
0000
,  // measure 49
0000
0000
3003
0000
,  // measure 50
0010
0010
0100
0001
,  // measure 51
0001
0010
0010
0100
,  // measure 52
1000
1000
0010
0100
,  // measure 53
0100
0001
0010
0100
,  // measure 54
1000
0010
0100
0010
1000
0100
0001
0100
,  // measure 55
1000
0010
0001
0010
1000
0001
0010
0001
,  // measure 56
0100
1000
0100
1000
0010
1000
0010
1000
0001
0100
0001
0100
0010
0100
0001
0010
,  // measure 57
0200
0000
0000
1000
0300
0000
0010
0000
,  // measure 58
0100
0000
1000
0000
0100
0001
0010
0000
,  // measure 59
0100
2000
3000
0010
,  // measure 60
1000
0000
0100
0000
0001
0100
1000
0000
,  // measure 61
0010
0200
0300
0001
,  // measure 62
0010
0000
0100
0000
0010
0001
1000
0000
,  // measure 63
0010
2000
3000
0010
,  // measure 64
0100
0000
0001
0000
0010
0100
0010
0000
,  // measure 65
0100
0000
1000
0010
0100
0000
0010
0000
,  // measure 66
1000
0000
0001
0000
0010
0001
0100
0000
,  // measure 67
0010
0200
0300
1000
,  // measure 68
0100
0000
0010
0000
0100
1000
0010
0000
,  // measure 69
0100
0002
0000
0020
,  // measure 70
0003
0000
2030
0000
,  // measure 71
0000
3020
0000
0000
,  // measure 72
0000
0001
0000
0100
,  // measure 73
0000
0000
1030
0000
0000
0000
0001
0100
,  // measure 74
0010
0000
1000
0000
0100
0010
0100
0000
,  // measure 75
1000
0000
0010
0100
0001
0000
0100
0010
,  // measure 76
1000
0000
0100
0000
0010
0001
0010
0000
,  // measure 77
0100
0000
1000
0010
0100
0000
0010
1000
,  // measure 78
0100
0000
0010
0000
0001
0100
0010
0000
,  // measure 79
1000
0000
0100
0010
0001
0000
0010
0100
,  // measure 80
1000
0000
0010
0000
0100
0001
0010
0000
,  // measure 81
0100
0000
1000
0010
0100
0000
0001
0010
,  // measure 82
0001
0010
0100
0000
1000
0000
0010
0100
,  // measure 83
0010
0100
0001
0000
1000
0000
0010
0100
,  // measure 84
0010
0100
0001
1000
0010
1000
0100
0010
,  // measure 85
0100
0010
0001
0100
0001
0100
0010
1000
,  // measure 86
0100
0010
0100
1000
0010
1000
0001
0010
,  // measure 87
0100
0010
0001
0100
1000
0100
0002
0000
,  // measure 88
0000
0000
0000
0000
,  // measure 89
0000
0000
0000
0003
,  // measure 90
0000
0022
0000
0033
,  // measure 91
2200
3300
0220
0000
0000
0000
0330
0000
,  // measure 92
0202
0303
2020
0000
0000
0000
3030
0000
,  // measure 93
2200
3300
0012
0000
0000
0010
0003
0000
,  // measure 94
1000
0100
0020
0000
0000
0100
0030
0000
,  // measure 95
0001
0010
0100
0000
1000
0000
0000
0000
0020
0000
0000
0000
0000
0000
0000
0000
0000
0000
0000
0000
0100
0000
0000
0000
0030
0000
0000
0000
0000
0000
0000
0000
,  // measure 96
1000
0100
0010
0000
0001
0000
0000
0000
0100
0000
0000
0000
0000
0000
0001
0000
0000
0000
0000
0000
0010
0000
0000
0000
0000
0000
0100
0000
0000
0000
0000
0000
,  // measure 97
1000
0000
0100
0000
0010
0000
0001
0000
0200
0300
0000
0000
0000
0000
0000
0000
0000
0000
0000
0000
0000
0000
0000
0000
0000
0000
0000
0000
0000
0000
0000
0000
;

//---------------dance-single - ----------------
#NOTEDATA:;
#CHARTNAME:;
#STEPSTYPE:dance-single;
#DESCRIPTION:;
#CHARTSTYLE:;
#DIFFICULTY:Beginner;
#METER:6;
#RADARVALUES:0.280362,0.488090,0.122658,0.412578,0.000000,176.000000,165.000000,11.000000,37.000000,0.000000,0.000000,0.000000,0.000000,0.000000,0.280362,0.488090,0.122658,0.412578,0.000000,176.000000,165.000000,11.000000,37.000000,0.000000,0.000000,0.000000,0.000000,0.000000;
#CREDIT:Elik;
#NOTES:
// measure 0
0000
0000
0000
0000
,  // measure 1
0000
0000
0000
0000
,  // measure 2
0000
0000
0000
0000
,  // measure 3
0000
0000
0000
0000
,  // measure 4
0000
0000
0000
0000
,  // measure 5
1000
1000
0010
0010
,  // measure 6
0100
0100
0001
0001
,  // measure 7
0010
0010
0100
0100
,  // measure 8
2000
3000
0000
0000
,  // measure 9
0001
0000
0000
0000
,  // measure 10
0001
0000
0000
0000
,  // measure 11
0100
0000
0100
0000
,  // measure 12
0100
0000
0100
0000
,  // measure 13
0010
0000
0000
0000
,  // measure 14
0010
0000
0000
0000
,  // measure 15
1000
0000
0100
0000
,  // measure 16
1000
0000
0100
0000
,  // measure 17
1000
0000
0000
0000
,  // measure 18
0001
0000
0010
0000
,  // measure 19
0001
0000
0000
0000
,  // measure 20
0100
0000
0010
0000
,  // measure 21
0100
0000
0000
0000
,  // measure 22
0001
0000
0000
0000
,  // measure 23
0010
0000
0100
0000
,  // measure 24
0010
0000
0001
0000
,  // measure 25
0100
0000
0100
0000
,  // measure 26
0010
0000
0010
0000
,  // measure 27
1000
0000
0100
0000
,  // measure 28
1000
0000
0200
0000
,  // measure 29
0300
0000
0010
0000
,  // measure 30
0001
0000
0010
0000
,  // measure 31
0100
0000
1000
0000
,  // measure 32
0100
0000
0020
0000
,  // measure 33
0030
0000
0010
0000
,  // measure 34
0001
0000
0100
0000
,  // measure 35
0001
0000
1000
0000
,  // measure 36
0001
0000
0200
0000
,  // measure 37
0300
0000
0010
0000
,  // measure 38
1000
0000
0100
0000
,  // measure 39
1000
0000
0020
0000
,  // measure 40
0030
0000
1000
0000
,  // measure 41
0200
0000
0310
0000
,  // measure 42
0020
0000
0031
0000
,  // measure 43
0002
0000
0103
0000
,  // measure 44
0200
0000
0310
0000
,  // measure 45
0220
0000
0330
0000
,  // measure 46
2002
0000
3003
0000
,  // measure 47
0220
0000
0330
0000
,  // measure 48
2200
0000
0000
0000
,  // measure 49
3300
0000
0000
0000
,  // measure 50
1000
0000
1000
0000
,  // measure 51
0001
0000
0001
0000
,  // measure 52
0100
0010
1000
0100
,  // measure 53
1000
0010
0100
0001
,  // measure 54
0010
0010
0100
0100
,  // measure 55
1000
1000
0001
0001
,  // measure 56
0100
0010
1000
0100
,  // measure 57
0020
0000
0030
0010
,  // measure 58
0000
0000
0000
0010
,  // measure 59
0000
0001
0000
0010
,  // measure 60
0000
0000
0000
0100
,  // measure 61
0000
1000
0000
0100
,  // measure 62
0000
0000
0000
0100
,  // measure 63
0000
0010
0000
0001
,  // measure 64
0000
0100
0000
0010
,  // measure 65
0000
0100
0000
0001
,  // measure 66
0000
0010
0000
0100
,  // measure 67
0000
1000
0000
0000
,  // measure 68
0000
0010
0000
0100
,  // measure 69
0000
0001
0000
0020
,  // measure 70
0000
0030
0200
0000
,  // measure 71
0300
2000
0000
3000
,  // measure 72
0000
0001
0000
1000
,  // measure 73
0000
0001
0000
0100
,  // measure 74
0000
0010
0000
1000
,  // measure 75
0000
0100
0000
0010
,  // measure 76
0000
0100
0000
1000
,  // measure 77
0000
0001
0000
0100
,  // measure 78
0000
0010
0000
1000
,  // measure 79
0000
0010
0000
0100
,  // measure 80
0000
0001
0000
0010
,  // measure 81
0000
0100
0000
1000
,  // measure 82
0000
0100
0000
0010
,  // measure 83
0000
0001
0000
0100
,  // measure 84
0000
0001
0000
0010
,  // measure 85
0000
0001
0000
1000
,  // measure 86
0000
0001
0000
1000
,  // measure 87
0000
0010
0000
0200
,  // measure 88
0000
0000
0000
0000
,  // measure 89
0000
0300
0000
0000
,  // measure 90
0000
0200
0000
0300
,  // measure 91
0000
0220
0000
0330
,  // measure 92
0000
0022
0000
0033
,  // measure 93
0000
2200
0000
3300
,  // measure 94
0000
0202
0000
0303
,  // measure 95
0000
2020
0000
3030
,  // measure 96
0000
2002
0000
3003
,  // measure 97
0000
0000
0000
0000
0000
0000
0000
0000
0000
0000
0000
0000
0220
0330
0000
0000
0000
0000
0000
0000
0000
0000
0000
0000
0000
0000
0000
0000
0000
0000
0000
0000
0000
0000
0000
0000
0000
0000
0000
0000
0000
0000
0000
0000
0000
0000
0000
0000
;
