#VERSION:0.83;
#TITLE:Cy8er;
#SUBTITLE:;
#ARTIST:Yunomi;
#TITLETRANSLIT:;
#SUBTITLETRANSLIT:;
#ARTISTTRANSLIT:;
#GENRE:;
#ORIGIN:;
#CREDIT:;
#BANNER:cy8er-bn.jpg;
#BACKGROUND:cy8er-bg.png;
#PREVIEWVID:;
#JACKET:;
#CDIMAGE:;
#DISCIMAGE:;
#LYRICSPATH:;
#CDTITLE:;
#MUSIC:Cy8er.ogg;
#OFFSET:0.000000;
#SAMPLESTART:21.959999;
#SAMPLELENGTH:12.000000;
#SELECTABLE:YES;
#BPMS:0.000=174.125,
63.000=348.500,
128.000=174.125,
192.000=87.125,
206.000=174.125,
209.000=450.000,
212.000=348.500,
340.000=174.125;
#STOPS:63.000=0.200,
356.000=0.350;
#DELAYS:;
#WARPS:;
#TIMESIGNATURES:0.000=4=4;
#TICKCOUNTS:0.000=4;
#COMBOS:0.000=1;
#SPEEDS:0.000=1.000=0.000=0;
#SCROLLS:0.000=1.000;
#FAKES:;
#LABELS:0.000=Song Start;
#BGCHANGES:;
#KEYSOUNDS:;
#ATTACKS:
;

//---------------dance-single - ----------------
#NOTEDATA:;
#CHARTNAME:;
#STEPSTYPE:dance-single;
#DESCRIPTION:;
#CHARTSTYLE:;
#DIFFICULTY:Beginner;
#METER:4;
#RADARVALUES:0.126726,0.307975,0.057231,0.104924,0.000000,93.000000,87.000000,6.000000,11.000000,0.000000,0.000000,0.000000,0.000000,0.000000,0.126726,0.307975,0.057231,0.104924,0.000000,93.000000,87.000000,6.000000,11.000000,0.000000,0.000000,0.000000,0.000000,0.000000;
#CREDIT:;
#NOTES:
0020
0000
0000
0000
,
0000
0000
0000
0000
,
0030
0000
0000
0000
,
0000
0000
0000
0000
,
0200
0000
0000
0000
,
0000
0000
0000
0000
,
0300
0000
0000
0000
,
0000
0000
0000
0000
,
0001
0000
0001
0000
,
0001
0000
0000
0000
,
1000
0000
1000
0000
,
1000
0000
0000
0000
,
0001
0000
0001
0000
,
1000
0000
1000
0000
,
0001
0000
1000
0000
,
0001
0000
0000
1001
,
0000
0000
0000
0000
,
0001
0000
0000
0000
,
0010
0000
0000
0000
,
0000
0000
0000
0000
,
0000
0000
0000
0000
,
1000
0000
0000
0000
,
0100
0000
0000
0000
,
0000
0000
0000
0000
,
0000
0000
0000
0000
,
0001
0000
0000
0000
,
0010
0000
0000
0000
,
0000
0000
0000
0000
,
0000
0000
0000
0000
,
1000
0000
0000
0000
,
0100
0000
0000
0000
,
0000
0000
0000
0000
,
0100
0000
0000
0000
,
0010
0000
0000
0000
,
1000
0000
0000
0000
,
0001
0000
0000
0000
,
0100
0000
0000
0000
,
0010
0000
0000
0000
,
0100
0000
0000
0000
,
0001
0000
0000
0000
,
1001
0000
0000
0000
,
1000
0000
0000
0000
,
0001
0000
0000
0000
,
0100
0000
0000
0000
,
0001
0000
0000
0000
,
1000
0000
0000
0000
,
0010
0000
0000
0000
,
0100
0000
0000
0000
,
0220
0000
0330
0000
,
0010
0010
0010
0000
,
2002
0000
3003
0000
,
1000
1000
2000
0000
,
0000
0000
0000
0000
,
3000
0000
0000
0000
,
1000
0000
0000
0000
,
1000
0000
1000
0000
,
1000
0000
0000
0000
,
0001
0000
0000
0000
,
0001
0000
0000
0000
,
0001
0000
0001
0000
,
0001
0000
0000
0000
,
0010
0000
0000
0000
,
0100
0000
0000
0000
,
0010
0000
0000
0000
,
0100
0000
0000
0000
,
0220
0000
0000
0000
,
0000
0000
0000
0000
,
0330
0000
0000
0000
,
0000
0000
0000
0000
,
0010
0000
0000
0000
,
0010
0000
0000
0000
,
1000
0000
0000
0000
,
1000
0000
0000
0000
,
0010
0000
0000
0000
,
0010
0000
0000
0000
,
0100
0000
0000
0000
,
0100
0000
0000
0000
,
0001
0000
0000
0000
,
0001
0000
0000
0000
,
0100
0000
0000
0000
,
0100
0000
0000
0000
,
2002
0000
0000
0000
,
0000
0000
0000
0000
,
3003
0000
0000
0000
,
0000
0000
0000
0000
,
1000
0000
1000
0000
,
1000
0000
0000
0000
,
0010
0000
0010
0000
,
0010
0000
0000
0000
,
0100
0000
0000
0100
,
0000
0000
0000
0001
,
0000
0001
0000
0001
,
0000
0001
0000
0000
;

//---------------dance-single - ----------------
#NOTEDATA:;
#CHARTNAME:;
#STEPSTYPE:dance-single;
#DESCRIPTION:;
#CHARTSTYLE:;
#DIFFICULTY:Easy;
#METER:7;
#RADARVALUES:0.238463,0.397041,0.095385,0.219386,0.000000,175.000000,165.000000,10.000000,23.000000,0.000000,0.000000,0.000000,0.000000,0.000000,0.238463,0.397041,0.095385,0.219386,0.000000,175.000000,165.000000,10.000000,23.000000,0.000000,0.000000,0.000000,0.000000,0.000000;
#CREDIT:;
#NOTES:
0020
0000
0000
0000
,
0000
0000
0000
0000
,
1030
1000
0000
0000
,
0000
0000
0000
0000
,
0002
0000
0000
0000
,
0000
0000
0000
0000
,
0103
0100
0000
0000
,
0000
0000
0000
0000
,
1000
0100
0000
0000
,
0100
1000
0000
0000
,
0001
0010
0000
0000
,
0010
0001
0000
0000
,
2000
0000
3002
0000
,
0203
0000
0320
0000
,
1030
0000
0001
0000
,
2002
0000
0000
3003
,
1000
0000
0000
0000
,
0100
0000
0000
0000
,
0010
0000
0000
0000
,
0000
0000
0000
0000
,
0001
0000
0000
0000
,
0100
0000
0000
0000
,
0010
0000
0000
0000
,
0000
0000
0000
0000
,
1000
0000
0000
0000
,
0001
0000
0000
0000
,
0010
0000
0000
0000
,
0000
0000
0000
0000
,
0001
0000
0000
0000
,
1000
0000
0000
0000
,
0100
0000
0000
0000
,
0000
0000
0000
0000
,
0010
0000
0000
0000
,
0010
0010
0000
0001
,
0100
0100
0000
0010
,
1000
1000
0000
0001
,
1000
1000
0000
0100
,
0010
0010
0000
0100
,
1000
1000
0000
0001
,
2000
0000
0000
0000
0000
3000
0000
0000
,
1001
1000
0000
0100
,
0010
0010
0000
0100
,
1000
1000
0000
0001
,
1000
1000
0000
0010
,
0100
0100
0000
0001
,
0010
0010
0000
0001
,
0100
0100
0000
0010
,
0200
0000
0300
0000
,
0110
0000
1000
0001
,
0010
0100
1000
0000
,
0110
0000
0100
0001
,
0010
0100
2000
0000
,
0000
0002
0000
0000
,
3003
0000
1001
0000
,
1001
0000
0100
0000
,
0001
0000
0100
0000
,
0100
0000
0010
0000
,
1000
0000
1000
0000
,
0001
0000
1000
0000
,
0010
0000
0100
0000
,
0001
0000
0000
0000
,
0002
0000
1000
0000
,
1003
0000
0001
0000
,
2000
0000
0001
0000
,
3001
0000
0100
0000
,
0020
0030
0000
2000
,
3000
0000
0000
0002
,
0003
0000
0000
0002
,
0003
0000
0000
0000
,
1001
0000
1001
0000
,
1001
0000
0010
0000
,
0001
0000
0010
0000
,
0001
0000
1000
0000
,
0010
0000
1000
0000
,
0010
0000
0100
0000
,
0001
0000
0010
0000
,
0100
0000
0000
0000
,
2000
0000
0010
0000
,
3010
0000
1000
0000
,
0002
0000
0100
0000
,
0103
0000
0001
0000
,
2000
3000
0000
0200
,
0300
0000
0000
0020
,
0030
0000
0000
0000
,
0000
0000
0000
0000
,
0001
0001
0000
0010
,
0001
0001
0000
1000
,
0001
0001
0000
0100
,
0010
0010
0100
0010
,
0110
0000
1000
0100
,
0100
0000
1000
0010
,
0010
0000
0010
0100
,
0100
0100
0100
0000
;

//---------------dance-single - ----------------
#NOTEDATA:;
#CHARTNAME:;
#STEPSTYPE:dance-single;
#DESCRIPTION:;
#CHARTSTYLE:;
#DIFFICULTY:Medium;
#METER:13;
#RADARVALUES:0.557322,0.839331,0.219386,0.362464,0.009539,409.000000,386.000000,23.000000,38.000000,0.000000,0.000000,0.000000,0.000000,0.000000,0.557322,0.839331,0.219386,0.362464,0.009539,409.000000,386.000000,23.000000,38.000000,0.000000,0.000000,0.000000,0.000000,0.000000;
#CREDIT:;
#NOTES:
1002
0000
0000
0010
0000
0000
1000
0000
,
2003
0000
0000
0010
0000
0000
3001
0000
,
0201
0000
0000
0010
0000
0000
0001
0000
,
0320
0000
0000
1000
0000
0000
0130
0000
,
2001
0000
0000
0100
0000
0000
0001
0000
,
3002
0000
0000
0100
0000
0000
1003
0000
,
2100
0000
0000
0001
0000
0000
3010
0000
,
0102
0000
0000
1000
0000
0000
0013
0000
,
0010
0100
0010
0000
0000
0000
0000
0000
,
0001
1000
0001
0000
0000
0000
0000
0000
,
1000
0010
1000
0000
0000
0000
0000
0000
,
0001
0010
0001
0000
0000
0000
0000
0000
,
1000
0100
0010
0000
0001
0100
0010
0000
,
1000
0001
0010
0000
0100
1000
0010
0000
,
0100
0001
0010
0100
1000
0100
0010
0002
,
2000
0000
3003
1001
,
1000
0010
1000
0001
,
0000
1000
0001
0010
,
0001
1000
0100
1000
,
0000
0010
0100
0001
,
1000
0001
1000
0100
,
0000
1000
0010
1000
,
0001
0010
0100
1000
,
0010
0100
0001
1000
,
0010
0100
0010
1000
,
0000
0001
0010
0100
,
0010
0001
1000
0001
,
0000
0010
0100
1000
,
0001
1000
0001
0100
,
0000
0010
0100
0001
,
1000
0100
0010
0001
,
0100
0010
1000
0001
,
1000
0000
1001
0000
0000
0100
0010
0100
,
0010
0000
0110
0000
0000
0001
0010
0100
,
1000
0000
1100
0000
0000
1000
0010
0100
,
0001
0000
0101
0000
0000
0100
0001
0010
,
0100
0000
0110
0000
0000
0010
0001
1000
,
0010
0000
0110
0000
0000
1000
0010
0100
,
0001
0000
1010
0000
0000
0001
0010
0100
,
0010
0001
0001
0000
0000
2000
3100
0000
,
1000
0010
1000
0000
0000
0001
0100
0001
,
1000
0010
1000
0000
0000
0001
0010
0100
,
1000
0100
1000
0000
0000
1000
0010
0100
,
0001
0100
0001
0000
0000
0010
0100
0010
,
0001
1000
0001
0000
0000
1000
0010
0100
,
0001
1000
0001
0000
0000
0010
0100
1000
,
0010
0100
0010
0000
0000
1000
0001
0010
,
0100
1000
0100
0000
0000
0010
0001
1000
,
0200
0000
0300
0010
0100
1000
1000
0000
,
0001
0000
1000
0000
0001
1000
0001
0000
,
0100
0100
0010
0010
1000
1000
0001
1000
,
0001
0010
0001
0010
0001
0000
1000
0000
2002
0000
0000
0000
0000
0000
0000
0000
,
0000
3003
1001
0000
0000
0000
0000
0000
,
0100
0001
0010
0001
,
0100
0001
0010
0100
,
1000
0010
1000
0001
,
1000
0010
1000
0010
,
0100
0001
1000
0001
,
0100
0001
0010
0100
,
0020
0031
2000
3010
,
0200
0301
0010
0100
,
1000
0010
1000
0100
,
1000
0010
0100
0001
,
0010
0001
0100
0001
,
0010
0100
1000
0100
,
0220
0330
0000
0022
,
0033
0000
0000
2020
,
3030
0000
0000
0202
,
0303
0000
0000
0000
,
1000
0100
1000
0100
,
0010
0100
1000
0100
,
0010
0100
0010
0100
,
0010
0001
0010
0100
,
2000
3010
0200
0301
,
2000
3100
0020
0031
,
0002
0013
0200
1300
,
0002
1003
0010
0100
,
0001
1000
0001
0100
,
0001
1000
0010
0100
,
0001
0100
0010
0100
,
1000
0100
0010
0100
,
0220
0330
0000
2020
,
3030
0000
0000
2200
,
3300
0000
0000
0000
,
0000
0000
0000
0000
,
0001
0010
0001
0100
0000
0001
0010
0001
,
0100
0010
1000
0100
0000
1000
0001
1000
,
0001
0010
0100
1000
0000
0001
1000
0001
,
1000
0010
0100
0001
0000
1000
0010
0100
,
0001
0000
1001
0000
1000
0000
0010
0100
,
0010
0100
0000
0001
0010
0100
1000
0001
,
1000
0001
0000
1000
0100
0010
0100
1000
,
0001
1000
0100
1000
0001
0010
0000
0000
;

//---------------dance-single - ----------------
#NOTEDATA:;
#CHARTNAME:;
#STEPSTYPE:dance-single;
#DESCRIPTION:;
#CHARTSTYLE:;
#DIFFICULTY:Hard;
#METER:15;
#RADARVALUES:0.692225,1.590311,0.248002,0.219386,0.200309,508.000000,482.000000,26.000000,23.000000,0.000000,0.000000,0.000000,0.000000,0.000000,0.692225,1.590311,0.248002,0.219386,0.200309,508.000000,482.000000,26.000000,23.000000,0.000000,0.000000,0.000000,0.000000,0.000000;
#CREDIT:;
#NOTES:
// measure 0
0010
1000
0100
0000
0010
0001
0100
0000
,  // measure 1
0010
1000
0100
0000
0010
0001
0100
0000
,  // measure 2
0010
1000
0001
0000
0010
0001
1000
0000
,  // measure 3
0100
1000
0001
0000
0100
0001
1000
0000
,  // measure 4
0001
0010
0100
0000
1000
0010
0100
0000
,  // measure 5
0001
0010
1000
0000
0010
0001
1000
0000
,  // measure 6
0001
1000
0010
0000
1000
0010
0001
0000
,  // measure 7
0010
1000
0100
0000
0010
0001
0100
0000
,  // measure 8
0101
1010
1000
1000
,  // measure 9
0001
0001
1000
0001
,  // measure 10
0010
0010
0100
0010
,  // measure 11
0100
0100
1000
0001
,  // measure 12
0100
0001
0100
0001
1000
0001
1000
0001
,  // measure 13
0010
0001
0010
0001
0100
0010
0100
0010
,  // measure 14
1000
0010
1000
0010
0100
0010
0100
0010
0100
0001
0100
0001
1000
0001
1000
0001
,  // measure 15
0010
0100
1000
0010
0100
0001
0010
0100
1000
0010
1000
0010
0100
0000
0000
0000
,  // measure 16
0011
0100
0010
0001
,  // measure 17
0000
1000
0010
1000
,  // measure 18
0010
0100
0010
1000
,  // measure 19
0000
0001
0010
0100
,  // measure 20
1001
0010
0100
1000
,  // measure 21
0000
1000
0010
0100
,  // measure 22
0100
0001
1000
1000
,  // measure 23
0100
0010
0001
1000
,  // measure 24
1010
1000
0001
0010
,  // measure 25
0000
0100
1000
0010
,  // measure 26
0100
0010
1000
0100
,  // measure 27
0000
0001
0100
1000
,  // measure 28
0100
1000
0010
0100
,  // measure 29
0000
0001
0100
0001
,  // measure 30
0100
0010
1000
0100
,  // measure 31
0010
0001
1000
0100
,  // measure 32
0020
0001
0031
0000
0000
1000
0001
1000
,  // measure 33
0020
1000
1030
0000
0000
0010
0100
0001
,  // measure 34
2000
0010
3010
0000
0000
1000
0100
0010
,  // measure 35
0002
1000
1003
0000
0000
0001
0010
0100
,  // measure 36
2000
0001
3001
0000
0000
0100
0010
0100
,  // measure 37
0002
0010
0013
0000
0000
0001
0010
0001
,  // measure 38
2000
0100
3100
0000
0000
0010
0001
1000
,  // measure 39
0020
0100
0130
0000
0000
0100
1001
0000
,  // measure 40
1001
0010
1000
0000
0000
0001
0100
0001
,  // measure 41
2000
0010
3010
0000
0000
1000
0010
0100
,  // measure 42
0002
0010
0013
0000
0000
0001
0010
0100
,  // measure 43
2000
0100
3100
0000
0000
0010
0100
1000
,  // measure 44
0020
0100
0130
0000
0000
0001
0010
1000
,  // measure 45
0020
0001
0031
0000
0000
1000
0100
0001
,  // measure 46
0200
1000
1300
0000
0000
0010
0100
0001
,  // measure 47
1000
0001
1000
0000
0000
0100
1000
0100
,  // measure 48
0010
0100
0010
0100
0010
0000
0000
0000
0000
0000
0100
0000
1000
0000
0001
0000
1000
0000
0000
0000
0010
0000
0100
0000
0001
0000
0000
0000
0000
0000
1000
0000
,  // measure 49
0020
0000
0000
0130
0002
0000
0000
0013
0100
1000
0100
0010
0001
0000
1000
0010
,  // measure 50
0100
0001
0100
0001
1000
0010
1000
0010
1000
0100
1000
0100
0010
0001
0010
0001
,  // measure 51
1000
0001
1000
0000
0001
1000
0001
0000
0100
0010
0100
0000
0010
0100
0010
0000
1000
0000
0000
0000
0100
0000
0000
0000
0010
0000
0000
0000
0001
0000
0000
0000
,  // measure 52
0100
0010
2002
0000
0000
3003
0000
0000
,  // measure 53
0011
0000
1001
0000
,  // measure 54
1100
0000
0010
0100
,  // measure 55
0001
0100
0010
1000
,  // measure 56
0001
0010
0100
1000
,  // measure 57
0010
0010
0100
0001
,  // measure 58
0010
0010
0100
1000
,  // measure 59
1010
0000
0110
0000
,  // measure 60
0101
0000
1000
0100
,  // measure 61
0010
0100
0001
0100
,  // measure 62
0010
0100
1000
0010
,  // measure 63
0000
0100
0010
0100
,  // measure 64
0001
0100
0010
0100
,  // measure 65
1010
0100
0001
0011
,  // measure 66
0000
0100
1000
1010
,  // measure 67
0000
0100
0001
1001
,  // measure 68
0000
0001
0010
0100
,  // measure 69
1000
0001
1000
0001
,  // measure 70
0010
1000
0010
0001
,  // measure 71
1000
0001
1000
0100
,  // measure 72
0001
0100
1000
0010
,  // measure 73
0100
0010
0001
0010
,  // measure 74
0100
0010
1000
0001
,  // measure 75
0011
0000
0110
0000
,  // measure 76
1100
0000
0010
0100
,  // measure 77
0001
0100
0010
0100
,  // measure 78
1000
0100
0010
1000
,  // measure 79
0100
0010
0001
1000
,  // measure 80
0001
0100
0010
1000
,  // measure 81
1010
1000
0100
0110
,  // measure 82
0000
0100
1000
0011
,  // measure 83
0000
0000
0000
0000
,  // measure 84
0000
0000
0000
0000
,  // measure 85
0002
1000
1003
0010
0000
0100
0001
0100
,  // measure 86
0020
1000
1030
0001
0000
0010
0100
1000
,  // measure 87
0200
0010
0310
0100
0000
0100
0010
0001
,  // measure 88
1000
0100
0010
0001
0100
0010
1000
0100
,  // measure 89
1001
0000
0101
0000
1000
0010
0200
0010
,  // measure 90
0310
0100
0000
0001
0010
0100
2000
0001
,  // measure 91
3001
0010
0000
0100
1000
0010
0100
0100
,  // measure 92
0010
0010
0100
0100
0010
0010
0000
0000
;
