#VERSION:0.83;
#TITLE:Comics;
#SUBTITLE:;
#ARTIST:Caravan Palace;
#TITLETRANSLIT:;
#SUBTITLETRANSLIT:;
#ARTISTTRANSLIT:;
#GENRE:;
#ORIGIN:;
#CREDIT:;
#BANNER:;
#BACKGROUND:;
#PREVIEWVID:;
#JACKET:;
#CDIMAGE:;
#DISCIMAGE:;
#LYRICSPATH:;
#CDTITLE:;
#MUSIC:comics.ogg;
#OFFSET:0.011000;
#SAMPLESTART:0.000000;
#SAMPLELENGTH:12.000000;
#SELECTABLE:YES;
#BPMS:0.000=90.000,
40.000=180.000,
44.000=90.000,
45.500=180.000,
99.500=45.000,
99.667=90.000,
99.833=180.000,
100.000=270.000,
101.000=180.000,
133.000=90.000,
164.000=360.000,
168.000=180.000,
232.000=90.000;
#STOPS:44.000=0.300,
99.500=0.100,
164.000=2.650;
#DELAYS:;
#WARPS:;
#TIMESIGNATURES:0.000=4=4;
#TICKCOUNTS:0.000=4;
#COMBOS:0.000=1;
#SPEEDS:0.000=1.000=0.000=0;
#SCROLLS:0.000=1.000;
#FAKES:;
#LABELS:0.000=Song Start;
#BGCHANGES:;
#KEYSOUNDS:;
#ATTACKS:
;

//---------------dance-single - ----------------
#NOTEDATA:;
#CHARTNAME:;
#STEPSTYPE:dance-single;
#DESCRIPTION:;
#CHARTSTYLE:Pad;
#DIFFICULTY:Medium;
#METER:7;
#RADARVALUES:0.296982,0.372072,0.094494,0.231941,0.038657,242.000000,231.000000,11.000000,27.000000,0.000000,0.000000,0.000000,0.000000,0.000000,0.296982,0.372072,0.094494,0.231941,0.038657,242.000000,231.000000,11.000000,27.000000,0.000000,0.000000,0.000000,0.000000,0.000000;
#CREDIT:Mozata;
#NOTES:
0000
0000
0000
0000
,
0000
0000
0000
0000
,
0011
0000
0100
0000
1000
0100
1000
0000
,
0001
0010
0001
0000
1000
0010
0100
0000
,
0010
0000
0010
0000
1000
0010
1000
0000
,
0001
0100
0001
0000
1000
0100
0010
0000
,
0011
0000
1000
0000
0001
0100
0010
0000
,
1000
0010
0100
0000
0100
0100
0010
0000
,
1010
0000
0001
0000
0010
0100
1000
0000
,
0010
0100
0010
0000
1000
0010
0001
0000
,
0200
0000
0000
0000
,
0300
1000
0000
0002
0000
0000
0000
0000
,
0000
0000
0000
1003
0000
0100
0000
0001
,
0000
0100
0000
2000
0000
0001
0000
3001
,
0000
0000
0000
0100
0000
0001
0000
0010
,
0000
0001
0100
0000
0000
0010
1000
0010
,
0000
1000
0010
1000
0000
0010
1000
0010
,
0000
0010
0000
0002
0000
1000
0000
1003
,
0000
0010
0000
0200
0000
1000
0000
1300
,
0000
0000
0000
0020
0000
0001
0000
0031
,
0000
0100
0000
2000
0000
0001
0000
3001
,
0000
0000
0000
0200
0000
0001
0000
0301
,
0000
1000
0000
0020
0000
0100
0000
0130
,
0000
0000
0000
0000
0000
0000
0000
0000
0000
1000
0000
0000
0000
0001
0000
1000
0000
0000
0000
0001
0000
1000
0000
0000
,
0000
0000
0000
0010
0000
0000
0000
0100
0000
0010
0000
0000
0000
0100
0000
0010
0000
0000
0000
0000
0000
0110
0000
0000
,
0000
0000
0000
0000
0010
0100
0000
0100
,
0000
0000
0000
0000
0000
0000
0000
0000
0000
0000
0000
0000
0000
0000
0000
0000
0000
0000
0000
0000
0000
0000
0000
0000
0000
0000
0000
0000
0000
0000
0000
0000
0000
0000
0000
0000
0000
0000
0000
0000
0000
0000
0000
0000
0000
0000
0000
0000
2000
3000
0000
0000
0000
0000
0000
0000
0000
0000
0000
0000
0000
0000
0000
0000
0000
0000
0000
0000
0000
0000
0000
0000
0000
0000
0000
0000
0000
0000
0000
0000
0000
0000
0000
0000
0000
0000
0000
0000
0000
0000
0000
0000
0000
0000
0000
0000
0100
0000
0000
0000
0000
0000
0000
0000
0000
0000
0000
0000
0000
0000
0000
0000
0000
0000
0000
0000
0000
0000
0000
0000
0000
0000
0000
0000
0000
0000
0000
0000
0000
0000
0000
0000
0000
0000
0000
0000
0000
0000
0000
0000
0000
0000
0000
0000
0020
0000
0000
0000
0000
0000
0000
0000
0000
0000
0000
0000
0000
0000
0000
0000
0000
0000
0000
0000
0000
0000
0000
0000
0000
0000
0000
0000
0000
0000
0000
0000
0000
0000
0000
0000
0000
0000
0000
0000
0000
0000
0000
0000
0000
0000
0000
0000
,
0000
0030
0000
0000
1000
0001
0000
0001
,
0000
0000
0000
0000
0000
0000
0000
0000
0000
0000
0000
0000
0000
0000
0000
0000
0000
0000
0000
0000
0000
0000
0000
0000
0000
0000
0000
0000
0000
0000
0000
0000
0000
0000
0000
0000
0000
0000
0000
0000
0000
0000
0000
0000
0000
0000
0000
0000
0020
0030
0000
0000
0000
0000
0000
0000
0000
0000
0000
0000
0000
0000
0000
0000
0000
0000
0000
0000
0000
0000
0000
0000
0000
0000
0000
0000
0000
0000
0000
0000
0000
0000
0000
0000
0000
0000
0000
0000
0000
0000
0000
0000
0000
0000
0000
0000
0010
0000
0000
0000
0000
0000
0000
0000
0000
0000
0000
0000
0000
0000
0000
0000
0000
0000
0000
0000
0000
0000
0000
0000
0000
0000
0000
0000
0000
0000
0000
0000
0000
0000
0000
0000
0000
0000
0000
0000
0000
0000
0000
0000
0000
0000
0000
0000
0220
0000
0000
0000
0000
0000
0000
0000
0000
0000
0000
0000
0000
0000
0000
0000
0000
0000
0000
0000
0000
0000
0000
0000
0000
0000
0000
0000
0000
0000
0000
0000
0000
0000
0000
0000
0000
0000
0000
0000
0000
0000
0000
0000
0000
0000
0000
0000
,
0000
0330
0000
0000
0000
1000
0000
1000
,
0000
0011
1000
0202
,
0000
0303
0000
0000
0001
1000
0000
1000
,
0000
0010
0001
2000
,
0000
0000
3000
1000
0000
1000
0000
0010
,
0000
1000
0000
0001
0000
0001
0000
0010
,
0000
0001
0000
0100
0000
0001
0000
1000
,
0000
0100
0000
0010
0000
0100
0000
0001
,
0000
1000
0000
0010
0000
0001
0000
1000
,
0000
0001
0000
0100
0000
0100
0000
0010
,
0000
0010
2000
0100
0000
0100
0000
0001
,
0000
0010
0000
0001
0000
0100
0000
3100
,
0000
0000
0000
0000
,
0011
0010
0001
0000
,
1000
0010
0100
0001
,
1001
1000
0100
0000
,
0001
0010
0100
1000
,
1001
1000
0001
0000
,
0000
0000
0000
0010
0000
0000
0001
0000
0010
0001
0000
0000
,
0000
2000
3100
0100
,
0010
0000
0001
0010
0000
0000
0100
0000
1000
0100
0000
0000
,
0020
0001
0031
0100
,
2000
0001
3001
0000
,
0002
1000
1003
0010
,
0200
1000
1300
0000
,
2000
0010
3010
0001
,
0200
0010
0310
0000
,
1000
0000
0100
1000
0000
0000
1000
0000
0000
0000
0000
0000
,
0001
0000
0000
0000
1000
0000
0001
0000
0000
0000
0000
0000
2002
0000
0000
0000
0000
0000
0000
0000
0000
3003
0000
0000
,
0000
0010
0000
0001
0000
0010
0000
1000
,
0000
0100
0000
0001
0000
0100
0000
1000
,
0000
0010
0000
0001
0000
0100
0000
1000
,
0000
0001
0000
0010
0000
0100
0000
1000
;

//---------------dance-single - ----------------
#NOTEDATA:;
#CHARTNAME:;
#STEPSTYPE:dance-single;
#DESCRIPTION:;
#CHARTSTYLE:;
#DIFFICULTY:Easy;
#METER:4;
#RADARVALUES:0.198806,0.235807,0.094494,0.317845,0.000000,162.000000,151.000000,11.000000,37.000000,0.000000,0.000000,0.000000,0.000000,0.000000,0.198806,0.235807,0.094494,0.317845,0.000000,162.000000,151.000000,11.000000,37.000000,0.000000,0.000000,0.000000,0.000000,0.000000;
#CREDIT:;
#NOTES:
0000
0000
0000
0000
,
0000
0000
0000
0000
,
0002
1000
1000
1003
,
0001
1000
0002
0203
,
0320
1000
1000
1030
,
0100
0010
2000
3002
,
0203
0010
0010
0310
,
0001
1000
0200
0320
,
0032
1000
1000
1003
,
0001
0010
0200
2300
,
3002
0000
0000
0000
,
0003
0010
0000
2000
0000
0000
0000
0000
,
0000
3000
0000
1000
0000
0000
0000
0100
,
0000
0000
0000
0020
0000
0000
0000
0000
,
0000
0000
0000
0031
0000
0000
0000
1000
,
0000
0000
0000
0001
0000
0000
0000
0100
,
0000
0000
0000
0010
0000
0000
0000
0100
,
0000
0000
0000
0002
0000
0000
0000
0000
,
0000
0000
0000
1003
0000
0000
0000
1001
,
0000
0000
0000
0200
0000
0000
0000
0000
,
0000
0000
0000
0310
0000
0000
0000
0110
,
0000
0000
0000
2000
0000
0000
0000
0000
,
0000
0000
0000
3100
0000
0000
0000
0010
,
0000
0000
0000
0001
0000
0001
0000
0001
,
0000
1000
0000
1000
0000
1000
0000
1001
,
0000
0000
0000
0000
0000
0100
0000
0100
,
0000
0110
0100
0010
,
0000
0000
0000
0000
0000
0001
0000
0001
,
0000
1001
0001
1000
,
0000
0000
0000
0000
0000
0010
0000
0010
,
0000
1000
0100
0010
,
0000
0000
0000
0000
0000
0001
0000
0001
,
0000
0001
0100
0010
,
0000
0020
0000
2030
,
0000
3002
0000
2003
,
0000
3200
0000
0320
,
0000
0032
0000
0023
,
0000
0230
0000
2300
,
0000
3002
0000
2003
,
0000
3020
0000
0230
,
0000
0302
0000
1003
,
0000
0000
0000
0000
,
1001
0000
0010
0000
,
0100
0001
0100
0000
,
0110
0000
1000
0000
,
0100
0010
0100
0000
,
1001
0000
0100
0000
,
0001
0010
0001
0000
,
0110
0000
0001
0000
,
0100
1000
0100
0000
,
0001
0010
0001
1000
,
0100
1000
0001
0000
,
1000
0010
0100
0010
,
1000
0001
0100
0000
,
1000
0100
0010
0100
,
0010
0100
1000
0000
,
1001
0000
0001
0000
,
1000
0001
1001
0000
,
0020
0000
0230
0000
,
0301
0001
1000
1000
,
0020
0000
0230
0000
,
0301
0000
0000
0000
;

//---------------dance-single - ----------------
#NOTEDATA:;
#CHARTNAME:;
#STEPSTYPE:dance-single;
#DESCRIPTION:;
#CHARTSTYLE:;
#DIFFICULTY:Beginner;
#METER:3;
#RADARVALUES:0.112902,0.157204,0.051542,0.188989,0.000000,92.000000,86.000000,6.000000,22.000000,0.000000,0.000000,0.000000,0.000000,0.000000,0.112902,0.157204,0.051542,0.188989,0.000000,92.000000,86.000000,6.000000,22.000000,0.000000,0.000000,0.000000,0.000000,0.000000;
#CREDIT:;
#NOTES:
0000
0000
0000
0000
,
0000
0000
0000
0000
,
0020
0000
0000
0030
,
0010
0010
0010
0000
,
2000
0000
3000
0000
,
0001
0000
1000
1000
,
1000
0000
0010
0000
,
1000
0000
0001
0001
,
0001
0000
0100
0000
,
0001
0000
1000
1000
,
2000
0000
0000
0000
,
3000
0000
0000
0020
0000
0000
0000
0000
,
0000
0000
0000
0030
0000
0000
0000
0000
,
0000
0000
0000
0020
0000
0000
0000
0000
,
0000
0000
0000
0030
0000
0000
0000
0000
,
0000
0000
0000
2000
0000
0000
0000
0000
,
0000
0000
0000
3000
0000
0000
0000
0000
,
0000
0000
0000
0002
0000
0000
0000
0000
,
0000
0000
0000
0003
0000
0000
0000
0000
,
0000
0000
0000
0200
0000
0000
0000
0300
,
0000
0000
0000
0100
0000
0000
0000
0100
,
0000
0000
0000
0020
0000
0000
0000
0000
,
0000
0000
0000
0030
0000
0000
0000
0010
,
0000
0000
0000
0110
0000
0000
0000
0000
,
0000
0000
0000
1000
0000
0000
0000
0002
,
0000
0003
0000
0100
,
0000
0100
0000
0100
,
0000
0001
0000
0010
,
0000
0010
0000
0010
,
0000
0001
0000
0100
,
0000
0100
0000
0100
,
0000
0010
0000
1000
,
0000
1000
0000
1000
,
0000
0002
0000
0003
,
0000
2000
0000
3000
,
0000
0020
0000
0030
,
0000
0200
0000
0300
,
0000
0002
0000
0003
,
0000
2000
0000
3000
,
0000
0020
0000
0030
,
0000
0200
0000
0000
,
0000
0000
0000
0000
,
0310
0000
0010
0000
,
0010
0000
1000
0000
,
0100
0000
0100
0000
,
0100
0000
1000
0000
,
0010
0000
0010
0000
,
0010
0000
1000
0000
,
0001
0000
1000
0000
,
0001
0000
0001
0000
,
1001
0000
0000
0000
,
0010
0000
0010
0000
,
0110
0000
0000
0000
,
0100
0000
0100
0000
,
0110
0000
0000
0000
,
1000
0000
1000
0000
,
1001
0000
0000
0000
,
1000
0000
1000
0000
,
2002
0000
3003
0000
,
0200
0000
0300
0000
,
0020
0000
0030
0000
,
0100
0000
0000
0000
;

//---------------dance-single - ----------------
#NOTEDATA:;
#CHARTNAME:;
#STEPSTYPE:dance-single;
#DESCRIPTION:;
#CHARTSTYLE:;
#DIFFICULTY:Hard;
#METER:9;
#RADARVALUES:0.369387,0.504955,0.231941,0.377978,0.073018,301.000000,274.000000,27.000000,44.000000,0.000000,0.000000,0.000000,0.000000,0.000000,0.369387,0.504955,0.231941,0.377978,0.073018,301.000000,274.000000,27.000000,44.000000,0.000000,0.000000,0.000000,0.000000,0.000000;
#CREDIT:;
#NOTES:
// measure 0
0000
0000
0000
0000
,  // measure 1
0000
0000
0000
0000
,  // measure 2
0011
0001
1000
0000
1010
1000
0001
0000
,  // measure 3
0101
0001
1000
0000
0010
1000
0001
0100
,  // measure 4
0010
1000
0010
0000
0100
0001
0100
0000
,  // measure 5
0010
1000
0100
0001
0100
1000
0010
0000
,  // measure 6
0110
0100
0001
0000
0101
0001
0100
0000
,  // measure 7
0110
0010
1000
0000
1010
1000
0001
0001
,  // measure 8
1001
0000
1000
0000
0010
0010
1100
0000
,  // measure 9
0100
0100
0011
0000
0100
1000
0100
0000
,  // measure 10
0201
0000
0000
0000
,  // measure 11
1300
0001
0000
0201
0000
0000
0000
0000
,  // measure 12
0000
0000
0000
0310
0000
1000
0000
0001
,  // measure 13
0000
1000
0000
1020
0000
0000
0000
0000
,  // measure 14
0000
0000
0000
0130
0000
0001
0000
0100
,  // measure 15
0000
0010
0000
2000
0000
0000
0000
0000
,  // measure 16
0000
0000
0000
0001
0000
0001
0000
0100
,  // measure 17
0000
3100
0000
0012
0000
0000
0000
0000
,  // measure 18
0000
0000
0000
1000
0000
0000
0000
0013
,  // measure 19
0000
0001
0000
2000
0000
0000
0000
0001
,  // measure 20
0000
0010
0000
0001
0000
0100
0000
3001
,  // measure 21
0000
0100
0000
0002
0000
1000
0000
1003
,  // measure 22
0000
0000
0000
0020
0000
0100
0000
0130
,  // measure 23
0000
0000
0000
0000
0000
0000
0000
0000
0000
0001
0000
0000
0000
0001
0000
1000
0000
0000
0000
1000
0000
0010
0000
0000
,  // measure 24
0000
0000
0000
0100
0000
0000
0000
0010
0000
0100
0000
0000
0000
0001
0000
1000
0000
0000
0000
0000
0000
1001
0000
0000
,  // measure 25
0000
0000
1001
0000
0000
0100
0000
0100
,  // measure 26
0000
1010
0100
0011
,  // measure 27
0000
0000
0000
0000
0000
0010
0000
0010
,  // measure 28
0000
1100
0010
0101
,  // measure 29
0000
0000
0000
0000
0000
0001
0000
0010
,  // measure 30
0000
1000
0100
0001
,  // measure 31
0000
0000
0000
0000
1000
0001
0000
0001
,  // measure 32
0000
0110
1000
0100
,  // measure 33
0000
0000
0002
0013
2000
3100
0002
0103
,  // measure 34
2000
3010
0200
0310
2000
3010
0200
0310
,  // measure 35
2000
3001
0002
1003
2000
3010
0200
0301
,  // measure 36
0020
0031
2000
3100
0020
0130
2000
3001
,  // measure 37
0020
0130
2000
3001
0020
0031
0200
0301
,  // measure 38
2000
3010
0200
0301
0200
0310
2000
3010
,  // measure 39
2000
3100
0020
0130
2000
3100
0020
0031
,  // measure 40
2000
3010
0200
0301
2000
3100
0020
0031
,  // measure 41
0022
0000
0000
0033
,  // measure 42
0011
0100
1000
0100
,  // measure 43
0000
0000
0000
0001
0000
0000
1000
0000
0100
1000
0000
0000
,  // measure 44
1100
0010
0001
1000
,  // measure 45
0000
0000
0000
0010
0000
0000
1000
0000
1000
0001
0000
0000
,  // measure 46
0001
0100
1000
0100
,  // measure 47
0000
0000
0000
0001
0000
0000
0010
0000
0100
1000
0000
0000
,  // measure 48
0001
1000
0100
1000
,  // measure 49
0010
0000
0100
0010
0000
0000
0110
0000
0000
0000
0000
0000
,  // measure 50
1001
0100
0001
0100
,  // measure 51
0000
0000
0000
0001
0000
0000
1000
0000
1000
0100
0000
0000
,  // measure 52
1001
0010
0001
0010
,  // measure 53
0000
0000
0000
1000
0000
0000
0001
0000
0010
0001
0000
0000
,  // measure 54
0001
0000
0000
0001
0000
0000
0020
0000
0000
0000
0000
0130
,  // measure 55
0000
0000
1000
0100
0000
0000
0010
0000
0100
1000
0000
0000
,  // measure 56
1000
0001
0100
0010
,  // measure 57
1000
0000
0100
1000
0000
0200
2000
0000
0000
0000
0000
0000
,  // measure 58
3300
0000
0000
0001
0000
0001
0010
0000
0000
0001
0000
0000
0000
0000
0000
1000
0000
1000
0010
0000
0000
1000
0000
0000
,  // measure 59
0000
0001
0100
0001
1000
0100
1000
0010
,  // measure 60
0000
0100
0010
1000
0000
0100
1000
0010
,  // measure 61
0000
0100
0001
0010
0000
0100
0010
0001
;
