#TITLE:Circles of Death;
#SUBTITLE:;
#ARTIST:Camellia;
#TITLETRANSLIT:;
#SUBTITLETRANSLIT:;
#ARTISTTRANSLIT:;
#GENRE:;
#CREDIT:;
#BANNER:banner.png;
#BACKGROUND:bg.png;
#LYRICSPATH:;
#CDTITLE:;
#MUSIC:CirclesOfDeath(edit).ogg;
#OFFSET:0.000000;
#SAMPLESTART:22.812937;
#SAMPLELENGTH:19.218752;
#SELECTABLE:YES;
#DISPLAYBPM:200.000000;
#BPMS:0.000000=200.000000
,11.500000=400.000000
,19.500000=200.000000
,80.000000=100.000000
,81.375000=400.000000
,84.000000=200.000000
,144.000000=100.000000
,145.250000=400.000000
,148.000000=200.000000
,204.000000=400.000000
,212.000000=200.000000
,216.000000=100.000000
;
#STOPS:
;
#BGCHANGES:;
#KEYSOUNDS:;
#ATTACKS:;

//---------------dance-single - ----------------
#NOTES:
     dance-single:
     :
     Challenge:
     13:
     1.084087,1.378597,0.535666,0.699342,1.175490,510.000000,474.000000,36.000000,47.000000,51.000000,4.000000,1.084087,1.378597,0.535666,0.699342,1.175490,510.000000,474.000000,36.000000,47.000000,51.000000,4.000000:
0000
0000
0000
0000
,
0000
0000
0000
0000
,
0000
0000
0000
0000
0000
0000
0000
MMMM
,
0000
0000
M000
000M
0M00
00M0
M000
000M
,
0M00
00M0
M000
000M
0M00
00M0
M000
0000
,
0001
0100
0001
0100
0010
0100
0010
1000
0010
1000
0001
0010
0001
0010
0100
0010
,
0001
0000
0200
0300
0000
0000
0200
0300
0000
0000
0200
0300
0000
0000
0200
0300
,
0010
0100
0010
0100
0001
0100
0001
1000
0100
1000
0100
1000
0100
0010
0001
0010
,
0100
0000
0200
0300
0000
0000
0200
0300
0000
0000
0200
0300
0000
0000
0200
0300
,
0100
1000
0100
1000
0001
1000
0001
1000
0010
0100
0010
0100
0010
1000
0010
1000
,
0001
0000
0020
0030
0000
0000
0020
0030
0000
0000
0020
0030
0000
0000
0020
0030
,
0100
0010
0100
0010
0001
0010
0001
1000
0010
1000
0010
1000
0001
0100
0001
0100
,
0010
0000
0020
0030
0000
0000
0020
0030
0000
0000
0020
0030
0000
0000
0020
0030
,
0010
1000
0010
0001
0010
1000
0100
0010
,
1000
0010
0001
1000
0010
0100
0001
0010
,
0100
0000
1000
0000
0010
M000
0010
0000
0001
0000
0100
0000
0010
0000
1000
0000
,
0100
M000
0100
0000
0001
0000
1000
0000
0100
0000
0010
0000
0001
0000
0001
0000
,
1000
0010
1000
0010
1000
0001
1000
0001
0100
0001
0100
0010
0100
0010
1000
0010
,
1000
0001
1000
0001
0010
0001
0010
0100
0010
0100
0010
0001
0010
0001
1000
0001
,
1000
0010
1000
0010
0100
0010
0100
0001
0100
0010
1000
0001
0100
0010
1000
0001
,
0200
0000
0000
0000
,
0311
0000
1000
0000
0101
0000
1000
0000
0011
0000
1000
0000
0101
1000
0001
1000
,
0001
1000
0100
1000
0100
0010
0100
0010
0001
1000
0001
1000
0010
0100
0002
0000
,
1103
0000
0001
0000
1010
0000
0001
0000
1100
0000
0001
0000
1010
0001
1000
0001
,
1000
0001
0010
0001
1000
0001
0100
0010
1100
0000
1100
0000
0004
0000
0000
0000
,
2203
0000
0000
0000
0300
0000
0001
0000
3001
0000
0000
0000
1000
0001
1000
0001
,
1000
0100
0010
0100
1000
0001
0100
0010
0100
0001
1000
0010
1000
0001
1000
0100
,
1000
0000
0001
0100
0001
0000
1000
0000
0001
0000
0010
0000
0400
0000
1000
0000
,
0010
1000
0010
1000
0010
1300
0100
0100
,
1001
0000
1001
0000
1001
0000
4000
3000
0100
0000
0004
0003
0100
0001
0100
0001
,
0100
0001
0100
0010
0100
0010
0001
0010
0001
1000
0001
1000
0010
0100
0001
0100
,
0022
0033
2200
3300
0022
0033
2200
3300
0010
0000
0100
0000
0010
0001
0010
0001
,
0010
0001
0010
0001
0010
0100
0001
0100
0022
0033
2200
3300
0022
0000
0033
0000
,
4004
0000
0000
0000
0000
0000
0000
0000
0000
0000
0000
0000
0000
0000
0000
3003
,
1000
0001
1000
0001
0100
0010
0100
0010
1000
0001
1000
0001
0100
0010
0100
0010
,
2200
0000
0000
3300
0002
0000
0000
0000
2023
0000
0000
3030
0002
0000
0000
0000
,
0MM3
0000
00M0
0M00
00M0
0M00
00M0
0M00
,
10M1
0000
0001
0000
0101
0000
0100
0000
0110
0000
0010
0000
0001
0010
0001
0010
,
0100
0010
0100
1000
0100
1000
0100
0010
0001
0010
0001
0010
0100
0010
0100
0001
,
2000
0000
0001
0000
0100
0000
0001
0000
3100
0000
0010
0000
0100
0001
0100
0001
,
0100
0010
0100
0010
1000
0010
1000
0010
0100
0010
0100
0001
1000
0000
0001
0000
,
0100
0000
1000
0000
0010
0000
0100
0000
0001
0000
1000
0000
0001
1000
0001
1000
,
0010
1000
0010
0100
0001
0100
0001
1000
0100
0010
0100
0010
0001
1000
0010
0100
,
0002
0000
0000
0000
0003
0000
0101
0000
0101
0000
0100
0000
0001
1000
0100
1000
,
020M
0000
0000
0000
2300
0000
0000
0000
3002
0000
0000
0000
0403
0000
00M0
0300
,
1001
0000
0110
0000
1001
0000
1000
0000
0001
0000
0001
0000
0010
0100
0010
0100
,
0010
1000
0010
0000
0100
0000
1000
0000
0010
0000
0100
0000
0011
0000
1100
0000
,
0000
0001
1000
0000
0001
0000
0010
0000
1000
0000
0010
0000
0100
0000
1200
0000
,
1000
1000
1300
1000
0001
0001
0002
0003
,
1000
0001
1000
0001
0100
0001
0100
0010
0100
0001
1000
0100
0010
0100
0010
0001
,
1000
0001
1000
0010
1000
0010
0100
0001
0100
0001
1000
0100
0010
0001
1000
0001
,
4MM4
0000
0M00
00M0
0M00
00M0
0M00
00M0
,
0M00
00M0
0M00
00M0
0M00
00M0
0M00
00M0
,
0000
0000
0000
3003
,
MMMM
0000
00M0
0000
;

//---------------dance-single - ----------------
#NOTES:
     dance-single:
     :
     Hard:
     12:
     0.977804,1.338050,0.654703,0.595185,0.840699,460.000000,416.000000,44.000000,40.000000,62.000000,5.000000,0.977804,1.338050,0.654703,0.595185,0.840699,460.000000,416.000000,44.000000,40.000000,62.000000,5.000000:
0000
0000
0000
0000
,
0000
0000
0000
0000
,
0000
0000
0000
0000
0000
0000
0000
MMMM
,
0000
M000
000M
0M00
00M0
0M00
000M
M000
,
0M00
00M0
0M00
000M
M000
00M0
0M00
0000
,
0001
0100
0001
0100
0001
0000
1000
0000
0100
0010
0100
0010
0100
0000
1000
0000
,
0001
0000
0002
0003
0000
0000
0002
0003
0000
0000
0002
0003
0000
0000
0002
0003
,
0100
0001
0100
0001
0100
0000
0010
0000
1000
0010
1000
0010
1000
0000
0001
0000
,
0010
0000
0020
0030
0000
0000
0020
0030
0000
0000
0020
0030
0000
0000
0020
0030
,
0100
0010
0100
0010
0100
0000
1000
0000
0001
1000
0001
1000
0001
0000
0100
0000
,
0010
0000
0020
0030
0000
0000
0020
0030
0000
0000
0020
0030
0000
0000
0020
0030
,
0100
0001
0100
0001
0100
0000
0010
0000
1000
0100
1000
0100
1000
0000
0001
0000
,
0100
0000
0200
0300
0000
0000
0200
0300
0000
0000
0200
0300
0000
0000
0200
0300
,
0100
0001
1000
0100
0010
0001
1000
0010
,
0100
0001
1000
0100
0001
0100
1000
0010
,
0100
0000
0001
0000
0100
000M
0100
0000
1000
0000
0100
0000
1000
0000
0001
0000
,
0100
000M
0100
0000
1000
0000
0100
0000
0010
0000
0001
0000
1000
0000
0010
0000
,
0100
0100
0100
0100
0001
0001
0001
0001
,
1000
1000
1000
1000
0100
0100
0100
0100
,
1000
0100
1000
0100
0010
0100
0010
0100
0010
0001
0010
0001
1000
0001
1000
0001
,
2000
0000
0000
0000
,
3011
0000
1000
0000
0011
0000
0100
0000
0011
0000
1000
0000
0010
1000
0010
1000
,
0001
0100
0001
0100
0010
1000
0001
1000
0001
0010
0001
0010
0001
0010
0100
0010
,
0200
0000
0000
0000
1310
0000
0100
0000
1010
0000
0001
0000
1000
0001
1000
0001
,
0100
0001
0100
0010
0100
0010
1000
0000
0011
0000
1100
0000
0000
MMMM
0000
0000
,
2002
0000
0000
0000
3003
0000
0110
0000
0110
0000
0000
0000
0001
1000
0001
1000
,
0001
0100
0001
0100
0001
1000
0100
1000
0100
0010
0100
0010
0100
0010
0001
0010
,
0001
0000
0010
0100
1000
0000
0100
0000
1010
0000
0100
0000
1010
0000
0001
0000
,
2000
0001
0001
0001
0001
3002
0203
0300
,
0011
0011
0011
1100
0011
1100
0011
1100
,
0001
0100
0001
0100
0001
1000
0001
1000
0100
1000
0100
0010
0100
0010
0100
0010
,
0001
0000
1010
0000
0101
0000
1010
0000
0101
0000
1010
0000
0100
0010
0100
0010
,
0100
0010
0001
0010
0001
1000
0001
1000
0010
0000
0010
0000
0010
0000
0000
0000
,
0220
0000
0000
0000
0000
0000
0000
0330
,
0010
0100
0010
0100
0010
0100
0010
0100
0010
0100
0010
0100
0010
0100
0010
0100
,
0220
0330
2002
3003
,
MMMM
0000
0M00
00M0
0M00
00M0
0M00
00M0
,
1M01
1000
1010
0010
0110
0100
0101
0001
,
1000
0100
1000
0100
0010
0100
0010
0001
0010
0001
1000
0001
1000
0020
0000
0000
,
0000
0000
0000
0000
0030
0000
0100
0000
0011
0000
0100
0000
0001
0100
0001
0100
,
0010
0100
0010
1000
0010
1000
0001
1000
0100
0010
0200
0000
1000
0000
1000
0000
,
0300
0000
1000
0100
0010
0000
0011
0000
0010
0000
0100
0000
1100
0000
1000
0000
,
0010
0100
0101
0001
0010
0100
0110
0010
,
0200
0000
0000
0300
0000
0000
1100
0000
1100
0000
0000
0000
1000
0100
1000
0001
,
0200
0300
0002
0003
0200
0300
0002
0003
,
1002
0000
1000
0000
1003
0000
0001
0010
0100
1000
0100
0010
0001
0000
0100
0000
,
0001
0010
0100
0000
0100
0000
1000
0000
0001
0000
0100
0000
0022
0000
0033
0000
,
0100
0000
0000
0001
0100
0000
0001
0000
1000
0000
0100
0000
0010
0000
0100
0000
,
1000
0001
0100
0020
1100
1100
1100
0030
,
1000
0010
1000
0010
0100
0010
0100
0001
0100
0001
1000
0001
1000
0100
1000
0100
,
0010
0100
0010
0001
0010
0100
1000
0001
0100
0010
0100
0001
1000
0100
0010
0004
,
4M00
00M0
0M00
00M0
0M00
00M0
0M00
00M0
,
0M00
00M0
0M00
00M0
0M00
00M0
0M00
00M0
,
0M00
00M0
0M00
00M0
0M00
30M3
0000
0000
,
MMMM
0000
000M
0000
;

//---------------dance-single - ----------------
#NOTES:
     dance-single:
     :
     Medium:
     11:
     0.856641,1.094768,0.669583,0.431509,0.453829,403.000000,358.000000,45.000000,29.000000,36.000000,9.000000,0.856641,1.094768,0.669583,0.431509,0.453829,403.000000,358.000000,45.000000,29.000000,36.000000,9.000000:
0000
0000
0000
0000
,
0000
0000
0000
0000
,
0000
0000
0000
0000
0000
0000
0000
MMMM
,
0000
M000
000M
0M00
00M0
0M00
000M
M000
,
0M00
00M0
0M00
000M
M000
00M0
0M00
0000
,
1000
0100
1000
0000
0001
1000
0001
0000
0100
0010
0100
0000
0010
1000
0010
0000
,
1000
0400
0300
0400
0300
0400
0300
0400
,
0310
0001
0010
0000
0100
0010
0100
0000
1000
0100
1000
0000
0001
1000
0001
0000
,
0100
0400
0300
0400
0300
0400
0300
0400
,
0301
0100
0001
0000
1000
0001
1000
0000
0010
1000
0010
0000
0100
0010
0100
0000
,
0001
0040
0030
0040
0030
0040
0030
0040
,
0130
1000
0100
0000
1000
0001
1000
0000
0001
0100
0001
0000
0100
0010
0100
0000
,
0010
0040
0030
0040
0030
0040
0030
0040
,
1030
0001
0010
0100
1000
0001
0100
0010
,
1000
0001
0100
0010
1000
0001
0010
0100
,
1000
0010
0100
0001
0100
0010
1000
0100
,
0010
0001
0100
0001
0010
0100
1000
0010
,
1000
0100
0001
0100
1000
0001
0010
1000
,
0010
0001
1000
0010
0100
1000
0100
0001
,
4000
0004
0000
0000
0000
0000
0000
0000
0000
0000
0000
0000
0000
0000
3003
0000
,
2002
0000
0000
0003
0000
0000
0000
0000
,
3011
0000
1000
0000
0011
0000
1000
0000
0011
0000
1000
0000
0001
0000
0100
0100
,
1000
0000
0100
0100
0001
0000
0100
0100
1000
0000
0100
0100
0001
0000
0100
0100
,
1000
0000
0001
0000
1010
0000
0001
0000
1010
0000
0001
0000
1010
0000
0001
1000
,
0001
1000
0001
1000
0001
1000
0001
0000
2000
3000
2000
3000
0002
0000
0000
0000
,
1010
0000
0003
0000
0000
0000
1001
0000
1001
0000
0000
0000
1000
0000
0100
0100
,
0001
0000
0100
0100
1000
0000
0100
0100
0001
0000
0100
0100
1000
0000
0100
0000
,
1000
0001
1000
0000
0001
0000
0100
0000
0010
0000
1000
0000
0001
0000
0020
0000
,
0100
0001
0100
0001
,
0100
0100
0230
1300
0011
1000
0011
1000
,
0101
1000
0101
1000
0011
1000
0001
0001
,
1010
0001
1010
0001
1100
0001
1100
0001
,
1010
0100
1010
0100
2020
3232
2020
3333
,
4004
0000
0000
0000
0000
0000
0000
3003
,
1000
0000
0001
0000
1000
0000
0001
0000
1000
0001
1000
0001
1000
0001
1000
0001
,
2000
0000
3002
0000
,
0203
0000
0000
0000
,
0311
1000
0011
0100
0011
1000
0101
0010
,
0101
0000
1000
0000
0101
0000
0010
0000
0101
0000
1000
0000
0001
1000
0100
1000
,
0002
0003
1100
0001
1100
0001
1010
0100
,
1010
0000
0100
0000
1000
0100
0010
0001
1000
0100
0010
0000
2000
0000
3020
0000
,
0000
0030
0100
0010
0001
0000
1000
0000
1010
0000
0010
0000
0100
0000
0001
0000
,
0101
0100
0010
1000
1010
0010
0100
0001
,
2002
0000
0000
0000
3003
0000
0001
1000
0001
0000
0100
0000
0010
0000
0001
0000
,
0M20
0030
2000
3000
0002
0003
0020
0030
,
010M
0100
0100
1000
0001
0100
0010
0100
,
0001
0100
0001
0000
1000
0000
0100
0000
0010
0100
1000
0100
0020
0000
0232
0000
,
0303
0010
0000
0100
1000
0000
0001
0000
1000
0000
0010
0000
0100
0000
0001
0000
,
1000
1000
1000
2000
0101
0101
3101
0000
,
1000
0001
0100
0001
1000
0100
1000
0001
,
0100
0001
1000
0100
1000
0001
0100
0001
1000
0100
1000
0001
0100
0001
1000
0100
,
4004
0000
0000
0000
,
0000
0000
0000
0000
,
0MM0
0000
0M00
00M0
0000
0000
0M00
00M0
3M03
00M0
0000
0M00
00M0
0M00
00M0
0M00
,
M00M
0000
000M
0000
;

//---------------dance-single - ----------------
#NOTES:
     dance-single:
     :
     Easy:
     10:
     0.763112,1.044550,0.416629,0.669583,0.379430,359.000000,331.000000,28.000000,45.000000,55.000000,0.000000,0.763112,1.044550,0.416629,0.669583,0.379430,359.000000,331.000000,28.000000,45.000000,55.000000,0.000000:
0000
0000
0000
0000
,
0000
0000
0000
0000
,
0000
0000
0000
0000
0000
0000
0000
0MM0
,
0000
0M00
00M0
0M00
00M0
0M00
00M0
0M00
,
00M0
0000
0M00
00M0
0M00
00M0
0M00
00M0
0M00
0000
0000
0000
0000
0000
0000
0000
,
0001
0000
1000
0000
0100
0010
0100
0000
1000
0000
0001
0100
0001
0000
0200
0300
,
0000
0000
0200
0300
0000
0000
0200
0300
0000
0000
0200
0300
0000
0000
0200
0300
,
0010
0000
1000
0000
0001
0010
0001
0000
1000
0000
0010
0100
0010
0000
2000
3000
,
0000
0000
2000
3000
0000
0000
2000
3000
0000
0000
2000
3000
0000
0000
2000
3000
,
0001
0000
1000
0000
0001
0010
0001
0000
0010
0000
0100
1000
0100
0000
0200
0300
,
0000
0000
0200
0300
0000
0000
0200
0300
0000
0000
0200
0300
0000
0000
0200
0300
,
0010
0000
0001
0000
0010
0100
1000
0000
0001
0000
1000
0100
0010
0000
0200
0300
,
0000
0000
0200
0300
0000
0000
0200
0300
0000
0000
0200
0300
0000
0000
0200
0300
,
1000
0100
0010
1000
0010
0001
1000
0010
,
0001
0010
0100
0001
0010
0100
1000
0010
,
0001
1000
0100
0001
0010
1000
0001
0100
,
0010
0001
1000
0010
0001
1000
0001
1000
,
0100
0001
0010
1000
0001
1000
0001
0100
,
0010
0001
1000
0001
0100
0010
0100
0001
,
4004
0000
0000
0000
,
3003
0000
0000
0000
,
1001
0001
0011
0010
0110
0100
1100
1000
,
1000
0100
0010
0000
0100
1000
0010
0000
1000
0100
0010
0000
0100
1000
0010
0000
,
0220
0000
0000
0000
0330
0000
1001
0000
1001
0000
0000
0000
0001
0100
0010
0000
,
0100
0001
0010
0000
0001
0100
0020
0000
0100
0000
0200
0000
0000
0000
0330
0000
,
0220
0000
0330
0000
0000
0000
0101
0000
0101
0000
0000
0000
0001
0010
0100
0000
,
1000
0010
0100
0000
0010
1000
0100
0000
0010
0001
0100
0000
0001
0010
0100
0000
,
1000
0100
1000
0000
0100
0000
0010
0000
0001
0000
1000
0000
0001
0000
0020
0000
,
0100
0000
0001
0000
0100
0000
0001
0030
,
0100
0100
0100
1000
0101
1000
0101
1000
,
0101
1000
0101
1000
0101
1000
0002
0100
,
0103
0001
1100
0001
1100
0001
1100
0001
,
1100
0001
1100
0000
1001
1001
1001
0000
,
2002
0000
0000
0000
0000
0000
0000
3003
,
1000
0000
0100
0000
1000
0000
0100
0000
1000
0100
1000
0100
1000
0100
1000
0100
,
2000
0000
0000
3000
0200
0000
0000
0300
,
20MM
0000
0000
000M
0000
00M0
000M
0000
,
31MM
0000
1000
0000
0100
M000
0100
0000
0001
0000
0010
000M
0010
0000
1000
0000
,
0010
1000
0100
0000
0010
0001
0100
0000
0010
1000
0100
0000
0020
0000
0000
0000
,
0130
0000
0000
0000
1000
0000
0100
M000
0100
0000
0001
0000
0010
0001
0100
0000
,
0010
1000
0100
0000
1000
0010
0100
0000
0010
0100
0001
0000
0020
0000
0230
0000
,
0300
0000
1000
0100
1000
0000
0100
0000
1000
0000
0001
0000
1001
0000
1000
0000
,
0100
0010
0110
0100
1000
0001
0101
0100
,
0020
0000
0030
0010
0010
0100
0001
1000
,
0200
0320
0032
4003
,
3100
0100
0100
0010
0001
1000
0010
0100
,
0010
0100
0010
0000
0100
0000
0001
0000
0010
0000
0100
0000
0002
0003
2000
3000
,
0000
0010
0000
0000
0100
0000
1000
0000
0001
0000
0100
0000
0010
0000
1000
0000
,
0001
0010
0100
2000
0010
0010
0010
3000
,
0010
0100
1000
0100
0001
0010
1000
0010
,
0001
0000
0100
0000
0001
0000
0100
0000
0001
0100
0001
0100
0001
0100
0001
0200
,
0002
0000
M000
0000
00M0
0000
0000
0000
M000
0000
00M0
0000
M000
0000
0000
00M0
,
0000
0000
M000
0000
00M0
0000
M000
0000
00M0
0000
M000
0000
00M0
M000
00M0
0000
,
M000
0000
0000
00M0
0000
0000
M000
0000
03M3
0000
M000
00M0
M000
00M0
M000
00M0
,
MMMM
0000
0000
0000
;

//---------------dance-single - ----------------
#NOTES:
     dance-single:
     :
     Beginner:
     9:
     0.658955,0.763325,0.029759,0.580305,0.252954,310.000000,308.000000,2.000000,39.000000,86.000000,0.000000,0.658955,0.763325,0.029759,0.580305,0.252954,310.000000,308.000000,2.000000,39.000000,86.000000,0.000000:
// measure 0
0000
0000
0000
0000
,  // measure 1
0000
0000
0000
0000
,  // measure 2
0000
0000
0000
0000
,  // measure 3
0MM0
0000
0M00
0000
00M0
0000
0M00
00M0
,  // measure 4
0M00
0000
00M0
0000
0M00
0000
00M0
0000
0M00
00M0
0M00
00M0
0M00
00M0
0M00
0000
,  // measure 5
0001
1000
0100
0010
0100
1000
0001
0100
,  // measure 6
0010
0020
0030
0020
0030
0020
0030
0020
,  // measure 7
0130
0001
1000
0100
0010
0001
1000
0010
,  // measure 8
0100
0200
0300
0200
0300
0200
0300
0200
,  // measure 9
0310
1000
0100
0001
0100
0010
0001
1000
,  // measure 10
0010
0020
0030
0020
0030
0020
0030
0020
,  // measure 11
0130
0001
0010
1000
0010
0100
1000
0001
,  // measure 12
0100
0200
0300
0200
0300
0200
0300
0200
,  // measure 13
0310
0100
0001
0100
0010
0100
0001
0100
,  // measure 14
0010
1000
0010
0100
0010
1000
0010
0100
,  // measure 15
0001
1000
0100
0010
0100
1000
0001
0100
,  // measure 16
0010
0100
0001
1000
0100
0010
0100
1000
,  // measure 17
0010
0100
0001
0010
0100
1000
0010
0100
,  // measure 18
0001
0010
0100
1000
0010
0100
0001
1000
,  // measure 19
2002
0000
0000
0000
,  // measure 20
3003
0000
00M0
0000
000M
0000
0M0M
0000
00M0
0M00
00M0
0M00
00MM
0M00
00M0
0M00
,  // measure 21
10M0
0000
0001
0000
0100
M000
0100
0000
1000
0000
0001
0000
0100
M000
0100
0000
,  // measure 22
1000
0000
0001
0000
0100
M000
0100
0000
1000
0000
0001
0000
0100
M000
0100
0000
,  // measure 23
2000
0000
0000
0000
0000
0000
0100
0000
3100
0000
1000
0000
0100
000M
0100
0000
,  // measure 24
0001
0000
1000
0000
0100
000M
0100
0000
0001
0000
1000
0000
0200
0000
0000
0000
,  // measure 25
2300
0000
0000
0100
3100
0010
0001
1000
,  // measure 26
0010
0100
0010
0001
0010
0100
0001
1000
,  // measure 27
0100
0010
1000
0001
0100
0010
0001
1000
,  // measure 28
0002
0023
0230
2300
,  // measure 29
3001
0000
1000
0000
0001
0000
1000
0000
0010
000M
0010
0000
0001
0000
1000
0000
,  // measure 30
0010
000M
0010
0000
0001
0000
1000
0000
0010
000M
0010
0000
0001
0000
1000
0000
,  // measure 31
0001
0000
0001
0000
1000
0000
0001
0000
0010
M000
0010
0000
1000
0000
0001
0000
,  // measure 32
0010
M000
0010
0000
1000
0000
0001
0000
0010
0000
M010
0000
0010
0000
0000
0000
,  // measure 33
2002
0000
0000
0000
0000
0000
0000
3003
,  // measure 34
1000
0000
0001
0000
0100
0000
0001
0000
0100
0000
0001
0000
0100
0001
0100
0001
,  // measure 35
0200
0000
0000
0000
0302
0000
0000
0003
,  // measure 36
0MMM
0000
0M00
0000
00M0
0000
000M
0000
0M00
0000
00M0
000M
0M00
00M0
000M
0M00
,  // measure 37
10M0
0000
0100
0000
0010
0000
0100
0000
1000
0000
0001
0000
0010
M000
0010
0000
,  // measure 38
1000
0000
0010
000M
0010
0000
0001
0000
0010
M000
0010
0000
2000
0000
0000
0000
,  // measure 39
3001
0000
1000
0000
0100
000M
0100
0000
0001
0000
0100
M000
0100
0000
1000
0000
,  // measure 40
0100
000M
0100
0000
0001
0000
0010
0000
0100
0000
1000
0000
0020
0000
0002
0030
,  // measure 41
0003
0000
0010
0100
0010
0000
1000
0000
0100
0000
0001
0000
0100
0000
0010
0000
,  // measure 42
0001
1000
0010
0100
1000
0100
0010
1000
,  // measure 43
0002
0000
1003
0100
0001
1000
0010
0100
,  // measure 44
0020
0032
2003
3020
,  // measure 45
1030
1000
1000
0001
0100
1000
0100
0010
,  // measure 46
1000
0001
0010
0100
0001
0100
0010
0001
,  // measure 47
0000
0010
0001
1000
0010
0001
1000
0100
,  // measure 48
0010
1000
0100
0001
1000
0001
1000
0010
,  // measure 49
0100
1000
0100
0001
0100
1000
0010
0001
,  // measure 50
0010
0000
1000
0000
0010
0000
1000
0000
0010
0000
1000
0000
0010
1000
0010
2000
,  // measure 51
0020
000M
0M00
000M
,  // measure 52
0M00
0000
0000
0000
000M
0000
0M00
0000
000M
0000
0M00
0000
000M
0M00
000M
0M00
,  // measure 53
000M
0M00
000M
0M00
303M
0M00
000M
0000
,  // measure 54
MMMM
0000
0000
0000
;
