#VERSION:0.83;
#TITLE:Cheatreal;
#SUBTITLE:;
#ARTIST:t+pazolite;
#TITLETRANSLIT:;
#SUBTITLETRANSLIT:;
#ARTISTTRANSLIT:;
#GENRE:;
#ORIGIN:;
#CREDIT:;
#BANNER:cheatreal-bn.png;
#BACKGROUND:cheatreal-bg.png;
#PREVIEWVID:;
#JACKET:;
#CDIMAGE:;
#DISCIMAGE:;
#LYRICSPATH:;
#CDTITLE:;
#MUSIC:cheatreal.ogg;
#OFFSET:0.000000;
#SAMPLESTART:0.000000;
#SAMPLELENGTH:12.000000;
#SELECTABLE:YES;
#BPMS:0.000=200.000,
199.000=400.000,
328.000=100.000,
360.000=200.000;
#STOPS:199.000=0.150;
#DELAYS:;
#WARPS:;
#TIMESIGNATURES:0.000=4=4;
#TICKCOUNTS:0.000=4;
#COMBOS:0.000=1;
#SPEEDS:0.000=1.000=0.000=0;
#SCROLLS:0.000=1.000;
#FAKES:;
#LABELS:0.000=Song Start;
#BGCHANGES:;
#KEYSOUNDS:;
#ATTACKS:
;

//---------------dance-single - ----------------
#NOTEDATA:;
#CHARTNAME:;
#STEPSTYPE:dance-single;
#DESCRIPTION:;
#CHARTSTYLE:Pad;
#DIFFICULTY:Challenge;
#METER:19;
#RADARVALUES:0.963434,1.648922,0.727666,0.427597,0.795181,899.000000,802.000000,97.000000,57.000000,0.000000,0.000000,0.000000,0.000000,0.000000,0.963434,1.648922,0.727666,0.427597,0.795181,899.000000,802.000000,97.000000,57.000000,0.000000,0.000000,0.000000,0.000000,0.000000;
#CREDIT:Mozata;
#NOTES:
2000
3100
2000
3100
2000
3100
2000
3100
,
0010
0001
0000
1000
0001
0000
1000
0010
0000
0100
0001
0000
0010
0000
0100
0000
,
0200
1300
0200
1300
0200
1300
0200
1300
,
0010
0100
0000
0001
0100
0000
0010
1000
0000
0100
1000
0000
0010
0000
0100
0000
,
0002
0103
0002
0103
0002
0103
0002
0103
,
0010
1000
0000
0100
1000
0000
0001
0100
0000
0001
0010
0000
0100
0000
1000
0000
,
0020
0130
0020
0130
0020
0130
0020
0130
,
0001
1000
0000
0001
1000
0000
0010
1000
0000
0010
1000
0000
0110
0000
0101
0000
,
0011
0000
0000
0100
1000
0000
0010
0100
0000
0001
0010
0000
0110
0000
1100
0000
,
1010
0000
0000
0100
0001
0000
0010
0001
0000
0100
0010
0000
0110
0000
1100
0000
,
1001
0000
0000
0100
0010
0000
1000
0001
0000
0010
0001
0000
1000
0000
0100
0000
,
1000
0001
0000
0100
0001
0000
1000
0010
0000
1000
0100
0000
0001
0000
0100
0000
,
1000
0001
0000
0100
0010
0000
1000
0100
0000
0010
0001
0000
0100
0000
1000
0000
,
0001
0010
0000
1000
0010
0000
0100
0001
0000
1000
0100
0000
1000
0000
0001
0000
,
0100
0000
0100
0010
0100
0000
0100
0000
0001
0000
1000
0000
0001
0000
0001
0000
,
0000
0200
0000
2300
0000
3200
0310
0000
,
2002
0000
0000
0000
,
3000
0000
0000
0000
,
1000
0000
0000
0000
0000
0000
0000
0000
1000
0000
0000
0100
0000
0000
0000
0000
,
0100
0000
0000
0000
0000
0000
0000
0000
1000
0000
0000
0010
0000
0000
0000
0000
,
0100
0000
0000
0000
0000
0000
0000
0000
1000
0000
0000
0100
0000
0000
0000
0000
,
0010
0000
0000
0000
0000
0000
0000
0000
0100
0000
0000
1000
0003
0000
0001
0000
,
1000
0000
1000
0000
0100
0000
0100
0000
1000
0000
0000
0001
0000
0000
0100
0000
,
0010
0000
0010
0000
1000
0000
1000
0000
0001
0000
0000
1000
0000
0000
0100
0000
,
1001
0000
0200
0000
0001
0000
0001
0000
0010
0000
0000
1000
0000
0000
0010
0000
,
0301
0000
0001
0000
1000
0000
1000
0000
0100
0000
0000
0001
0000
0000
0100
0000
,
1000
0000
1000
0000
0010
0000
0010
0000
0001
0000
0000
0100
0000
0000
1000
0000
,
0001
0000
0000
1000
0000
0000
0100
0000
0010
0000
0000
0001
0000
0000
1000
0000
,
0010
0000
0010
0000
1000
0000
1000
0000
0001
0000
0000
0010
0000
0000
0100
0000
,
1000
0000
1000
0000
0010
0000
0010
0000
0001
0000
0000
1000
0000
0000
0001
0000
,
0010
0000
0010
0000
0100
0000
0100
0000
0001
0000
0000
1000
0000
0000
0001
0000
,
0010
0000
0000
0100
0000
0000
1000
0000
0010
0100
0010
0000
2000
0000
3000
0000
,
1001
0000
2000
0000
0001
0000
0001
0000
0010
0000
0000
0001
0000
0000
3100
0000
,
0110
0000
2000
0000
0100
0000
0100
0000
0001
0000
0000
0010
0000
0000
3001
0000
,
1001
0000
0020
0000
1000
0000
1000
0000
0100
0000
0000
0001
0000
0000
0130
0000
,
0101
0000
0002
0000
0100
0000
0100
0000
1000
0000
0000
0010
0000
0000
0103
0000
,
1001
0000
0020
0000
1000
0000
1000
0000
0100
0000
0000
0001
0000
0000
0130
0000
,
0110
0000
2000
0000
0001
0000
0001
0000
0100
0000
0000
0001
0000
0000
3010
0000
,
0101
0000
0002
0000
0010
0000
0010
0000
1000
0000
0000
0100
0000
0000
1003
0000
,
1001
0000
0020
0000
0100
0000
0100
0000
0001
0000
0000
0100
0000
0000
1030
0000
,
2010
0000
0000
0001
0000
0000
3100
0000
0012
0000
0000
1000
0000
0000
0103
0000
,
0201
0000
0000
1000
0000
0000
0310
0000
2010
0000
0000
0001
0000
0000
3100
0000
,
1200
0000
0000
0001
0000
0000
0310
0000
0012
0000
0000
1000
0000
0000
0103
0000
,
0210
0000
0000
1000
0000
0000
0310
0000
1002
0000
0000
0010
0000
0000
1003
0000
,
1001
0000
0000
1001
0000
0000
0101
0000
0110
0000
0000
0110
0000
0000
1100
0000
,
1001
0000
0000
0011
0000
0000
1010
0000
0110
0000
0000
0101
0000
0000
1001
0000
,
0001
0010
1000
0001
1000
0010
0001
1000
,
0010
1000
0100
0010
0001
0100
0010
0100
0001
0010
0100
1000
0020
0000
0200
0000
,
0000
0000
0000
0000
0000
0000
0000
0000
0000
0000
0000
0000
0000
0000
0000
0330
,
0000
0000
0000
0100
,
1010
1000
1100
1000
,
1001
0000
0000
0100
0000
0000
0001
0000
,
0101
0001
1001
0001
,
0011
0000
0000
1000
0000
0000
0010
0000
,
0110
0100
1100
0100
,
0101
0000
0000
0100
0000
0000
1000
0000
,
1010
0000
0000
0100
0000
0000
0010
0000
,
0101
0000
0000
0001
0000
0000
0010
0000
,
1001
1000
1100
0100
,
0110
0000
0000
0001
0000
0000
1000
0000
,
1001
0001
0011
0001
,
0101
0000
0000
1000
0000
0000
0010
0000
,
1010
0010
0011
0010
,
0110
0000
0000
0100
0000
0000
0010
0000
,
1001
0000
0000
1000
0000
0000
0100
0000
,
0100
1000
0001
0100
0020
0000
0130
0000
,
0110
0100
0101
0001
,
0011
0000
0000
0010
0000
0000
0100
0000
,
1100
1000
1001
0001
,
0101
0000
0000
0010
0000
0000
0100
0000
,
1010
0010
1010
1000
,
1010
0000
0000
0001
0000
0000
0001
0000
,
1100
0000
0000
0001
0000
0000
0010
0000
,
0011
0000
0000
1000
0000
0000
0100
0000
,
0101
0010
1100
0010
,
0101
0000
0000
1000
0000
0000
0001
0000
,
0110
1000
0110
0001
,
0110
0000
0000
0100
0000
0000
1000
0000
,
1100
1100
1010
1010
,
0101
0000
0000
1001
0000
0000
1100
0000
,
0011
0000
0000
0110
0000
0000
1010
0000
,
1000
0100
0010
0001
0020
0000
0031
0000
,
0010
0000
0100
0010
0000
0000
1000
0000
0100
0000
1000
0000
0001
0000
0010
0000
0100
0000
1000
0100
0000
0000
0001
0000
0010
0000
0001
0000
0100
0000
0001
0000
,
0010
0000
0100
1000
0000
0000
0010
0000
0100
0000
0001
0000
0100
0000
0010
0000
1000
0000
0100
1000
0000
0000
0001
0000
0100
0000
0001
0000
0010
0000
0001
0000
,
1000
0000
0010
1000
0000
0000
0001
0000
0100
0000
1000
0000
0100
0000
0001
0000
1000
0000
0001
1000
0000
0000
0001
0000
0010
0000
0100
0000
0010
0000
0001
0000
,
1000
0000
0100
1000
0000
0000
0010
0000
0001
0000
0010
0000
1000
0000
0100
0000
0010
0000
0001
0010
0000
0000
0001
0000
1000
0000
0010
0000
1000
0000
0001
0000
,
0010
0000
0100
0010
0000
0000
1000
0000
0010
0000
0001
0000
0010
0000
0001
0000
1000
0000
1000
0100
0000
0000
0010
0000
0001
0000
1000
0000
0010
0000
1000
0000
,
0001
0000
0100
0001
0000
0000
1000
0000
0100
0000
0010
0000
0001
0000
0010
0000
0100
0000
1000
0001
0000
0000
1000
0000
0200
0000
0000
0000
2300
0000
0000
0000
,
3010
0000
1000
0010
0000
0000
0100
0000
0001
0000
0100
0000
1000
0000
0100
0000
0001
0000
0010
0001
0000
0000
0100
0000
0010
0000
1000
0000
0100
0000
0010
0000
,
0001
0000
0010
0001
0000
0000
0001
0000
0100
0000
0010
0000
1000
0000
0100
0000
0010
0100
0010
0100
0001
0010
0001
0010
0100
1000
0100
1000
0002
0000
0000
0000
,
0103
0000
0010
1000
0010
0000
0100
0000
0001
0000
0010
0001
0010
0000
0100
0000
,
0100
0000
1000
0000
0100
0000
0001
0000
0100
0000
1000
0000
0001
0000
0010
0001
,
0000
0000
0001
0100
0000
0000
0100
1000
0000
0000
1000
0010
0000
0000
0010
1000
,
0000
0000
1000
0100
0000
0000
0100
0001
0000
0000
0001
0010
0100
0000
0100
0000
,
0001
0000
0100
0000
1000
0000
0010
0000
1000
0000
0100
0000
0010
0000
0001
0100
,
1000
0000
0001
0000
1000
0000
0100
0000
0001
0000
0010
0000
0100
0000
1000
0001
,
1000
0000
1000
0000
0010
0000
0100
0010
0100
0000
0100
0000
0001
0000
0010
0001
,
0010
0010
0001
1000
0010
0100
0010
0000
,
0110
0000
0100
0001
0100
0000
0010
0000
1000
0000
0100
1000
0100
0000
0010
0000
,
0010
0000
0001
0000
0010
0000
1000
0000
0010
0000
0001
0000
1000
0000
0010
1000
,
0000
0000
1000
0100
0000
0000
0100
0001
0000
0000
0001
0010
0000
0000
0010
0100
,
0000
0000
0100
1000
0000
0000
1000
0100
0000
0000
0100
0010
0001
0000
0001
0000
,
1000
0000
0100
0001
0100
0000
1000
0000
0001
0000
0100
0000
1000
0000
0100
0000
,
0001
0000
1000
0010
1000
0000
0100
0000
0010
0000
0001
0000
0010
0000
0100
1000
,
0001
0000
0010
0000
0100
0000
0010
0000
0001
0000
0010
0000
1000
0000
0010
0001
,
0010
0100
1000
0010
1000
0100
0010
0001
1000
0100
0010
0001
0100
0000
0000
0000
,
1001
0200
0310
0200
0310
0200
0310
0100
,
1001
0020
1030
0020
1030
0020
1030
0010
,
0101
0020
0031
0020
0031
0020
0031
0010
,
0100
1000
0000
0001
0010
0000
0100
1000
0000
0001
1000
0000
0110
0000
0101
0000
,
1010
0000
0000
0100
0001
0000
0010
0000
1100
0000
0000
0001
1000
0000
0010
0000
,
0101
0000
0000
0100
1000
0000
0001
0000
1010
0000
0000
0010
0100
0000
1000
0000
,
0001
0010
0001
1000
0010
1000
0001
0100
0001
1000
0100
1000
0001
0010
0100
1000
,
0000
0010
0000
0001
0000
0010
2000
0002
,
0000
0000
0000
0000
,
0000
0000
0000
0000
0000
0000
0000
0000
0000
0000
0000
3003
0000
0000
0000
0000
;

//---------------dance-single - ----------------
#NOTEDATA:;
#CHARTNAME:;
#STEPSTYPE:dance-single;
#DESCRIPTION:;
#CHARTSTYLE:;
#DIFFICULTY:Hard;
#METER:17;
#RADARVALUES:0.718020,1.084817,0.210048,0.442601,0.322573,670.000000,642.000000,28.000000,59.000000,0.000000,0.000000,0.000000,0.000000,0.000000,0.718020,1.084817,0.210048,0.442601,0.322573,670.000000,642.000000,28.000000,59.000000,0.000000,0.000000,0.000000,0.000000,0.000000;
#CREDIT:;
#NOTES:
0100
0010
0100
0010
0100
0010
0100
0010
,
2000
0000
0000
3200
0000
0000
2300
0000
0000
3002
0000
0000
0013
0000
0100
0000
,
1000
0001
1000
0001
1000
0001
1000
0001
,
2000
0000
0000
3020
0000
0000
2030
0000
0000
3002
0000
0000
0013
0000
0100
0000
,
1000
0001
1000
0001
1000
0001
1000
0001
,
0020
0000
0000
0230
0000
0000
2300
0000
0000
3200
0000
0000
0301
0000
0100
0000
,
1000
0100
1000
0100
1000
0100
1000
0100
,
0020
0000
0000
0032
0000
0000
0203
0000
0000
2300
0000
0000
3100
0000
0001
0000
,
1001
0000
0000
0100
0000
0000
1000
0000
0000
0010
0000
0000
1000
0000
0100
0000
,
1001
0000
0000
0100
0000
0000
0001
0000
0000
0010
0000
0000
0001
0000
0100
0000
,
0110
0000
0000
0010
0000
0000
1000
0000
0000
0001
0000
0000
1000
0000
0100
0000
,
0110
0000
0000
0010
0000
0000
0001
0000
0000
1000
0000
0000
0001
0000
0100
0000
,
1010
0000
0000
1000
0000
0000
0001
0000
0000
0001
0000
0000
0010
0000
0001
0000
,
1100
0000
0000
0001
0000
0000
1000
0000
0000
0001
0000
0000
0100
0000
0010
0000
,
0100
0001
1000
0100
0010
0100
0001
1000
,
0010
0100
0000
1000
0000
1000
0100
0000
,
1001
0002
0000
0000
0000
0000
0000
0000
,
0000
0000
0000
0000
,
0000
0000
0000
0000
,
0000
0000
0000
0000
,
0000
0000
0000
0000
,
0000
0000
0000
0000
,
0000
0000
0000
0000
,
0000
0000
0000
0000
0000
0000
0000
0003
,
1001
0000
1000
0000
0010
0000
0010
0000
0100
0000
0000
0001
0000
0000
0100
0000
,
0010
0000
0010
0000
1000
0000
1000
0000
0001
0000
0000
0010
0000
0000
0001
0000
,
1000
0000
1000
0000
0100
0000
0100
0000
0010
0000
0000
0001
0000
0000
0010
0000
,
0100
0000
0000
1000
0000
0000
0010
0000
0100
0000
0000
0001
0000
0000
1000
0000
,
0010
0000
0010
0000
0100
0000
0100
0000
0001
0000
0000
0010
0000
0000
0001
0000
,
1000
0000
1000
0000
0010
0000
0010
0000
1000
0000
0000
0001
0000
0000
0100
0000
,
0010
0000
0010
0000
1000
0000
1000
0000
0001
0000
0000
0010
0000
0000
0100
0000
,
0001
0000
0000
0100
0000
0000
0010
0000
0001
0000
1000
0000
0001
1000
0001
0000
,
1001
0000
0010
0000
0100
0000
0100
0000
0001
0000
0000
0100
0000
0000
0010
0000
,
0110
0000
1000
0000
0010
0000
0010
0000
1000
0000
0000
0100
0000
0000
1000
0000
,
1010
0000
0100
0000
0001
0000
0001
0000
0010
0000
0000
0100
0000
0000
1000
0000
,
1001
0000
0100
0000
1000
0000
1000
0000
0001
0000
0000
0100
0000
0000
0001
0000
,
0011
0000
0100
0000
1000
0000
1000
0000
0010
0000
0000
1000
0000
0000
0010
0000
,
0110
0000
1000
0000
0010
0000
0010
0000
1000
0000
0000
0100
0000
0000
1000
0000
,
1001
0000
0010
0000
1000
0000
1000
0000
0001
0000
0000
0100
0000
0000
0001
0000
,
0101
0000
0001
0000
0010
0000
0010
0000
0100
0000
0000
1000
0000
0000
1000
0000
,
0020
0000
0000
0230
0000
0000
0301
0000
0020
0000
0000
0230
0000
0000
1300
0000
,
0002
0000
0000
0023
0000
0000
1030
0000
0002
0000
0000
0203
0000
0000
1300
0000
,
0002
0000
0000
0203
0000
0000
1300
0000
0200
0000
0000
0302
0000
0000
0013
0000
,
0200
0000
0000
2300
0000
0000
3001
0000
0200
0000
0000
0302
0000
0000
1003
0000
,
0100
0000
0000
0100
0000
0000
0100
0000
0100
0000
0000
0100
0000
0000
0100
0000
,
0001
0000
0000
0001
0000
0000
0001
0000
1000
0000
0000
1000
0000
0000
1000
0000
,
0001
0010
0100
1000
0100
0010
0100
1000
,
0001
0100
0001
0000
1000
0100
1000
0000
0010
0100
0010
0000
0100
0001
0200
0000
,
0000
0000
0000
0000
,
0000
0000
0000
0000
0000
0300
1001
0000
,
0100
0100
0010
0010
,
1000
0000
0000
0100
0000
0000
0010
0000
,
0100
0100
0010
0010
,
0001
0000
0000
1000
0000
0000
0010
0000
,
0100
0100
0010
0010
,
1000
0000
0000
0001
0000
0000
1000
0000
,
1010
0000
0000
1000
0000
0000
0001
0000
,
0011
0000
0000
0100
0000
0000
1000
0000
,
0001
0001
0010
0010
,
1000
0000
0000
0010
0000
0000
0001
0000
,
1000
1000
0010
0010
,
0001
0000
0000
0010
0000
0000
1000
0000
,
0100
0100
0010
0010
,
0001
0000
0000
1000
0000
0000
0100
0000
,
0110
0000
0000
0010
0000
0000
0001
0000
,
1000
0100
0010
0001
0100
0000
0100
0000
,
1001
0100
0001
0001
,
0100
0000
0000
0010
0000
0000
0100
0000
,
0010
0010
0100
0100
,
0010
0000
0000
1000
0000
0000
0010
0000
,
1000
1000
0100
0100
,
0001
0000
0000
0100
0000
0000
1000
0000
,
0001
0000
0000
0100
0000
0000
1000
0000
,
0001
0000
0000
0010
0000
0000
1000
0000
,
0001
0001
0100
0100
,
0010
0000
0000
0100
0000
0000
0001
0000
,
1000
1000
0100
0100
,
0010
0000
0000
0100
0000
0000
1000
0000
,
0010
0010
0100
0100
,
0001
0000
0000
0001
0000
0000
0010
0000
,
1000
0000
0000
0010
0000
0000
0001
0000
,
1000
0100
1000
0100
2000
0000
3000
0000
,
0010
0000
0010
0000
1000
0100
0010
0100
1000
0000
1000
0000
0001
0100
0010
0100
,
0001
0000
0001
0000
1000
0100
0010
0001
0100
0000
0100
0000
0100
0001
0010
0100
,
1000
0000
1000
0000
0010
1000
0100
1000
0010
0000
0010
0000
0100
0001
0010
0001
,
0100
0000
0100
0000
0010
1000
0001
0100
0010
0000
0010
0000
0100
0001
0010
0100
,
1000
0000
1000
0000
0001
0100
1000
0100
0001
0000
0001
0000
1000
0100
0001
0100
,
1000
0000
1000
0000
0100
0001
0010
1000
0100
0000
0100
0000
2000
0000
3002
0000
,
0103
0000
0100
0000
0010
1000
0100
0010
0001
0000
0001
0000
0100
0010
1000
0100
,
0010
0000
0010
0000
0100
0001
0010
0100
2000
0000
0000
0000
0000
0000
3000
0000
,
0001
0010
0100
0010
0001
1000
0001
0000
,
1000
0010
0100
0010
1000
0001
1000
0000
,
0100
1000
0010
0000
0100
0001
0010
0000
,
0010
0001
0100
0010
0001
0010
0100
0001
,
1000
0100
1000
0010
0001
0010
1000
0000
,
0001
0100
0001
0010
1000
0010
0001
0000
,
1000
0010
1000
0000
0001
0010
0001
0000
,
0100
0010
1000
0010
0100
0001
0100
0010
,
1000
0100
0001
0100
1000
0001
1000
0000
,
0001
0100
1000
0100
0001
1000
0001
0000
,
0010
0100
0010
0000
0100
0010
0100
0000
,
0010
1000
0010
0000
0010
0001
0010
0000
,
1000
0100
1000
0100
0010
0001
0010
0000
,
0001
0100
0001
0100
0010
1000
0100
0000
,
0010
0001
1000
0100
1000
0010
1000
0001
,
0010
0100
0010
0001
0100
0100
0100
0000
,
1001
0002
0003
0002
0003
0002
0003
0001
,
0110
2000
3000
2000
3000
2000
3000
1000
,
0101
0020
0030
0020
0030
0020
0030
0010
,
1100
0002
0003
0002
0003
0002
0003
0001
,
0010
0002
0013
0002
1003
0002
1003
0002
,
0103
0020
0130
0020
1030
0002
0013
0200
,
1300
0001
1000
0001
1000
0001
1000
0001
1000
0000
0010
0000
0010
0000
0010
0000
,
0000
1100
0000
0011
0000
1010
0100
0002
,
0000
0000
0000
0000
,
0000
0000
0000
0000
0000
0000
0000
0000
0000
0000
0000
0003
0000
0000
0000
0000
;

//---------------dance-single - ----------------
#NOTEDATA:;
#CHARTNAME:;
#STEPSTYPE:dance-single;
#DESCRIPTION:;
#CHARTSTYLE:;
#DIFFICULTY:Medium;
#METER:13;
#RADARVALUES:0.532621,0.694283,0.285065,0.367584,0.195044,497.000000,459.000000,38.000000,49.000000,0.000000,0.000000,0.000000,0.000000,0.000000,0.532621,0.694283,0.285065,0.367584,0.195044,497.000000,459.000000,38.000000,49.000000,0.000000,0.000000,0.000000,0.000000,0.000000;
#CREDIT:;
#NOTES:
0000
0000
0020
0030
0000
0000
0020
0030
0000
0000
0020
0030
0000
0000
0020
0030
,
0001
0000
0000
1000
0000
0000
0010
0000
0000
1000
0000
0000
0001
0000
0010
0000
,
0000
0000
0200
0300
0000
0000
0200
0300
0000
0000
0200
0300
0000
0000
0200
0300
,
0010
0000
0000
0001
0000
0000
1000
0000
0000
0100
0000
0000
1000
0000
0001
0000
,
0000
0000
2000
3000
0000
0000
2000
3000
0000
0000
2000
3000
0000
0000
2000
3000
,
0010
0000
0000
0010
0000
0000
1000
0000
0000
0001
0000
0000
0100
0000
0010
0000
,
0000
0000
2000
3000
0000
0000
2000
3000
0000
0000
2000
3000
0000
0000
2000
3000
,
0100
0000
0000
0010
0000
0000
0001
0000
0000
0010
0000
0000
0100
0000
1000
0000
,
1001
0000
1000
0001
0000
0010
0100
1000
,
1001
0000
0001
0100
0000
0010
1000
0010
,
1010
0000
1000
0100
0000
0010
0100
1000
,
1100
0000
0100
0010
0000
0001
0010
0100
,
0110
0000
0010
0001
0000
0010
0100
1000
,
1001
0000
0100
0010
0000
0100
0001
1000
,
0010
0100
0001
1000
0010
0100
0001
1000
,
0000
0000
0020
0030
0000
0000
0002
0003
0000
0000
0200
0300
0000
0000
0000
0000
,
1200
0000
0000
0000
,
0000
0000
0000
0000
,
0000
0000
0000
0000
,
0000
0000
0000
0000
,
0000
0000
0000
0000
,
0000
0000
0000
0000
,
0000
0000
0000
0000
,
0000
0000
0000
0300
,
0100
0000
0010
0000
0100
0000
0010
0000
1000
0000
0000
1000
0000
0000
0000
0000
,
0001
0000
0100
0000
0001
0000
0100
0000
0010
0000
0000
0010
0000
0000
0000
0000
,
1000
0000
0001
0000
1000
0000
0001
0000
0100
0000
0000
0100
0000
0000
0000
0000
,
0010
0000
0000
1000
0000
0000
0000
0000
0001
0000
0000
0010
0000
0000
0000
0000
,
0100
0000
1000
0000
0100
0000
1000
0000
0001
0000
0000
0001
0000
0000
0000
0000
,
1000
0000
0010
0000
1000
0000
0010
0000
0100
0000
0000
0100
0000
0000
0000
0000
,
0001
0000
1000
0000
0001
0000
1000
0000
0010
0000
0000
0010
0000
0000
0000
0000
,
1000
0000
0000
0001
0000
0000
0000
0000
1000
0000
0100
0000
0010
0000
0000
0000
,
0010
0000
0001
0000
1000
0000
0001
0000
0100
0000
0000
0100
0000
0000
0000
0000
,
0010
0000
1000
0000
0001
0000
1000
0000
0100
0000
0000
0100
0000
0000
0000
0000
,
0010
0000
0100
0000
0001
0000
0100
0000
0010
0000
0000
0010
0000
0000
0000
0000
,
1000
1000
0011
0000
,
0100
0000
1000
0000
0100
0000
1000
0000
0010
0000
0000
0010
0000
0000
0000
0000
,
0100
0000
0001
0000
0100
0000
0001
0000
0010
0000
0000
0010
0000
0000
0000
0000
,
1000
0000
0100
0000
1000
0000
0010
0000
0100
0000
0000
0100
0000
0000
0000
0000
,
0010
0000
1000
0000
0001
0000
0100
0000
0001
0000
0000
0001
0000
0000
0000
0000
,
2020
3030
0000
0000
0202
0303
0000
0000
,
2200
3300
0000
0000
0022
0033
0000
0000
,
0220
0330
0000
0000
2002
3003
0000
0000
,
0220
0330
0000
0000
2002
3003
0000
0000
,
0010
0000
0000
0100
0000
0000
0000
0000
0010
0000
0000
1000
0000
0000
0000
0000
,
0001
0000
0000
0100
0000
0000
0000
0000
0001
0000
0000
1000
0000
0000
0000
0000
,
0001
1000
0001
1000
0001
1000
0001
1000
,
0020
0000
0000
0000
0000
0000
0000
0200
,
0000
0000
0000
0000
,
0000
0000
0330
0110
,
0001
0100
0001
0100
,
0010
0000
0000
0010
0000
0000
0000
0000
,
1000
0100
1000
0100
,
0010
0000
0000
0010
0000
0000
0000
0000
,
0001
1000
0001
1000
,
0001
0000
0000
0100
0000
0000
0000
0000
,
1000
0000
0000
0100
0000
0000
0000
0000
,
0001
0000
0000
0010
0000
0000
0000
0000
,
1000
0100
0010
0100
,
1000
0000
0000
1000
0000
0000
0000
0000
,
0001
0100
0010
0100
,
0001
0000
0000
0001
0000
0000
0000
0000
,
1000
0100
0010
0001
,
1000
0000
0000
1000
0000
0000
0000
0000
,
0001
0000
0000
0001
0000
0000
0000
0000
,
0100
0010
0200
0000
,
0310
0100
0001
0100
,
0010
0000
0000
0010
0000
0000
0000
0000
,
1000
0001
0010
0001
,
1000
0000
0000
1000
0000
0000
0000
0000
,
0100
0010
0001
0010
,
0100
0000
0000
0100
0000
0000
0000
0000
,
0001
0000
0000
0001
0000
0000
0000
0000
,
1000
0000
0000
1000
0000
0000
0000
0000
,
0010
1000
0100
1000
,
0010
0000
0000
0010
0000
0000
0000
0000
,
1000
0001
0100
0010
,
0100
0000
0000
0100
0000
0000
0000
0000
,
0001
0010
0100
1000
,
0010
0000
0000
0100
0000
0000
0000
0000
,
0001
0000
0000
1000
0000
0000
0000
0000
,
0100
0010
0200
0000
,
0320
0000
0000
0000
0000
0000
0000
0000
0000
0030
0000
0000
1000
0001
0000
0100
,
0000
0001
0000
0010
0000
0001
0000
0100
0000
0010
0000
1000
0000
0100
0000
2000
,
0000
0000
0000
3000
0000
0000
0001
0000
,
0020
0000
0000
0000
0000
0000
0000
0030
0000
0000
0000
0100
1000
0010
0000
0020
,
0000
0000
0000
0000
0000
0000
0000
0000
0030
0000
0000
0100
0001
0010
0000
0001
,
0000
0001
0000
1000
0000
1000
0000
0010
0000
0010
0000
1000
0000
1000
0000
0002
,
0000
0000
0000
0000
0000
0000
0000
0003
0000
0000
0000
0000
0010
0000
0000
0000
,
2000
0000
0000
0000
0001
0001
0001
3001
,
1001
0000
1001
0000
0100
0001
0100
0000
,
0101
0000
0101
0000
1000
0010
1000
0000
,
1010
0000
1010
0000
0001
0010
0001
0000
,
1000
0010
1000
0000
0001
0010
0001
0000
,
1100
0000
1100
0000
0100
1000
0100
0000
,
0110
0000
0110
0000
0010
0100
0010
0000
,
0011
0000
0011
0000
0001
0010
0001
0000
,
1000
0010
1000
0000
0001
0100
0010
1000
,
0010
0000
0010
0000
0100
0001
0010
0000
,
0100
0010
0100
0000
1000
0001
0100
0000
,
0010
0100
0010
0000
1000
0100
1000
0000
,
0010
0100
0010
0000
0100
0001
0100
0000
,
0010
0000
1001
0000
0100
0010
0100
0000
,
0001
0000
0110
0000
1000
0001
1000
0000
,
0001
1000
0001
0000
0100
0001
0100
0000
,
0001
0010
0001
0010
0001
0010
0001
0000
,
0000
0100
0000
1000
0000
0100
0000
1000
,
1000
0001
0000
0010
0000
0001
0000
0010
,
0010
1000
0000
0001
0000
1000
0000
0001
,
0001
0010
0000
1000
0000
0010
0000
1000
,
1001
0010
0101
0010
,
1100
0010
1001
1010
,
0110
0000
0100
0001
0010
0100
1000
0010
,
0100
0002
0000
0023
0000
0031
0000
2100
,
0000
0000
0000
0000
,
0000
0000
0000
0000
0000
0000
0000
0000
0000
0000
0000
3000
0000
0000
0000
0000
;

//---------------dance-single - ----------------
#NOTEDATA:;
#CHARTNAME:;
#STEPSTYPE:dance-single;
#DESCRIPTION:;
#CHARTSTYLE:;
#DIFFICULTY:Easy;
#METER:9;
#RADARVALUES:0.340792,0.520712,0.240055,0.165038,0.000000,318.000000,286.000000,32.000000,22.000000,0.000000,0.000000,0.000000,0.000000,0.000000,0.340792,0.520712,0.240055,0.165038,0.000000,318.000000,286.000000,32.000000,22.000000,0.000000,0.000000,0.000000,0.000000,0.000000;
#CREDIT:;
#NOTES:
0010
0010
0010
0010
,
1000
0000
0000
0001
0000
0000
1000
0000
,
0100
0100
0100
0100
,
1000
0000
0000
0001
0000
0000
0010
0000
,
0001
0001
0001
0001
,
0010
0000
0000
0010
0000
0000
0100
0000
,
1000
1000
1000
1000
,
0020
0000
0000
0100
0000
0000
0130
0000
,
0110
0000
0000
0001
0000
0000
1000
1000
,
0100
0000
0000
0001
0000
0000
0001
0001
,
0100
0000
0000
0010
0000
0000
0010
0010
,
1000
0000
0000
0100
0000
0000
1000
1000
,
0010
0000
0000
0100
0000
0000
0010
0010
,
1000
0000
0000
0100
0000
0000
1000
1000
,
0001
0001
0010
0010
,
0000
0100
0000
0001
0000
0010
0000
0000
,
2001
0000
0000
0000
,
0000
0000
0000
0000
,
0000
0000
0000
0000
,
0000
0000
0000
0000
,
0000
0000
0000
0000
,
0000
0000
0000
0000
,
0000
0000
0000
0000
,
0000
0000
3000
0000
,
0010
0000
0001
0000
,
0100
0000
1000
0000
,
0100
0000
0001
0000
,
1000
0000
0010
0000
,
1000
0000
1000
0000
,
0010
0000
0001
0000
,
0100
0000
0001
0000
,
0010
0000
1000
0000
,
2001
0000
3001
0000
,
0120
0000
0130
0000
,
2001
0000
3001
0000
,
0120
0000
0130
0000
,
2100
0000
3100
0000
,
0102
0000
0103
0000
,
2100
0000
3100
0000
,
0102
0000
0103
0000
,
0020
0000
0032
0000
,
2003
0000
3100
0100
,
0200
0000
2300
0000
,
3002
0000
0013
0010
,
0110
0000
1001
0000
,
1001
0000
1001
0000
,
1000
1000
0001
0001
,
1000
0001
1000
0001
1000
0000
2002
0000
,
0000
0000
0000
0000
,
0000
0000
3003
0010
,
1001
0000
0001
0000
,
0100
0000
0100
0000
,
0010
0000
0010
0000
,
1000
0000
1000
0000
,
0100
0000
0100
0000
,
0010
0000
0010
0000
,
0110
0000
0000
0000
,
1001
0000
0000
0000
,
0001
0000
0100
0000
,
0001
0000
0010
0000
,
0100
0000
1000
0000
,
0010
0000
1000
0000
,
0100
0000
0010
0000
,
0001
0000
1000
0000
,
1001
0000
0000
0000
,
0110
0000
0000
0000
,
0010
0000
0010
0000
,
1000
0000
1000
0000
,
0100
0000
1000
0000
,
0010
0000
0010
0000
,
0100
0000
0100
0000
,
0001
0000
0001
0000
,
2001
0000
3001
0000
,
1002
0000
1003
0000
,
0110
0000
0100
0000
,
0010
0000
0010
0000
,
0100
0000
0100
0000
,
0001
0000
1000
0000
,
0010
0000
1000
0000
,
0001
0000
0100
0000
,
0010
0000
0010
0000
,
0200
0000
0300
0000
,
0100
0000
0100
0000
,
0010
0010
1000
1000
,
0100
0000
0100
0000
,
0001
0001
0010
0010
,
0100
0000
0100
0000
,
0001
0000
1000
0001
,
1000
1000
1000
0001
,
0010
0000
0010
0000
0010
0010
0010
0000
,
0110
0000
0100
0100
,
0010
0000
1000
1000
,
0001
0000
0100
0000
,
1000
0000
0010
0000
,
0001
0000
0100
0100
,
1000
0000
0010
0010
,
1000
0000
0001
0001
,
0100
0010
0100
0000
,
1001
0000
0010
0010
,
0100
0000
0100
0100
,
0001
1000
0001
1000
,
0010
1000
0010
1000
,
0001
0000
0010
0010
,
0100
0000
0100
0100
,
0010
0000
1000
1000
,
1001
0110
1001
0000
,
0010
0100
0010
0000
0010
0000
0010
0000
,
1000
0010
1000
0000
1000
0000
1000
0000
,
0001
1000
0001
0000
0001
0000
0001
0000
,
0010
0001
0010
0000
0010
0000
0010
0000
,
0110
0000
1001
0000
,
1001
0000
0110
0000
,
0010
1000
0001
0100
0010
1000
0001
0100
,
0000
0010
0000
0010
0000
0010
0000
0200
,
0000
0000
0000
0000
,
0000
0000
0000
0000
0000
0000
0000
0000
0000
0000
0000
0300
0000
0000
0000
0000
;

//---------------dance-single - ----------------
#NOTEDATA:;
#CHARTNAME:;
#STEPSTYPE:dance-single;
#DESCRIPTION:;
#CHARTSTYLE:;
#DIFFICULTY:Beginner;
#METER:5;
#RADARVALUES:0.148962,0.298005,0.097522,0.127529,0.000000,139.000000,126.000000,13.000000,17.000000,0.000000,0.000000,0.000000,0.000000,0.000000,0.148962,0.298005,0.097522,0.127529,0.000000,139.000000,126.000000,13.000000,17.000000,0.000000,0.000000,0.000000,0.000000,0.000000;
#CREDIT:;
#NOTES:
// measure 0
0000
0000
0000
0000
,  // measure 1
0020
0000
0000
0000
,  // measure 2
0030
0000
0000
0000
,  // measure 3
0200
0000
0000
0000
,  // measure 4
0300
0000
0000
0000
,  // measure 5
0020
0000
0000
0000
,  // measure 6
0030
0000
0000
0000
,  // measure 7
0200
0000
0000
0300
,  // measure 8
0100
0000
0000
0000
,  // measure 9
0001
0000
0000
0000
,  // measure 10
0001
0000
0000
0000
,  // measure 11
0001
0000
0000
0000
,  // measure 12
1001
0000
0000
0000
,  // measure 13
1001
0000
0000
0000
,  // measure 14
0001
0000
1000
0000
,  // measure 15
0001
0000
0000
0000
,  // measure 16
2002
0000
0000
0000
,  // measure 17
0000
0000
0000
0000
,  // measure 18
0000
0000
0000
0000
,  // measure 19
0000
0000
0000
0000
,  // measure 20
0000
0000
0000
0000
,  // measure 21
0000
0000
0000
0000
,  // measure 22
0000
0000
0000
0000
,  // measure 23
0000
0000
3003
0000
,  // measure 24
1000
0000
0000
0000
,  // measure 25
1000
0000
0000
0000
,  // measure 26
0100
0000
0000
0000
,  // measure 27
0100
0000
0000
0000
,  // measure 28
0001
0000
0000
0000
,  // measure 29
0001
0000
0000
0000
,  // measure 30
0100
0000
0000
0000
,  // measure 31
0100
0000
0000
0000
,  // measure 32
0110
0000
0000
0000
,  // measure 33
0100
0000
0000
0000
,  // measure 34
0110
0000
0000
0000
,  // measure 35
0010
0000
0000
0000
,  // measure 36
0110
0000
0000
0000
,  // measure 37
0100
0000
0000
0000
,  // measure 38
0110
0000
0000
0000
,  // measure 39
0010
0000
0000
0000
,  // measure 40
2000
0000
3000
0000
,  // measure 41
2000
0000
3000
0000
,  // measure 42
0002
0000
0003
0000
,  // measure 43
0002
0000
0003
0000
,  // measure 44
1000
0000
0001
0000
,  // measure 45
1000
0000
0001
0000
,  // measure 46
1000
0000
1000
0000
,  // measure 47
0001
0000
0001
0002
,  // measure 48
0000
0000
0000
0000
,  // measure 49
0000
0003
0000
0000
,  // measure 50
0010
0000
0000
0000
,  // measure 51
0010
0000
0000
0000
,  // measure 52
0010
0000
0000
0000
,  // measure 53
1000
0000
0000
0000
,  // measure 54
0010
0000
0000
0000
,  // measure 55
0010
0000
0000
0000
,  // measure 56
0001
0000
0000
0000
,  // measure 57
0100
0000
0000
0000
,  // measure 58
0010
0000
0000
0000
,  // measure 59
0010
0000
0000
0000
,  // measure 60
1000
0000
0000
0000
,  // measure 61
1000
0000
0000
0000
,  // measure 62
0010
0000
0000
0000
,  // measure 63
0010
0000
0000
0000
,  // measure 64
0001
0000
0000
0000
,  // measure 65
0001
0000
0000
0000
,  // measure 66
0100
0000
0000
0000
,  // measure 67
0100
0000
0000
0000
,  // measure 68
0100
0000
0000
0000
,  // measure 69
0100
0000
0000
0000
,  // measure 70
1000
0000
0000
0000
,  // measure 71
1000
0000
0000
0000
,  // measure 72
0001
0000
0000
0000
,  // measure 73
1000
0000
0000
0000
,  // measure 74
0001
0000
0000
0000
,  // measure 75
0001
0000
0000
0000
,  // measure 76
0001
0000
0000
0000
,  // measure 77
0100
0000
0000
0000
,  // measure 78
0001
0000
0000
0000
,  // measure 79
0001
0000
0000
0000
,  // measure 80
1000
0000
0000
0000
,  // measure 81
1000
0000
0000
0000
,  // measure 82
0020
0000
0030
0000
,  // measure 83
0010
0000
0010
0000
,  // measure 84
0100
0000
0000
0001
,  // measure 85
0002
0000
0003
0000
,  // measure 86
2000
0000
3000
0000
,  // measure 87
1000
0000
1000
0000
,  // measure 88
2000
3000
0000
0001
,  // measure 89
0002
0000
0003
0000
,  // measure 90
1001
0000
0000
0000
,  // measure 91
0100
0000
0000
0000
,  // measure 92
0010
0000
0010
0000
,  // measure 93
1000
0000
1000
0000
,  // measure 94
0010
0000
0000
0000
,  // measure 95
1000
0000
0000
0000
,  // measure 96
0001
0000
0001
0000
,  // measure 97
0001
0000
0001
0001
,  // measure 98
0001
0000
0000
0000
,  // measure 99
1000
0000
0000
0000
,  // measure 100
0100
0000
0100
0000
,  // measure 101
0010
0000
0010
0000
,  // measure 102
0100
0000
0000
0000
,  // measure 103
0100
0000
0000
0000
,  // measure 104
1000
0000
0001
0000
,  // measure 105
2000
0000
3000
0000
,  // measure 106
1001
0000
0000
0000
,  // measure 107
0110
0000
0000
0000
,  // measure 108
1001
0000
0000
0000
,  // measure 109
0110
0000
0000
0000
,  // measure 110
0010
0010
0010
0000
,  // measure 111
0100
0100
0100
0000
,  // measure 112
0001
0001
0001
0000
,  // measure 113
1000
0000
1001
0000
;
