#VERSION:0.83;
#TITLE:Calabria;
#SUBTITLE:(Remix);
#ARTIST:Drunkenmunkey;
#TITLETRANSLIT:;
#SUBTITLETRANSLIT:;
#ARTISTTRANSLIT:;
#GENRE:;
#ORIGIN:;
#CREDIT:;
#BANNER:;
#BACKGROUND:;
#PREVIEWVID:;
#JACKET:;
#CDIMAGE:;
#DISCIMAGE:;
#LYRICSPATH:;
#CDTITLE:;
#MUSIC:calabria.ogg;
#OFFSET:0.000000;
#SAMPLESTART:44.604000;
#SAMPLELENGTH:12.000000;
#SELECTABLE:YES;
#DISPLAYBPM:140.000000;
#BPMS:0.000=34.625,
4.000=139.850,
18.000=69.925,
20.000=139.850,
30.000=69.925,
32.000=279.700,
33.500=139.850,
34.000=279.700,
35.500=139.850,
36.000=279.700,
37.500=139.850,
39.750=27.970,
40.000=139.850,
42.000=46.617,
42.250=139.850,
42.750=46.617,
43.000=139.850,
45.750=27.970,
46.000=139.850,
48.000=34.963,
49.000=139.850,
63.000=46.617,
63.500=139.850,
96.000=69.925,
98.000=139.850,
130.000=34.963,
132.000=69.925,
136.000=139.850,
180.000=186.467,
182.000=279.700,
183.000=139.850;
#STOPS:96.000=0.880,
97.000=0.880;
#DELAYS:;
#WARPS:1.000=3.000,
19.000=1.000,
31.000=1.000,
33.000=0.500,
35.000=0.500,
37.000=0.500;
#TIMESIGNATURES:0.000=4=4;
#TICKCOUNTS:0.000=4;
#COMBOS:0.000=1;
#SPEEDS:0.000=1.000=0.000=0;
#SCROLLS:0.000=4.000,
1.000=0.000,
4.000=1.000,
18.000=2.000,
19.000=0.000,
20.000=1.000,
30.000=2.000,
31.000=0.000,
32.000=0.500,
33.000=0.000,
33.500=1.000,
34.000=0.500,
35.000=0.000,
35.500=1.000,
36.000=0.500,
37.000=0.000,
37.500=1.000,
39.750=5.000,
40.000=1.000,
42.000=3.000,
42.250=1.000,
42.750=3.000,
43.000=1.000,
45.750=5.000,
46.000=1.000,
48.000=4.000,
49.000=1.000,
63.000=3.000,
63.500=1.000,
96.000=2.000,
98.000=1.000,
130.000=4.000,
132.000=2.000,
136.000=1.000,
180.000=0.750,
182.000=0.500,
183.000=1.000;
#FAKES:;
#LABELS:0.000=Song Start;
#BGCHANGES:;
#KEYSOUNDS:;
#ATTACKS:
;

//---------------dance-single - ----------------
#NOTEDATA:;
#CHARTNAME:;
#STEPSTYPE:dance-single;
#DESCRIPTION:;
#CHARTSTYLE:;
#DIFFICULTY:Beginner;
#METER:1;
#RADARVALUES:0.119932,0.194140,0.010494,0.031482,0.000000,80.000000,79.000000,1.000000,3.000000,0.000000,0.000000,0.000000,0.000000,0.000000,0.119932,0.194140,0.010494,0.031482,0.000000,80.000000,79.000000,1.000000,3.000000,0.000000,0.000000,0.000000,0.000000,0.000000;
#CREDIT:Mozata;
#DISPLAYBPM:140.000000;
#NOTES:
0000
0000
0000
0000
,
0000
0000
0000
0000
,
0000
0000
0000
0000
,
0000
0000
0000
0000
,
0000
0000
0000
0000
,
0001
0000
0000
0000
,
1000
0000
0000
0000
,
0001
0000
0000
0000
,
1000
0000
1000
0000
,
1000
0000
0000
1000
,
0000
0000
0010
0000
,
0000
0100
0000
0000
,
0002
0003
0000
0000
,
0000
1000
0000
0000
,
0000
0010
0000
0000
,
0000
0100
0000
0000
,
0001
0000
0000
0000
,
0010
0000
0000
0000
,
0100
0000
0000
0000
,
1000
0000
0000
0000
,
0001
0000
0000
0000
,
0100
0000
0000
0000
,
0010
0000
0000
0000
,
1000
0000
0000
0000
,
0001
0000
0000
0000
0000
0000
0000
0000
0000
0000
0000
0000
0000
0000
0000
0000
0000
0000
0000
0000
0000
0000
0000
0000
0000
0000
0000
0000
0000
0000
0000
0000
0000
0000
0000
0000
0000
0000
0000
0000
0000
0000
0000
0000
0000
0000
0000
0000
0002
0003
0000
0000
0000
0000
0000
0000
0000
0000
0000
0000
0000
0000
0000
0000
0000
0000
0000
0000
0000
0000
0000
0000
0000
0000
0000
0000
0000
0000
0000
0000
0000
0000
0000
0000
0000
0000
0000
0000
0000
0000
0000
0000
0000
0000
0000
0000
1000
0000
0000
0000
0000
0000
0000
0000
0000
0000
0000
0000
0000
0000
0000
0000
0000
0000
0000
0000
0000
0000
0000
0000
0000
0000
0000
0000
0000
0000
0000
0000
0000
0000
0000
0000
0000
0000
0000
0000
0000
0000
0000
0000
0000
0000
0000
0000
1000
0000
0000
0000
0000
0000
0000
0000
0000
0000
0000
0000
0000
0000
0000
0000
0000
0000
0000
0000
0000
0000
0000
0000
0000
0000
0000
0000
0000
0000
0000
0000
0000
0000
0000
0000
0000
0000
0000
0000
0000
0000
0000
0000
0000
0000
0000
0000
,
1000
0000
0001
0001
,
0001
0000
0100
0100
,
0100
0000
0010
0010
,
0010
0000
1000
1000
,
1000
0000
0001
0001
,
0001
0000
0100
0000
,
0000
0000
0020
0000
,
0000
0000
0030
0000
,
0010
0000
0000
0000
,
1000
1000
1000
0000
,
0001
0001
0001
0000
,
0100
0100
0100
0000
,
0010
0010
0010
0000
,
1000
1000
1000
0000
,
0001
0001
0001
0000
,
0100
0100
0100
0000
,
0010
0010
0010
0000
,
1000
1000
1000
0000
,
0100
0100
0100
0000
,
0010
0010
0010
0000
,
1001
0000
0000
0000
,
0000
0100
0000
0000
;

//---------------dance-single - ----------------
#NOTEDATA:;
#CHARTNAME:;
#STEPSTYPE:dance-single;
#DESCRIPTION:;
#CHARTSTYLE:;
#DIFFICULTY:Easy;
#METER:3;
#RADARVALUES:0.185895,0.242675,0.031482,0.073458,0.000000,124.000000,121.000000,3.000000,7.000000,0.000000,0.000000,0.000000,0.000000,0.000000,0.185895,0.242675,0.031482,0.073458,0.000000,124.000000,121.000000,3.000000,7.000000,0.000000,0.000000,0.000000,0.000000,0.000000;
#CREDIT:;
#DISPLAYBPM:140.000000;
#NOTES:
0000
0000
0000
0000
,
0000
0000
0000
0000
,
0000
0000
0000
0000
,
0000
0000
0000
0000
,
0000
0000
0000
0000
,
0001
0000
1000
0000
,
0001
0000
1000
0000
,
0001
0000
1000
0000
,
2002
0000
0000
0000
,
0000
0000
3003
0010
,
1000
0000
0001
0100
,
0000
0010
1000
0000
,
0002
0013
0000
0100
,
0000
1000
0000
0001
,
0000
0010
0000
0100
,
0000
1000
0000
0010
,
0100
0000
0001
0000
,
1000
0000
0010
0000
,
1000
0000
0001
0000
,
0010
0000
0001
0000
,
1000
0000
0100
0000
,
1000
0000
0010
0000
,
0100
0000
0001
0000
,
0100
0000
0010
0000
,
1000
0000
0000
0000
0000
0000
0000
0000
0000
0000
0000
0000
0000
0000
0000
0000
0000
0000
0000
0000
0000
0000
0000
0000
0000
0000
0000
0000
0000
0000
0000
0000
0000
0000
0000
0000
0000
0000
0000
0000
0000
0000
0000
0000
0000
0000
0000
0000
2002
3003
0000
0000
0000
0000
0000
0000
0000
0000
0000
0000
0000
0000
0000
0000
0000
0000
0000
0000
0000
0000
0000
0000
0000
0000
0000
0000
0000
0000
0000
0000
0000
0000
0000
0000
0000
0000
0000
0000
0000
0000
0000
0000
0000
0000
0000
0000
0001
0000
0000
0000
0000
0000
0000
0000
0000
0000
0000
0000
0000
0000
0000
0000
0000
0000
0000
0000
0000
0000
0000
0000
0000
0000
0000
0000
0000
0000
0000
0000
0000
0000
0000
0000
0000
0000
0000
0000
0000
0000
0000
0000
0000
0000
0000
0000
1000
0000
0000
0000
0000
0000
0000
0000
0000
0000
0000
0000
0000
0000
0000
0000
0000
0000
0000
0000
0000
0000
0000
0000
0000
0000
0000
0000
0000
0000
0000
0000
0000
0000
0000
0000
0000
0000
0000
0000
0000
0000
0000
0000
0000
0000
0000
0000
,
0001
0001
0010
0100
,
0010
0010
0100
1000
,
0001
1000
0010
0100
,
0010
0010
0100
0001
,
1000
0001
0010
0100
,
0010
0010
0100
1000
,
0001
1000
0020
0000
,
0000
0000
0130
0100
,
0100
0100
0200
0000
,
0301
1000
0001
0001
,
0010
0100
0010
0010
,
0100
1000
0001
1000
,
0010
0100
0010
0010
,
0100
0001
1000
0001
,
0010
0100
0010
0010
,
0100
1000
0100
0010
,
0001
1000
0001
0001
,
0010
0100
1000
0010
,
0100
0001
1000
0001
,
0010
0100
1000
0010
,
0110
0000
0000
0000
,
0010
0100
0000
0000
;

//---------------dance-single - ----------------
#NOTEDATA:;
#CHARTNAME:;
#STEPSTYPE:dance-single;
#DESCRIPTION:;
#CHARTSTYLE:;
#DIFFICULTY:Medium;
#METER:5;
#RADARVALUES:0.269847,0.291210,0.031482,0.094447,0.125929,180.000000,177.000000,3.000000,9.000000,0.000000,0.000000,0.000000,0.000000,0.000000,0.269847,0.291210,0.031482,0.094447,0.125929,180.000000,177.000000,3.000000,9.000000,0.000000,0.000000,0.000000,0.000000,0.000000;
#CREDIT:;
#DISPLAYBPM:140.000000;
#NOTES:
0000
0000
0000
0000
,
0000
0000
0000
0000
,
0000
0000
0000
0000
,
0000
0000
0000
0000
,
0000
0000
0000
0000
,
0010
0010
0010
0010
,
0100
0100
0100
0100
,
0010
0100
0010
0000
,
1000
0000
0000
0001
1000
0000
0000
0001
,
1000
0000
0000
0000
0000
0000
0001
0000
1000
0000
0000
0000
0010
0000
0000
1000
,
0001
0000
0000
0000
0010
0000
0000
0000
0001
1000
0000
0000
0010
0000
0000
0000
,
0100
0000
0000
0000
0001
0000
0000
1000
0100
0000
0000
0000
1000
0000
0000
0000
,
0002
0000
0000
0000
1003
0000
0000
0010
0000
0000
0000
0000
1000
0000
0000
0000
,
0001
0000
0000
0000
0010
0000
0000
0001
0000
0000
0000
0000
1000
0000
0000
0000
,
0100
0000
0000
0000
1000
0000
0000
0001
0000
0000
0000
0000
0100
0000
0000
0000
,
0001
0000
0000
0000
1000
0000
0000
0010
0000
0000
0000
0000
1000
0000
0001
0000
,
1000
0000
0000
0100
0000
0000
0000
0000
0010
0000
0000
0000
0100
0000
0000
0000
,
1000
0000
0000
0001
0000
0000
0000
0000
0100
0000
0000
0000
0010
0000
0000
0000
,
0100
0000
0000
0001
0000
0000
0000
0000
1000
0000
0000
0000
0100
0000
0000
0000
,
0010
0000
0000
0100
0000
0000
0000
0000
1000
0000
0000
0000
0001
0000
0000
0000
,
0010
0000
0000
0100
0000
0000
0000
0000
1000
0000
0000
0000
0010
0000
0000
0000
,
0100
0000
0000
0001
0000
0000
0000
0000
1000
0000
0000
0000
0001
0000
0000
0000
,
1000
0000
0000
0100
0000
0000
0000
0000
0010
0000
0000
0000
0001
0000
0000
0000
,
0010
0000
0000
0100
0000
0000
0000
0000
1000
0000
0000
0000
0001
0000
0000
0000
,
1000
0000
0000
0000
0000
0000
0000
0000
0000
0000
0000
0000
0000
0000
0000
0000
0000
0000
0000
0000
0000
0000
0000
0000
0000
0000
0000
0000
0000
0000
0000
0000
0000
0000
0000
0000
0000
0000
0000
0000
0000
0000
0000
0000
0000
0000
0000
0000
0220
0330
0000
0000
0000
0000
0000
0000
0000
0000
0000
0000
0000
0000
0000
0000
0000
0000
0000
0000
0000
0000
0000
0000
0000
0000
0000
0000
0000
0000
0000
0000
0000
0000
0000
0000
0000
0000
0000
0000
0000
0000
0000
0000
0000
0000
0000
0000
0001
0000
0000
0000
0000
0000
0000
0000
0000
0000
0000
0000
0000
0000
0000
0000
0000
0000
0000
0000
0000
0000
0000
0000
0000
0000
0000
0000
0000
0000
0000
0000
0000
0000
0000
0000
0000
0000
0000
0000
0000
0000
0000
0000
0000
0000
0000
0000
0001
0000
0000
0000
0000
0000
0000
0000
0000
0000
0000
0000
0000
0000
0000
0000
0000
0000
0000
0000
0000
0000
0000
0000
0000
0000
0000
0000
0000
0000
0000
0000
0000
0000
0000
0000
0000
0000
0000
0000
0000
0000
0000
0000
0000
0000
0000
0000
,
1000
0000
0000
0000
1000
0000
0000
0000
0001
0000
0000
0010
0000
0000
0001
0000
,
1000
0010
0100
0100
,
0010
0000
0000
0000
0010
0000
0000
0000
1000
0000
0000
0001
0000
0000
1000
0000
,
0100
0010
0001
0001
,
1000
0000
0000
0000
1000
0000
0000
0000
0001
0000
0000
0010
0000
0000
0001
0000
,
0100
0010
1000
1000
,
0001
0000
0000
0000
0001
0000
0000
0000
1000
0000
0000
0100
0000
0000
1000
0000
,
0010
0000
1000
0000
0002
0003
2000
3000
,
0002
0003
2000
3000
2002
0000
0000
3003
,
0010
0010
0100
0010
,
1000
0000
0000
0010
0000
0000
1000
0000
0100
0000
0000
0000
0010
0000
0000
0000
,
0001
0001
1000
0001
,
0010
0000
0000
0100
0000
0000
1000
0000
0001
0000
0000
0000
0100
0000
0000
0000
,
0010
1000
0010
1000
,
0001
0000
0000
0100
0000
0000
0001
0000
1000
0000
0000
0000
0100
0000
0000
0000
,
0010
0001
0010
0001
,
1000
0000
0000
0010
0000
0000
1000
0000
0100
0000
0000
0000
1000
0000
0000
0000
,
0010
0010
0100
0001
,
1000
0000
0000
0100
0000
0000
0010
0000
0100
0000
0000
0000
1000
0000
0000
0000
,
0001
0001
1000
1000
,
0001
0010
0100
1000
,
1000
1001
0000
0000
;

//---------------dance-single - ----------------
#NOTEDATA:;
#CHARTNAME:;
#STEPSTYPE:dance-single;
#DESCRIPTION:;
#CHARTSTYLE:;
#DIFFICULTY:Hard;
#METER:8;
#RADARVALUES:0.322318,0.485350,0.199387,0.052470,0.183646,215.000000,196.000000,19.000000,5.000000,0.000000,0.000000,0.000000,0.000000,0.000000,0.322318,0.485350,0.199387,0.052470,0.183646,215.000000,196.000000,19.000000,5.000000,0.000000,0.000000,0.000000,0.000000,0.000000;
#CREDIT:;
#DISPLAYBPM:140.000000;
#NOTES:
0000
0000
0000
0000
,
0000
0000
0000
0000
,
0000
0000
0000
0000
,
0000
0000
0000
0000
,
0000
0000
0000
0000
,
0001
0001
1000
0001
,
1000
1000
0001
1000
,
1000
0001
1000
0000
,
0010
0000
0000
0100
0001
0000
0000
0010
,
0100
0000
0000
0000
0000
0000
1000
0000
0001
0000
0000
0000
0100
0000
0000
0001
,
1000
0000
0000
0000
0001
0000
0000
0000
1000
0100
0000
1000
0001
0000
0000
0000
,
1000
0000
0000
0000
0010
0000
0000
1000
0001
0000
0000
0000
1000
0000
0000
0000
,
0002
0000
0000
0000
0103
0000
0000
0010
0000
0000
0000
0000
0100
0000
0000
0000
,
0001
0000
0000
0000
0010
0000
0000
0100
0000
0010
0000
0000
0001
0000
0000
0000
,
0001
0000
0000
0000
1000
0000
0000
0100
0000
0000
0000
0000
1000
0000
0000
0000
,
0001
0000
0000
0000
1000
0000
0000
0010
0000
0100
0000
0000
0001
0000
1100
0000
,
0010
0000
0000
0001
0000
0000
0000
0000
1000
0000
0000
0000
0001
0000
0000
0000
,
0010
0000
0000
0100
0000
0010
0000
0000
0001
0000
0000
0000
1000
0000
0000
0000
,
0010
0000
0000
0100
0000
0000
0000
0000
0001
0000
0000
0000
0100
0000
0000
0000
,
0001
0000
0000
0100
0000
1000
0000
0000
0100
0000
0000
0000
0001
0000
0000
0000
,
1000
0000
0000
0100
0000
0000
0000
0000
0001
0000
0000
0000
0100
0000
0000
0000
,
1000
0000
0000
0010
0000
0001
0000
0000
0010
0000
0000
0000
1000
0000
0000
0000
,
0100
0000
0000
0010
0000
0000
0000
0000
0100
0000
0000
0000
1000
0000
0000
0000
,
0001
0000
0000
1000
0000
0100
0000
0000
0010
0000
0000
0000
0100
0000
0000
0000
,
1000
0000
0000
0000
0000
0000
0000
0000
0000
0000
0000
0000
0000
0000
0000
0000
0000
0000
0000
0000
0000
0000
0000
0000
0000
0000
0000
0000
0000
0000
0000
0000
0000
0000
0000
0000
0000
0000
0000
0000
0000
0000
0000
0000
0000
0000
0000
0000
0202
0303
0000
0000
0000
0000
0000
0000
0000
0000
0000
0000
0000
0000
0000
0000
0000
0000
0000
0000
0000
0000
0000
0000
0000
0000
0000
0000
0000
0000
0000
0000
0000
0000
0000
0000
0000
0000
0000
0000
0000
0000
0000
0000
0000
0000
0000
0000
1000
0000
0000
0000
0000
0000
0000
0000
0000
0000
0000
0000
0000
0000
0000
0000
0000
0000
0000
0000
0000
0000
0000
0000
0000
0000
0000
0000
0000
0000
0000
0000
0000
0000
0000
0000
0000
0000
0000
0000
0000
0000
0000
0000
0000
0000
0000
0000
1000
0000
0000
0000
0000
0000
0000
0000
0000
0000
0000
0000
0000
0000
0000
0000
0000
0000
0000
0000
0000
0000
0000
0000
0000
0000
0000
0000
0000
0000
0000
0000
0000
0000
0000
0000
0000
0000
0000
0000
0000
0000
0000
0000
0000
0000
0000
0000
,
0001
0000
0000
0000
0001
0000
0000
0000
1000
0000
0000
0100
0000
0000
0001
0000
,
0100
1000
0010
0010
,
0100
0000
0000
0000
0100
0000
0000
0000
1000
0000
0000
0100
0000
0000
0001
0000
,
1000
0001
0010
0010
,
0100
0000
0000
0000
0100
0000
0000
0000
0001
0000
0000
0100
0000
0000
1000
0000
,
0001
0100
0001
0001
,
1000
0000
0000
0000
1000
0000
0000
0000
0001
0000
0000
0010
0000
0000
1000
0000
,
0010
0000
0000
0000
0000
0000
0000
0000
0001
0000
0000
0000
0000
0000
0000
0000
1000
0000
0000
0100
1000
0000
0000
0000
0001
0000
0000
0100
0001
0000
0000
0000
,
1000
0100
1000
0000
0001
0100
0001
0000
2002
0000
0000
0000
0000
0000
3003
0000
,
1001
0110
1001
0001
,
0010
0000
0000
0100
0000
0000
0010
0000
0001
0000
0000
0000
1000
0000
0000
0000
,
1001
0110
1001
1000
,
0010
0000
0000
0100
0000
0000
0010
0000
1000
0000
0000
0000
0001
0000
0000
0000
,
0011
0110
1100
1000
,
0100
0000
0000
0010
0000
0000
0001
0000
1000
0000
0000
0000
0010
0000
0000
0000
,
1010
0110
0101
0001
,
0010
0000
0000
0100
0000
0000
1000
0000
0010
0000
0000
0000
0100
0000
0000
0000
,
0001
1000
0010
1000
0001
0000
1000
0000
,
0100
0000
0000
0010
0000
0000
0100
0000
1000
0000
0000
0000
0001
0000
0000
0000
,
1000
0010
0001
0010
1000
0000
0001
0000
,
1001
1001
0110
1001
,
0010
0001
0000
0000
;

//---------------dance-single - ----------------
#NOTEDATA:;
#CHARTNAME:;
#STEPSTYPE:dance-single;
#DESCRIPTION:;
#CHARTSTYLE:;
#DIFFICULTY:Challenge;
#METER:10;
#RADARVALUES:0.409268,0.946433,0.482727,0.325316,0.272846,273.000000,227.000000,46.000000,31.000000,0.000000,0.000000,0.000000,0.000000,0.000000,0.409268,0.946433,0.482727,0.325316,0.272846,273.000000,227.000000,46.000000,31.000000,0.000000,0.000000,0.000000,0.000000,0.000000;
#CREDIT:;
#DISPLAYBPM:140.000000;
#NOTES:
// measure 0
0000
0000
0000
0000
,  // measure 1
0020
0030
0020
0030
0020
0030
0020
0030
,  // measure 2
0020
0030
0020
0030
0020
0030
0020
0030
,  // measure 3
0020
0030
0020
0030
0020
0030
0020
0030
,  // measure 4
0020
0000
0030
0000
0020
0000
0030
0000
0020
0030
0000
0000
0000
0000
0000
0000
,  // measure 5
0020
0030
2000
3000
0020
0030
0002
0003
,  // measure 6
0020
0030
2000
3000
0200
0300
0002
0003
,  // measure 7
2000
3000
0020
0030
0001
0000
0000
0000
,  // measure 8
0010
0000
0000
0001
0100
0000
0000
0010
,  // measure 9
1000
0000
0000
0000
0000
0000
0100
0000
0001
0000
0000
0000
0100
0000
0000
1000
,  // measure 10
0001
0000
0000
0000
1000
0000
0000
0000
0010
0100
0000
0001
1000
0000
0000
0000
,  // measure 11
0001
0000
0000
0000
0010
0000
0000
0100
1000
0000
0000
0000
0001
0000
0000
0000
,  // measure 12
2000
0000
0000
0000
3001
0000
0000
0100
0000
0000
0000
0000
1000
0000
0000
0000
,  // measure 13
0100
0000
0000
0000
0001
0000
0000
1000
0000
0100
0000
0000
0001
0000
0000
0000
,  // measure 14
0100
0000
0000
0000
1000
0000
0000
0010
0000
0000
0000
0000
0001
0000
0000
0000
,  // measure 15
0010
0000
0000
0000
1000
0000
0000
0001
0000
0010
0000
0000
0001
0000
0110
0000
,  // measure 16
1000
0000
0000
0100
0000
0000
0000
0000
1000
0000
0000
0000
0100
0000
0000
0000
,  // measure 17
1000
0000
0000
0010
0000
0010
0000
0000
0001
0000
0000
0000
1000
0000
0000
0000
,  // measure 18
0100
0000
0000
1000
0000
0000
0000
0000
0100
0000
0000
0000
1000
0000
0000
0000
,  // measure 19
0001
0000
0000
0010
0000
0010
0000
0000
1000
0000
0000
0000
0001
0000
0000
0000
,  // measure 20
0100
0000
0000
1000
0000
0000
0000
0000
0100
0000
0000
0000
0001
0000
0000
0000
,  // measure 21
1000
0000
0000
0010
0000
0010
0000
0000
0001
0000
0000
0000
0010
0000
0000
0000
,  // measure 22
1000
0000
0000
0010
0000
0000
0000
0000
0001
0000
0000
0000
0100
0000
0000
0000
,  // measure 23
1000
0000
0000
0100
0000
0100
0000
0000
1000
0000
0000
0000
0001
0000
0000
0000
,  // measure 24
0011
0000
0000
0000
0000
0000
0000
0000
0000
0000
0000
0000
0000
0000
0000
0000
0000
0000
0000
0000
0000
0000
0000
0000
0000
0000
0000
0000
0000
0000
0000
0000
0000
0000
0000
0000
0000
0000
0000
0000
0000
0000
0000
0000
0000
0000
0000
0000
2200
3300
0000
0000
0000
0000
0000
0000
0000
0000
0000
0000
0000
0000
0000
0000
0000
0000
0000
0000
0000
0000
0000
0000
0000
0000
0000
0000
0000
0000
0000
0000
0000
0000
0000
0000
0000
0000
0000
0000
0000
0000
0000
0000
0000
0000
0000
0000
0101
0000
0000
0000
0000
0000
0000
0000
0000
0000
0000
0000
0000
0000
0000
0000
0000
0000
0000
0000
0000
0000
0000
0000
0000
0000
0000
0000
0000
0000
0000
0000
0000
0000
0000
0000
0000
0000
0000
0000
0000
0000
0000
0000
0000
0000
0000
0000
1010
0000
0000
0000
0000
0000
0000
0000
0000
0000
0000
0000
0000
0000
0000
0000
0000
0000
0000
0000
0000
0000
0000
0000
0000
0000
0000
0000
0000
0000
0000
0000
0000
0000
0000
0000
0000
0000
0000
0000
0000
0000
0000
0000
0000
0000
0000
0000
,  // measure 25
0101
0000
0000
0000
1010
0000
0000
0000
1100
0000
0000
0010
0000
0000
0001
0000
,  // measure 26
0100
0001
1100
0011
,  // measure 27
1100
0000
0000
0000
0011
0000
0000
0000
0101
0000
0000
0010
0000
0000
1000
0000
,  // measure 28
0010
0100
0120
1000
,  // measure 29
0100
0000
0000
0000
1030
0000
0000
0000
0011
0000
0000
0001
0000
0000
0010
0000
,  // measure 30
0001
1000
1200
0001
,  // measure 31
1000
0000
0000
0000
0310
0000
0000
0000
0100
0000
0000
0010
0000
0000
0001
0000
,  // measure 32
1000
0000
0000
0000
0000
0000
0000
0000
0000
0000
0000
0000
0000
0000
0000
0000
0001
0000
0000
0000
0000
0000
0000
0000
0000
0000
0000
0000
0000
0000
0000
0000
1000
0000
0000
1000
0010
0000
0010
0000
0100
0000
0000
0100
0001
0000
0001
0000
1000
0000
0000
1000
0010
0000
0010
0000
0100
0000
0000
0100
0001
0000
0001
0000
,  // measure 33
1000
0000
0001
0000
1000
0000
0001
0000
1000
0010
1000
0010
1000
0010
1000
0010
0100
0000
0001
0000
0020
0000
0000
0000
0100
0000
0000
0000
0130
0000
0000
0000
,  // measure 34
1100
0011
1100
0011
,  // measure 35
0101
0000
0000
0010
0000
0000
1000
0000
0010
0000
0000
0000
0100
0000
0000
0000
,  // measure 36
0101
1010
0101
1010
,  // measure 37
1100
0000
0000
0010
0000
0000
0001
0000
0010
0000
0000
0000
0100
0000
0000
0000
,  // measure 38
0110
1001
0110
1001
,  // measure 39
0001
0000
0000
0010
0000
0000
1000
0000
0001
0000
0000
0000
0100
0000
0000
0000
,  // measure 40
1100
0011
0101
1010
,  // measure 41
1000
0000
0000
0010
0000
0000
0001
0000
1000
0000
0000
0000
0100
0000
0000
0000
,  // measure 42
0101
0011
1100
1010
,  // measure 43
0100
0000
0000
0001
0000
0000
0010
0000
0100
0000
0000
0000
1000
0000
0000
0000
,  // measure 44
0101
1100
0011
1010
,  // measure 45
0110
0110
0110
0110
,  // measure 46
0001
1000
0000
0000
;
