#TITLE:CENSORED!!;
#SUBTITLE:;
#ARTIST:t+pazolite;
#TITLETRANSLIT:;
#SUBTITLETRANSLIT:;
#ARTISTTRANSLIT:;
#GENRE:;
#CREDIT:;
#BANNER:censored-bn.png;
#BACKGROUND:censored-bg.png;
#LYRICSPATH:;
#CDTITLE:;
#MUSIC:censored.ogg;
#OFFSET:0.000000;
#SAMPLESTART:49.230999;
#SAMPLELENGTH:12.000000;
#SELECTABLE:YES;
#BPMS:0.000000=97.500000
,16.000000=195.000000
,48.000000=390.000000
,240.000000=195.000000
,272.000000=390.000000
,397.000000=195.000000
,401.000000=390.000000
,409.000000=195.000000
,413.000000=390.000000
,445.000000=195.000000
,449.000000=390.000000
;
#STOPS:348.000000=0.450000
;
#BGCHANGES:;
#KEYSOUNDS:;
#ATTACKS:;

//---------------dance-single - ----------------
#NOTES:
     dance-single:
     :
     Challenge:
     18:
     1.162438,1.831485,1.228723,0.506956,0.171849,947.000000,804.000000,143.000000,59.000000,0.000000,0.000000,1.162438,1.831485,1.228723,0.506956,0.171849,947.000000,804.000000,143.000000,59.000000,0.000000,0.000000:
// measure 0
0000
0000
0000
0000
,  // measure 1
0000
0000
0000
0000
,  // measure 2
0100
0000
0000
0000
0100
0000
0000
0000
1001
0000
0000
0000
0000
0000
0001
0010
0100
0000
1000
0000
0100
0000
0000
0000
1001
0000
0000
0000
0010
0100
0010
0000
,  // measure 3
0001
0000
0000
0000
0001
0000
0000
0000
0110
0000
0000
0000
0000
0000
1000
0100
0010
0000
0100
0000
2000
0000
0000
0000
3010
0000
0000
0000
0000
0000
0000
0000
,  // measure 4
0210
0000
0000
0001
0000
0000
0010
0000
0000
1000
0000
0000
0310
0000
1000
0000
,  // measure 5
0200
0000
0000
0001
0000
0000
0010
0000
0000
1000
0000
0000
0310
0000
0001
0000
,  // measure 6
2000
0000
0000
0100
0000
0000
0001
0000
0000
0010
0000
0000
3100
0000
0010
0000
,  // measure 7
0002
0000
0000
1000
0000
0000
0100
0000
0000
0010
0000
0000
1003
0000
0100
0000
,  // measure 8
1001
0000
0000
1100
0000
0000
0110
0000
0000
0101
0000
0000
1010
0000
0011
0000
,  // measure 9
0110
0000
0000
1100
0000
0000
0101
0000
0000
0110
0000
0000
1010
0000
1001
0000
,  // measure 10
0011
0000
0000
1100
0000
0000
0110
0000
0000
0101
0000
0000
1010
0000
1001
0000
,  // measure 11
0010
0000
0100
1000
0001
1000
0100
0010
1000
0010
0001
1000
0001
0000
0000
0000
,  // measure 12
0110
0000
0100
1000
0010
0000
0110
0000
,  // measure 13
0100
0001
0010
0000
0100
0000
0010
0000
,  // measure 14
1001
0000
0001
0100
0000
1000
0100
0000
,  // measure 15
0000
0110
0010
0000
0001
0010
1000
0000
,  // measure 16
1001
0000
1000
0100
0010
0000
1000
0000
,  // measure 17
0010
0100
1000
0000
0010
0100
1000
0000
,  // measure 18
0100
0000
0011
0000
0010
1000
0100
0000
,  // measure 19
0010
0000
1100
0000
0010
0001
0100
0000
,  // measure 20
1001
0000
0010
1000
0001
0000
0100
0000
,  // measure 21
1000
0001
0010
0000
1000
0010
0001
0000
,  // measure 22
0110
0000
1000
0100
0000
0001
0100
0000
,  // measure 23
0000
0110
0100
0000
0001
0000
1000
0000
,  // measure 24
1100
0000
0100
0010
0000
0010
0001
0000
,  // measure 25
0101
0000
1000
0010
0000
0010
0001
0000
,  // measure 26
0100
0000
0010
0100
1000
0000
0001
0010
,  // measure 27
0100
1000
0220
0330
,  // measure 28
1000
0100
1000
0000
0011
0000
1000
0010
,  // measure 29
0100
0010
1000
0000
0101
0000
1000
0100
,  // measure 30
0010
0001
1000
0000
0110
0000
0001
0010
,  // measure 31
0100
1000
0100
0000
0101
0000
0010
0000
,  // measure 32
0001
1000
0010
0000
1001
0000
0010
0001
,  // measure 33
1000
0010
1000
0000
0101
0000
0010
0001
,  // measure 34
0100
1000
0100
0000
0011
0000
0010
1000
,  // measure 35
0100
0001
0100
0000
2100
0000
3100
0000
,  // measure 36
1000
0000
0001
0000
0011
0000
1000
0100
,  // measure 37
0010
0001
1000
0000
0101
0000
0001
1000
,  // measure 38
0010
0100
0001
0000
1100
0000
0100
0001
,  // measure 39
0100
1000
0010
0000
0110
0000
1001
0000
,  // measure 40
1002
0100
0010
0103
,  // measure 41
0010
0000
1000
0000
1010
0000
0001
0100
,  // measure 42
1000
0100
0001
0000
0110
0000
0010
1000
,  // measure 43
0001
1000
0100
0010
1000
0010
0001
1000
,  // measure 44
0001
0000
0100
0010
1000
0010
0100
0000
,  // measure 45
0101
0000
0001
0100
2000
0000
3100
0000
,  // measure 46
0011
0000
0010
1000
0010
0001
0020
0030
,  // measure 47
1100
0000
0100
0010
0200
0000
1300
0000
,  // measure 48
1010
0000
0002
0003
0100
0010
1000
0000
,  // measure 49
2000
0000
3200
0320
0130
0000
0002
0203
,  // measure 50
1300
1000
0001
0001
,  // measure 51
0100
0000
0100
1000
0001
0010
1000
0000
,  // measure 52
1010
0000
0000
0110
0000
0000
0101
0000
,  // measure 53
0000
0011
0000
0000
1100
0000
1001
0000
,  // measure 54
0011
0000
0000
0110
0000
0000
1010
0000
,  // measure 55
1000
0100
0010
0100
0001
1000
0010
0001
,  // measure 56
1000
0000
0110
0000
0002
0013
0002
0013
,  // measure 57
1000
0010
1000
0001
0200
1300
0002
0103
,  // measure 58
0020
0030
0000
0000
0000
0000
0000
0000
0000
0000
0000
0000
0000
0000
0000
0000
0000
0000
0000
0000
0000
0000
0000
0000
2000
3000
0000
0000
0000
0000
0000
0000
0000
0000
0000
0000
0000
0000
0000
0000
0000
0000
0000
0000
0000
0000
0000
0000
0200
0300
0000
0000
0000
0000
0000
0000
0000
0000
0000
0000
0000
0000
0000
0000
0000
0000
0000
0000
0000
0000
0000
0000
0020
0030
0000
0000
0000
0000
0000
0000
0000
0000
0000
0000
0000
0000
0000
0000
0000
0000
0000
0000
0000
0000
0000
0000
0002
0003
0000
0000
0000
0000
0000
0000
0000
0000
0000
0000
0000
0000
0000
0000
0000
0000
0000
0000
0000
0000
0000
0000
0200
0300
0000
0000
0000
0000
0000
0000
0000
0000
0000
0000
0000
0000
0000
0000
0000
0000
0000
0000
0000
0000
0000
0000
0020
0030
0000
0000
0000
0000
0000
0000
0000
0000
0000
0000
0000
0000
0000
0000
0000
0000
0000
0000
0000
0000
0000
0000
0002
0003
0000
0000
0000
0000
0000
0000
0000
0000
0000
0000
0000
0000
0000
0000
0000
0000
0000
0000
0000
0000
0000
0000
,  // measure 59
2000
3000
0000
0000
0000
0000
0000
0000
0000
0000
0000
0000
0000
0000
0000
0000
0000
0000
0000
0000
0000
0000
0000
0000
0200
0300
0000
0000
0000
0000
0000
0000
0000
0000
0000
0000
0000
0000
0000
0000
0000
0000
0000
0000
0000
0000
0000
0000
0020
0030
0000
0000
0000
0000
0000
0000
0000
0000
0000
0000
0000
0000
0000
0000
0000
0000
0000
0000
0000
0000
0000
0000
2000
3000
0000
0000
0000
0000
0000
0000
0000
0000
0000
0000
0000
0000
0000
0000
0000
0000
0000
0000
0000
0000
0000
0000
0200
0300
0000
0000
0000
0000
0000
0000
0000
0000
0000
0000
0000
0000
0000
0000
0000
0000
0000
0000
0000
0000
0000
0000
0020
0030
0000
0000
0000
0000
0000
0000
0000
0000
0000
0000
0000
0000
0000
0000
0000
0000
0000
0000
0000
0000
0000
0000
0002
0003
0000
0000
0000
0000
0000
0000
0000
0000
0000
0000
0000
0000
0000
0000
0000
0000
0000
0000
0000
0000
0000
0000
0000
0000
0000
0000
0000
0000
0000
0000
0000
0000
0000
0000
0000
0000
0000
0000
0000
0000
0000
0000
0000
0000
0000
0000
,  // measure 60
0010
0000
0001
0000
0010
0000
0001
0000
1000
0000
0100
0000
0100
0000
0001
0100
,  // measure 61
0010
2000
3020
0130
,  // measure 62
0001
0010
0010
0001
0010
1000
0100
0001
,  // measure 63
0200
0000
0000
0000
1300
0000
0000
0000
1010
0000
0000
0000
0000
0000
1000
0100
,  // measure 64
0010
0000
0010
0000
0001
0000
1000
0000
0010
0000
1000
0000
0001
0000
0010
0010
,  // measure 65
1000
0001
0010
0001
2000
0000
3100
0000
,  // measure 66
1000
0000
0100
0000
0100
0000
0001
0000
0010
0000
0010
0000
0001
0000
1000
0100
,  // measure 67
0001
1000
0100
0010
0002
0000
0013
0000
,  // measure 68
0001
1000
0010
0100
0001
0000
1000
0000
,  // measure 69
0010
1000
0001
1000
,  // measure 70
0010
0100
0001
1000
0100
0000
0010
0000
,  // measure 71
0100
1000
0001
1000
,  // measure 72
0010
0101
0010
1100
,  // measure 73
0001
0101
1000
1010
,  // measure 74
1000
0110
0001
0110
,  // measure 75
1000
0000
0110
0000
1001
0000
1000
0100
,  // measure 76
0010
1000
0010
0100
1000
0000
0001
0000
,  // measure 77
0100
0001
0100
0000
0010
0100
0001
0010
,  // measure 78
0100
0001
0100
1000
0001
0000
1000
0010
,  // measure 79
0100
0000
0100
0010
0001
0000
1000
0000
,  // measure 80
0010
1001
0100
1010
,  // measure 81
0100
0011
0011
0011
,  // measure 82
1000
0010
1000
0010
1000
0001
1000
0100
,  // measure 83
0010
0001
0010
0000
0100
0000
1000
0000
,  // measure 84
0002
0023
0032
0023
,  // measure 85
0230
2300
3200
1300
,  // measure 86
1100
1001
0101
0110
,  // measure 87
0011
0100
0001
1000
,  // measure 88
0010
0000
1000
0000
0001
1000
0010
0000
,  // measure 89
0100
0001
0000
0010
,  // measure 90
0000
0100
0000
0000
,  // measure 91
1000
0100
0010
0000
0010
0000
1000
0000
,  // measure 92
0001
0000
0010
0001
1000
0010
0100
0100
,  // measure 93
1000
0001
0100
0000
1000
0000
0100
0000
,  // measure 94
0001
0000
1000
0000
0100
0001
0100
0000
,  // measure 95
0020
0030
0001
0100
0010
0001
1000
0001
,  // measure 96
0010
0100
0001
0010
0100
1000
0100
0010
,  // measure 97
0001
1000
0010
0100
,  // measure 98
0010
2000
0000
3001
,  // measure 99
0000
0000
0000
0000
0210
0000
0000
1000
0000
0000
0010
0000
0000
0001
0000
0000
,  // measure 100
0310
0100
1010
0000
0000
0110
0000
0000
,  // measure 101
1001
0011
0010
0100
,  // measure 102
1000
0000
0000
0000
1200
0000
0000
0001
0000
0000
0010
0000
0000
1000
0000
0000
,  // measure 103
0310
0100
0110
0000
0000
1100
0000
0000
,  // measure 104
1010
0110
0100
0010
,  // measure 105
0001
0000
0011
0000
0000
1001
0000
0000
,  // measure 106
1100
0000
0000
1001
0000
0000
1010
0000
,  // measure 107
0011
0000
1010
0000
0000
0110
0000
0000
,  // measure 108
0101
0000
0000
0110
0000
0000
1010
0000
,  // measure 109
1100
0000
0110
0000
0000
0011
0000
0000
,  // measure 110
1001
0000
0000
1010
0000
0000
0101
0000
,  // measure 111
1010
0000
0000
0000
0100
0000
0001
0100
1000
0001
0100
1000
0100
0001
1000
0100
,  // measure 112
0010
0000
1001
0000
1000
0100
0001
0000
,  // measure 113
1001
0000
1000
0010
0001
0000
1000
0010
,  // measure 114
0100
0000
0001
0000
1000
0010
0000
0001
,  // measure 115
0010
0000
0000
0110
0100
0000
0100
0000
,  // measure 116
1000
0000
1010
0000
0100
0001
0010
0000
,  // measure 117
1010
0000
0010
0001
0100
0000
1000
0000
,  // measure 118
0001
0000
0100
0000
0010
1000
0000
0010
,  // measure 119
0001
0000
0110
0100
0000
0101
0001
0000
,  // measure 120
0010
0000
0110
0000
0100
1000
0001
0000
,  // measure 121
0110
0000
0001
1000
0010
0000
0100
0001
,  // measure 122
0100
0000
1001
0000
0010
1000
0000
0100
,  // measure 123
1000
0000
0000
1001
1000
0000
0100
0000
,  // measure 124
0010
0000
0001
0000
0100
1000
0100
0000
,  // measure 125
0001
0000
1000
0100
0010
0000
0100
0000
,  // measure 126
0010
1100
0100
0110
,  // measure 127
0010
0011
1000
2002
,  // measure 128
3003
0000
0001
0010
0100
1000
0001
0000
,  // measure 129
0100
0000
1000
0100
0010
0100
0001
0000
,  // measure 130
1000
0000
0100
0001
0100
1000
0010
0000
,  // measure 131
0100
0000
0100
1000
0100
0001
0010
0000
,  // measure 132
0100
0000
0010
0100
0010
1000
0001
0000
,  // measure 133
0100
0000
1000
0001
0100
1000
0001
0000
,  // measure 134
1000
0000
0100
0001
1000
0010
0100
0000
,  // measure 135
0001
0000
0100
0001
0010
0100
1000
0000
,  // measure 136
0100
0000
1000
0001
1000
0001
1000
0001
,  // measure 137
1000
0001
0010
0100
0010
0100
1000
0010
,  // measure 138
1000
0010
0100
0001
0100
0001
0100
0001
,  // measure 139
0100
0001
1000
0010
0100
0001
0010
0100
,  // measure 140
1000
0000
0010
0001
1000
0100
0001
1000
,  // measure 141
0010
0000
1000
0001
0010
0100
0001
0100
,  // measure 142
1000
0000
0100
0010
0001
1000
0100
0010
,  // measure 143
0001
1000
1000
0220
,  // measure 144
0330
0000
0011
0000
0000
0110
0000
0000
,  // measure 145
1010
0000
0000
1100
0000
0000
1001
0000
,  // measure 146
0101
0000
1010
0000
0000
0110
0000
0000
,  // measure 147
0011
0000
0010
0100
0010
0100
0110
0000
,  // measure 148
1001
0000
0011
0000
0000
1100
0000
0000
,  // measure 149
0011
0000
0000
1010
0000
0000
0100
0000
,  // measure 150
0010
0002
0000
0000
,  // measure 151
0010
1000
0200
0000
0000
0000
0000
0000
,  // measure 152
0000
0303
0000
0000
;

//---------------dance-single - ----------------
#NOTES:
     dance-single:
     :
     Hard:
     15:
     0.821194,1.436661,0.567103,0.274959,0.103110,669.000000,603.000000,66.000000,32.000000,0.000000,0.000000,0.821194,1.436661,0.567103,0.274959,0.103110,669.000000,603.000000,66.000000,32.000000,0.000000,0.000000:
0000
0000
0000
0000
,
0000
0000
0000
0000
,
0100
0000
0100
0000
0110
0000
0000
1000
0010
0100
0001
0000
1001
0000
0000
0001
,
0010
0000
0010
0000
0110
0000
0000
1000
0001
0010
0100
0000
1001
0000
0000
0000
,
0010
0000
0000
1000
0000
0000
0010
0000
0000
0001
0000
0000
0010
0000
1000
0000
,
0001
0000
0000
0010
0000
0000
0100
0000
0000
1000
0000
0000
0100
0000
0010
0000
,
0001
0000
0000
1000
0000
0000
0100
0000
0000
0010
0000
0000
0001
0000
0100
0000
,
1000
0000
0000
0100
0000
0000
0001
0000
0000
0010
0000
0000
0100
0000
0010
0000
,
0011
0000
0000
0011
0000
0000
1100
0000
0000
1100
0000
0000
0100
0000
0010
0000
,
0110
0000
0000
0110
0000
0000
1001
0000
0000
1001
0000
0000
0001
0000
0100
0000
,
0101
0000
0000
0101
0000
0000
1010
0000
0000
1010
0000
0000
1000
0000
0001
0000
,
0010
0000
0100
1000
0100
0000
0001
0000
0100
0000
1000
0000
0001
0000
0000
0000
,
0100
0000
0010
0100
0001
0000
0010
0000
,
0100
1000
0010
1000
,
0100
0000
0000
1000
0000
0000
0100
0000
,
0000
0001
0000
0000
1000
0000
0100
0000
,
0010
0000
0100
1000
0001
0000
1000
0000
,
0100
1000
0001
0010
,
0001
0000
1000
0000
0000
0010
0000
0000
,
0001
0000
0000
1000
0000
0000
0100
0000
,
0001
0000
1000
0100
1000
0000
0010
0000
,
0100
0001
1000
0001
,
0010
0000
0000
0100
0000
0000
0001
0000
,
0000
0100
0000
0000
1000
0000
0100
0000
,
0010
0100
1000
0001
,
1000
0100
0010
0100
,
1000
0000
0001
1000
0001
0000
1000
0000
,
0001
0000
0220
0330
,
1000
0000
1100
0000
,
0001
0100
0101
0000
,
0010
0100
1000
0100
,
0010
0001
1001
0000
,
0010
0100
0010
1000
,
0010
0100
0010
0001
,
1000
0100
0001
1000
,
0100
0010
0002
1003
,
0100
1000
0100
1000
,
0010
0100
0010
0100
,
0001
0010
0001
0010
,
1000
0010
0001
0010
,
0200
1000
1300
0001
,
0100
0001
0010
0001
,
0100
0010
0001
0010
,
1000
0001
0100
0010
,
1000
0000
0000
1000
0100
0000
0010
0000
,
0001
0100
0002
0013
,
0001
0000
0000
1000
0010
0000
2000
0000
,
3100
1000
0020
0130
,
1000
0200
0301
1000
,
0200
0000
0320
0000
0031
0010
0001
0000
,
1000
0001
1000
0001
,
1000
0000
0000
0000
,
0011
0000
0000
0011
0000
0000
1100
0000
,
0000
1100
0000
0000
0100
0000
0010
0000
,
0110
0000
0000
0110
0000
0000
1001
0000
,
0000
1001
0000
0000
0001
0000
0100
0000
,
0101
0000
1000
0100
,
0001
0100
1000
0100
,
0010
0001
1000
0100
,
0010
0000
0001
0000
1000
0100
0010
0001
,
0010
0100
0010
0100
1000
0001
1000
0100
,
0010
0002
0023
0230
,
1300
0001
0100
0010
0100
0001
1000
0010
,
0200
0000
0301
0000
0010
0000
0000
0100
,
0010
0001
0010
0100
1000
0000
1000
0000
,
0010
1000
0010
0100
0001
0000
0001
0000
,
1000
0100
1000
0001
0010
0001
1000
0010
,
0100
0010
1000
0001
0010
0000
0001
0000
,
1000
0001
1000
0001
,
0100
0001
1000
0010
,
0100
0010
0100
0010
,
1000
0100
1000
0001
,
0010
0110
0000
1100
,
0000
0110
0000
0011
,
0000
0110
0000
1100
,
0000
1001
1000
0100
,
0010
0100
0010
0100
,
0001
0100
1000
0010
,
0100
0010
0100
1000
,
0100
0001
1000
0001
,
1000
1010
0000
1001
,
0000
0101
0000
1001
,
2000
0000
0000
0000
,
3002
0000
0000
0000
,
0013
0100
0010
0100
,
1000
0001
1000
0100
,
0002
0023
2030
3200
,
0301
0100
0010
1000
,
0010
1000
0010
0100
,
0001
1000
0000
0100
,
0000
0010
0000
0000
,
1000
0010
0100
0010
,
0001
0000
1000
0000
0100
0010
0100
0000
,
1000
0001
0010
0001
,
1000
0002
0000
0103
,
0020
1030
0100
0010
,
0001
0000
1000
0010
1000
0010
1000
0010
,
1000
0001
0100
0010
,
0100
0001
0000
0001
,
0000
0000
0000
0000
1000
0000
0000
0100
0000
0000
0001
0000
0000
0100
0000
0000
,
1000
0001
1000
0000
0000
0010
0000
0000
,
0100
0001
0010
0100
,
1000
0000
0000
0000
0001
0000
0000
0010
0000
0000
0100
0000
0000
0001
0000
0000
,
0100
0010
0001
0000
0000
1000
0000
0000
,
0001
1000
0100
0010
,
0001
0000
0011
0000
0000
0011
0000
0000
,
1100
0000
0000
1100
0000
0000
0100
0000
,
0010
0000
0110
0000
0000
0110
0000
0000
,
1001
0000
0000
1001
0000
0000
0001
0000
,
0100
0000
0101
0000
0000
0101
0000
0000
,
1010
0000
0000
1010
0000
0000
1000
0000
,
0010
0000
1000
0100
1000
0010
1000
0001
,
0020
0030
0001
0000
1000
0010
1000
0000
,
0001
1000
0001
0010
,
0001
0000
1000
0000
0000
0100
0000
0000
,
0001
0000
0000
0100
0000
0000
1000
0000
,
0010
0000
0100
0000
0001
0100
0001
0000
,
0010
0001
1000
0010
,
1000
0000
0100
0000
0001
0000
0000
1000
,
0000
0000
0010
0000
0000
0001
0000
0000
,
1000
0000
0001
0000
1000
0001
1000
0000
,
0001
0100
0010
0100
,
0010
0000
1000
0000
0000
0100
0000
0000
,
0010
0000
0000
0100
0000
0000
0010
0000
,
0001
0000
1000
0000
0001
0010
0100
0000
,
0010
1000
0010
0100
,
0010
0002
1003
2000
,
3001
0002
1003
2002
,
3003
0010
0001
0010
,
0001
1000
0010
0100
,
0010
0001
0010
0100
,
1000
0100
0001
1000
,
0100
0010
0001
0010
,
0001
1000
0010
1000
,
0001
0010
0100
0001
,
0100
0010
0001
1000
,
0001
0100
0010
0100
,
0010
1000
0001
1000
,
0100
0010
0100
1000
,
0001
0010
0100
1000
,
0001
0000
0100
0000
0010
0100
0010
0000
,
1000
0000
0001
0000
1000
0001
1000
0000
,
0100
0000
0010
0000
0001
0010
0001
0000
,
0010
0100
1000
2002
,
3003
0000
0011
0000
0000
0110
0000
0000
,
1100
0000
0000
1100
0000
0000
0100
0000
,
1000
0000
1010
0000
0000
0110
0000
0000
,
0101
0000
0000
0101
0000
0000
0100
0000
,
0010
0000
0110
0000
0000
0110
0000
0000
,
1001
0000
0000
1001
0000
0000
0100
0000
,
0010
0002
0000
0000
,
0013
0100
2000
0000
0000
0000
0000
0000
,
3000
0000
0000
0000
;

//---------------dance-single - ----------------
#NOTES:
     dance-single:
     :
     Medium:
     11:
     0.585515,1.046563,0.317921,0.274959,0.034370,477.000000,440.000000,37.000000,32.000000,0.000000,0.000000,0.585515,1.046563,0.317921,0.274959,0.034370,477.000000,440.000000,37.000000,32.000000,0.000000,0.000000:
0000
0000
0000
0000
,
0000
0000
0000
0000
,
0010
0000
0010
0000
0010
0000
0000
1000
0001
0000
1000
0000
0001
0000
0000
0000
,
0010
0000
0010
0000
0010
0000
0000
0100
1000
0000
0001
0000
1000
0000
0000
0000
,
1002
0000
0000
0013
0000
0000
1000
0000
,
2000
0000
0000
0100
0000
3000
1000
0100
,
0020
0000
0000
0001
0000
0030
0010
0001
,
2000
0000
0000
3001
0000
0000
0100
0000
,
0010
0000
0000
0010
0000
0000
1000
0000
0000
1000
0000
0000
0001
0000
1000
0000
,
0001
0000
0000
0001
0000
0000
0010
0000
0000
0010
0000
0000
0100
0000
1000
0000
,
0100
0000
0000
0100
0000
0000
0010
0000
0000
0010
0000
0000
0001
0000
1000
0000
,
0200
0302
0203
1300
,
1100
0000
0001
0000
,
0100
0001
0100
0001
,
1000
0000
0010
0000
,
0100
0000
0001
0000
,
1000
0000
0100
0000
,
1000
0010
1000
0010
,
1000
0000
0001
0000
,
0010
0000
0100
0000
,
1000
0000
1000
0000
,
0001
1000
0001
0010
,
0001
0000
1000
0000
,
0100
0000
0010
0000
,
0001
0000
0000
1000
0000
0000
0010
0000
,
1000
0000
0000
0001
0000
0000
0010
0000
,
0001
1000
0100
1000
,
0001
0100
0002
0003
,
1000
0000
0110
0000
,
0001
0000
0110
0000
,
0100
0000
1001
0000
,
0010
0000
1001
0000
,
1000
0000
0011
0000
,
1000
0000
0101
0000
,
0100
0000
1010
0000
,
0001
0000
1100
0000
,
0010
0001
0010
0000
,
0100
0000
1000
0000
,
0001
0010
0001
0000
,
0100
0000
1000
0000
,
0200
0000
0301
0000
,
0010
0000
1000
0000
,
0010
0000
0001
0000
,
1000
0001
1000
0001
,
1000
0010
1000
0000
,
0001
0000
0202
0303
,
0100
0001
1000
0200
,
1300
0000
0002
0003
,
1000
0002
1003
0000
,
0200
0320
0230
0310
,
0001
1000
0010
0100
,
0001
0000
0000
0000
,
1000
0000
0000
1000
0000
0000
0010
0000
,
0000
0010
0000
0000
0100
0000
0001
0000
,
0010
0000
0000
0010
0000
0000
0100
0000
,
0000
0100
0000
0000
1000
0000
0001
0000
,
1000
0010
0100
0000
,
0001
1000
0100
0000
,
0010
0001
1000
0001
,
0100
0010
1000
0000
,
0001
0000
0001
0000
1000
0000
1000
0100
,
0010
0002
0023
0230
,
1300
0000
1000
0000
0010
0100
0001
0100
,
0010
0010
1000
0000
,
0001
0010
0001
0010
0001
0000
0100
0000
,
0010
1000
0010
1000
0010
0000
0100
0000
,
0001
0100
0001
0100
0001
0000
0010
0000
,
0100
1000
0100
1000
,
0001
1000
0100
0000
,
1000
0001
0010
0000
,
0001
1000
0010
0000
,
0100
0001
1000
0000
,
0100
0010
0100
0010
,
0100
1000
0100
0000
,
1000
0010
1000
0010
,
0100
0010
0100
0000
,
0001
0100
0010
0000
,
0100
0010
1000
0000
,
0001
0100
1000
0000
,
1000
0100
0001
0000
,
1000
0010
1000
0010
,
0100
0001
0100
0001
,
1000
0100
0010
0001
,
1000
0000
0000
0000
,
0011
0000
0011
0000
,
1100
0000
1100
0000
,
1000
0001
1000
0001
,
1000
0010
0000
0010
,
0000
1000
0001
0010
,
0100
1000
0000
1000
,
0000
1001
0000
0000
,
0000
1000
0010
0100
,
0000
0100
0010
1000
,
0000
1000
0100
0010
,
0000
0001
0000
0010
,
0000
0100
1000
0100
,
0000
0010
0001
1000
,
0000
0001
1000
0100
,
0000
0020
0000
0031
,
0000
2002
0000
0000
,
3003
0000
1001
0000
0000
0001
0000
0000
,
1000
0100
0000
0000
,
0000
0220
0000
0000
,
0330
0000
0110
0000
0000
0100
0000
0000
,
0010
0001
0000
0000
,
0000
0000
1000
0000
0000
1000
0000
0000
,
0010
0000
0000
0010
0000
0000
0100
0000
,
0001
0000
0100
0000
0000
0100
0000
0000
,
0010
0000
0000
0010
0000
0000
1000
0000
,
0100
0000
0010
0000
0000
0010
0000
0000
,
0001
0000
0000
0001
0000
0000
1000
0000
,
0001
0200
0000
0000
,
0300
0100
0000
1001
,
0000
0010
0100
0010
,
0100
0010
0000
1000
,
0000
0010
0000
0100
,
0000
0001
0000
1001
,
0000
1000
0010
1000
,
0010
1000
0000
0001
,
0000
0010
0000
0100
,
0000
1000
0000
1000
,
0000
0100
0010
0100
,
0010
0100
0000
1000
,
0000
0001
0000
1000
,
0000
0010
0000
0010
,
0000
1000
0001
1000
,
0001
2000
0000
3200
,
0000
0320
0000
0031
,
0000
0011
0000
0011
,
0000
1010
0000
1010
,
0000
0101
0000
0101
,
0000
1100
0000
0101
,
0000
1000
0010
1000
,
0010
1000
0000
0001
,
0100
0010
1000
0001
,
1000
0100
0000
0010
,
0000
0110
0000
0011
,
0000
0110
0000
1100
,
0000
1010
0000
0110
,
0000
0101
0000
0000
,
0000
1000
0100
1000
,
0100
0010
0001
0010
,
0001
1000
0001
1000
,
0001
1000
0010
0200
,
0000
0000
0310
0000
0000
0010
0000
0000
,
1000
0000
0000
1000
0000
0000
0001
0000
,
1000
0000
0100
0000
0000
0100
0000
0000
,
0010
0000
0000
0010
0000
0000
0001
0000
,
0100
0000
0010
0000
0000
0010
0000
0000
,
1000
0000
0000
1000
0000
0000
0001
0000
,
1000
0002
0000
0000
,
0000
2000
0000
0000
,
0000
3003
0000
0000
;

//---------------dance-single - ----------------
#NOTES:
     dance-single:
     :
     Easy:
     8:
     0.374386,0.649805,0.360884,0.292144,0.000000,305.000000,263.000000,42.000000,34.000000,0.000000,0.000000,0.374386,0.649805,0.360884,0.292144,0.000000,305.000000,263.000000,42.000000,34.000000,0.000000,0.000000:
0000
0000
0000
0000
,
0000
0000
0000
0000
,
2000
3001
0002
1003
,
0200
1300
2000
3100
,
2200
0000
0000
3300
,
0001
0000
0000
0001
0000
0000
0001
0000
,
0202
0000
0000
0303
,
0100
0000
0000
0100
0000
0000
0100
0000
,
1001
0000
0000
1000
0000
0000
0010
0000
,
1010
0000
0000
0010
0000
0000
1000
0000
,
0001
0000
0000
0010
0000
0000
0001
0000
,
2000
0000
0000
3000
,
1000
0000
1000
0000
,
0010
0000
1000
0000
,
0001
0000
0001
0000
,
0010
0000
0100
0000
,
1000
0000
1000
0000
,
0100
0000
0010
0000
,
0100
0000
0100
0000
,
1000
0000
0001
0000
,
1000
0000
1000
0000
,
0010
0000
0100
0000
,
0010
0000
0010
0000
,
0100
0000
0001
0000
,
0100
0000
0100
0000
,
0001
0000
0010
0000
,
0001
0000
0010
0000
,
0100
0000
0000
0000
,
1000
0000
1001
0000
,
0000
0000
0110
0000
,
0000
0000
1001
0000
,
0000
0000
0110
0000
,
0000
0000
0101
0000
,
0000
0000
1010
0000
,
0000
0000
1100
0000
,
0000
0000
0011
0000
,
0001
0000
1001
0000
,
0000
0000
1100
0000
,
0000
0000
1001
0000
,
0000
0000
0011
0000
,
0000
0000
1010
0000
,
0000
0000
0110
0000
,
0000
0000
0101
0000
,
0000
0000
1000
0000
,
1000
0000
0010
0000
,
0100
0000
0000
0000
,
0001
0000
0010
0000
,
0100
0000
0000
0000
,
0010
0000
0100
0000
,
1000
0000
0100
0000
,
0010
0000
0010
0000
,
0010
0000
0000
0000
,
2002
0000
0000
0000
,
3003
0000
0000
0000
,
0220
0000
0000
0000
,
0330
0000
0000
0000
,
2000
0000
0000
0000
,
3200
0000
0000
0000
,
0310
0001
0010
0001
,
0010
0000
0000
0000
,
0001
0001
1000
0000
,
0010
2000
3002
0203
,
0310
0010
1000
0000
,
0100
0100
0010
0000
,
0001
1000
0001
0001
,
0010
0100
1000
1000
,
0100
0010
0100
1000
,
0010
0100
0010
0000
,
1000
0000
1000
0000
,
1000
0000
0000
0001
,
0010
0000
0010
0000
,
0010
0000
0000
0100
,
1000
0000
1000
0000
,
0100
0000
0010
0000
,
0100
0000
1000
0000
,
1000
0000
0000
0000
,
0010
0000
0010
0000
,
0010
0000
0000
0100
,
0001
0000
0001
0000
,
0001
0000
0000
1000
,
0001
0000
0001
0000
,
1000
0000
0010
0000
,
0100
0000
0001
0000
,
0100
0000
0000
0000
,
1001
0000
1000
0000
,
0001
0000
1000
0000
,
0220
0000
0000
0000
,
0330
0010
0000
0010
,
0000
0100
0000
0100
,
0000
0010
0000
0100
,
0000
0010
0000
0000
,
0000
1000
0000
1000
,
0000
0100
0000
0010
,
0000
0001
0000
0001
,
0000
0100
0000
0010
,
0000
1000
0000
1000
,
0000
0010
0000
0100
,
0000
0001
0000
1000
,
0000
0001
0000
0000
,
0000
2002
0000
0000
,
3003
1001
0000
0000
,
0000
0010
0000
0000
,
0000
0220
0000
0000
,
0330
0110
0000
0000
,
0000
0100
0000
0000
,
0000
1002
0000
0000
,
0013
0000
0000
1000
,
0000
2000
0000
0000
,
3010
0000
0000
0100
,
0000
0002
0000
0000
,
0103
0000
0000
0001
,
0000
2000
0000
0000
,
3000
0001
0000
0010
,
0000
0001
0000
0001
,
0000
1000
0000
0010
,
0000
0100
0000
0100
,
0000
0010
0000
1000
,
0000
0010
0000
0010
,
0000
1000
0000
0001
,
0000
1000
0000
1000
,
0000
0100
0000
0010
,
0000
0100
0000
0100
,
0000
1000
0000
0100
,
0000
0010
0000
0010
,
0000
0100
0000
0010
,
0000
0001
0000
0001
,
0000
1000
0000
0001
,
0000
1000
0000
0000
,
0000
0010
0000
0110
,
0000
0000
0000
0110
,
0000
0100
0000
0101
,
0000
0000
0000
0101
,
0000
0001
0000
0011
,
0000
0000
0000
0011
,
0000
0001
0000
1001
,
0000
0000
0000
1001
,
0000
1000
0000
0010
,
0000
1000
0000
1000
,
0000
0100
0000
0010
,
0000
0001
0000
0010
,
0000
0100
0000
0010
,
0000
0100
0000
0100
,
0000
1000
0000
0010
,
0000
0100
0000
0001
,
0000
2002
0000
0000
,
0000
3003
0000
0000
,
0000
0220
0000
0000
,
0000
0330
0000
0000
,
0000
1001
0000
0000
,
0110
0000
0000
0110
,
0000
2002
0000
0000
,
0000
3003
0000
0000
;

//---------------dance-single - ----------------
#NOTES:
     dance-single:
     :
     Beginner:
     4:
     0.133797,0.324903,0.094517,0.068740,0.000000,109.000000,98.000000,11.000000,8.000000,0.000000,0.000000,0.133797,0.324903,0.094517,0.068740,0.000000,109.000000,98.000000,11.000000,8.000000,0.000000,0.000000:
0000
0000
0000
0000
,
0000
0000
0000
0000
,
0001
0000
0000
0000
,
1000
0000
0000
0000
,
1001
0000
0000
0000
,
0000
0000
0000
0000
,
0100
0000
0000
0000
,
0000
0000
0000
0000
,
0010
0000
0000
0000
,
0010
0000
0000
0000
,
1000
0000
0000
0000
,
1000
0000
0000
0000
,
1000
0000
0000
0000
,
0000
0000
0000
0000
,
0001
0000
0000
0000
,
0000
0000
0000
0000
,
0010
0000
0000
0000
,
0000
0000
0000
0000
,
0100
0000
0000
0000
,
0000
0000
0000
0000
,
1000
0000
0000
0000
,
0000
0000
0000
0000
,
0001
0000
0000
0000
,
0000
0000
0000
0000
,
0010
0000
0000
0000
,
0000
0000
0000
0000
,
0100
0000
0000
0000
,
0100
0000
0000
0000
,
0100
0000
0000
0000
,
0000
0000
0000
0000
,
1000
0000
0000
0000
,
0000
0000
0000
0000
,
0010
0000
0000
0000
,
0000
0000
0000
0000
,
1000
0000
0000
0000
,
0000
0000
0000
0000
,
0001
0000
0000
0000
,
0000
0000
0000
0000
,
0010
0000
0000
0000
,
0000
0000
0000
0000
,
0001
0000
0000
0000
,
0000
0000
0000
0000
,
0100
0000
0000
0000
,
0000
0000
0000
0000
,
0200
0000
0000
0000
,
0300
0000
0000
0000
,
0020
0000
0000
0000
,
0030
0000
0000
0000
,
0200
0000
0000
0000
,
0300
0000
0000
0000
,
0020
0000
0000
0000
,
0030
0000
0000
0000
,
0110
0000
0000
0000
,
0000
0000
0000
0000
,
0000
0000
0000
0000
,
0000
0000
0000
0000
,
1001
0000
0000
0000
,
0000
0000
0000
0000
,
0000
0000
0000
0000
,
0000
0000
0000
0000
,
0010
0000
0010
0000
,
0010
0000
0000
0000
,
1000
0000
1000
0000
,
1000
0000
0000
0000
,
0001
0000
0000
0000
,
1000
0000
0000
0000
,
0001
0000
0001
0000
,
0001
0000
0000
0000
,
1001
0000
0000
0000
,
0000
0000
0000
0000
,
0100
0000
0000
0000
,
0000
0000
0000
0000
,
0010
0000
0000
0000
,
0010
0000
0000
0000
,
0100
0000
0000
0000
,
0000
0000
0000
0000
,
0110
0000
0000
0000
,
0000
0000
0000
0000
,
0001
0000
0000
0000
,
0000
0000
0000
0000
,
1000
0000
0000
0000
,
1000
0000
0000
0000
,
0001
0000
0000
0000
,
1000
0000
0000
0000
,
0001
0000
0000
0000
,
0001
0000
0000
0000
,
0002
0000
0000
0000
,
0003
0000
0000
0000
,
0000
0100
0000
0000
,
0000
0100
0000
0000
,
0000
0100
0000
0000
,
0000
0010
0000
0000
,
0000
0000
0000
0000
,
0000
1000
0000
0000
,
0000
0000
0000
0000
,
0000
0001
0000
0000
,
0000
0000
0000
0000
,
0000
1000
0000
0000
,
0000
0000
0000
0000
,
0000
1001
0000
0000
,
0000
0100
0000
0000
,
0000
0000
0000
0000
,
0000
1001
0000
0000
,
0000
0100
0000
0000
,
0000
0000
0000
0000
,
0000
1001
0000
0000
,
0000
0000
0000
0000
,
0000
1001
0000
0000
,
0000
0000
0000
0000
,
0000
1001
0000
0000
,
0000
0000
0000
0000
,
0000
1001
0000
0000
,
0000
0001
0000
0000
,
0000
0001
0000
0000
,
0000
0001
0000
0000
,
0000
0000
0000
0000
,
0000
1000
0000
0000
,
0000
1000
0000
0000
,
0000
1000
0000
0000
,
0000
0000
0000
0000
,
0000
0010
0000
0000
,
0000
0000
0000
0000
,
0000
0100
0000
0000
,
0000
0000
0000
0000
,
0000
0010
0000
0000
,
0000
0010
0000
0000
,
0000
0010
0000
0000
,
0000
0000
0000
0000
,
0000
0100
0000
0000
,
0000
0100
0000
0000
,
0000
0100
0000
0000
,
0000
0000
0000
0000
,
0000
0001
0000
0000
,
0000
0001
0000
0000
,
0000
0001
0000
0000
,
0000
0000
0000
0000
,
0000
1000
0000
0000
,
0000
1000
0000
0000
,
0000
1000
0000
0000
,
0000
0000
0000
0000
,
0000
0010
0000
0000
,
0000
0000
0000
0000
,
0000
0100
0000
0000
,
0000
0000
0000
0000
,
0000
0002
0000
0000
,
0000
0003
0000
0000
,
0000
0002
0000
0000
,
0000
0003
0000
0000
,
0000
1000
0000
0000
,
0000
1000
0000
0000
,
0000
2000
0000
0000
,
0000
3000
0000
0000
;
