#TITLE:Break On Through;
#SUBTITLE:(To The Other Side);
#ARTIST:The Doors;
#TITLETRANSLIT:;
#SUBTITLETRANSLIT:;
#ARTISTTRANSLIT:;
#GENRE:;
#CREDIT:;
#BANNER:break-bn.png;
#BACKGROUND:break-bg.png;
#LYRICSPATH:;
#CDTITLE:;
#MUSIC:break.ogg;
#OFFSET:0.000000;
#SAMPLESTART:17.990000;
#SAMPLELENGTH:12.000000;
#SELECTABLE:YES;
#BPMS:0.000000=188.000000
,44.000000=182.000000
,60.000000=186.000000
,88.000000=184.000000
,108.000000=180.000000
,112.000000=173.000000
,120.000000=180.000000
,144.000000=186.000000
,152.000000=184.000000
,160.000000=186.000000
,204.000000=182.000000
,224.000000=183.000000
,232.000000=184.000000
,240.000000=170.000000
,248.000000=176.000000
,264.000000=180.000000
,268.000000=178.000000
,280.000000=179.000000
;
#STOPS:
;
#BGCHANGES:;
#KEYSOUNDS:;
#ATTACKS:;

//---------------dance-single - ----------------
#NOTES:
     dance-single:
     :
     Beginner:
     2:
     0.116759,0.182173,0.000000,0.147708,0.000000,83.000000,83.000000,0.000000,15.000000,0.000000,0.000000,0.116759,0.182173,0.000000,0.147708,0.000000,83.000000,83.000000,0.000000,15.000000,0.000000,0.000000:
0000
0000
0000
0000
,
0000
0000
0000
0000
,
0100
0000
0000
0000
,
0000
0000
0000
0000
,
0100
0000
0000
0000
,
0000
0000
0000
0000
,
0100
0000
0000
0000
,
0000
0000
0000
0000
,
0100
0000
0100
0000
,
0100
0000
0000
0000
,
0010
0000
0010
0000
,
0010
0000
0000
0000
,
2000
0000
3000
0000
,
0002
0000
0003
0000
,
0001
0000
0001
0000
,
0001
0000
0000
0000
,
0100
0000
0100
0000
,
0100
0000
0000
0000
,
0010
0000
0000
0000
,
1000
0000
0000
0000
,
0010
0000
0000
0000
,
0000
0000
0000
0000
,
0010
0000
0000
0000
,
0000
0000
0000
0000
,
0010
0000
0010
0000
,
0010
0000
0000
0000
,
0100
0000
0100
0000
,
0100
0000
0000
0000
,
0002
0000
0003
0000
,
2000
0000
3000
0000
,
1000
0000
1000
0000
,
1000
0000
0000
0000
,
0001
0000
0001
0000
,
0001
0000
0000
0000
,
0010
0000
0010
0000
,
0010
0000
0000
0000
,
2000
0000
0000
0000
,
3000
0000
1000
0000
,
0200
0000
0000
0000
,
0300
0000
0100
0000
,
2000
0000
0000
0000
,
3000
0000
1000
0000
,
0200
0000
0000
0000
,
0300
0000
0100
0000
,
2000
0000
0000
0000
,
3000
0000
1000
0000
,
1000
0000
0000
0000
,
0001
0000
0000
0000
,
1000
0000
0000
0000
,
0001
0000
0000
0000
,
1000
0000
0000
0000
,
0001
0000
0000
0000
,
0200
0000
0000
0000
,
0300
0000
0010
0000
,
0200
0000
0000
0000
,
0300
0000
0010
0000
,
0200
0000
0000
0000
,
0300
0000
0100
0000
,
0020
0000
0000
0000
,
0030
0000
0100
0000
,
0002
0000
0003
0000
,
2000
0000
3000
0000
,
0010
0000
0010
0000
,
0010
0000
0000
0000
,
1000
0000
1000
0000
,
1000
0000
0000
0000
,
0001
0000
0000
0000
,
0010
0000
0000
0000
,
0001
0000
0000
0000
,
0010
0000
0000
0000
,
0001
0000
0010
0000
,
0001
0000
0010
0000
,
0001
0000
0010
0000
,
0001
0000
0010
0000
,
0001
0000
0000
0000
;

//---------------dance-single - ----------------
#NOTES:
     dance-single:
     :
     Easy:
     4:
     0.277128,0.364345,0.078777,0.216638,0.000000,197.000000,189.000000,8.000000,22.000000,0.000000,0.000000,0.277128,0.364345,0.078777,0.216638,0.000000,197.000000,189.000000,8.000000,22.000000,0.000000,0.000000:
0000
0000
0000
0000
,
0000
0000
0000
0000
,
0010
0000
1000
0000
,
0010
0000
1000
0000
,
0001
0000
1000
0000
,
0010
0000
1000
0000
,
0001
0000
1000
0000
,
0010
0000
1000
0000
,
0010
0000
0000
0000
0010
0000
0000
0010
,
0000
0000
0001
0000
,
1000
0000
0000
0000
0100
0000
0000
1000
,
0000
0000
0100
0000
,
1002
0000
0000
0003
0000
0000
0000
0000
,
2001
0000
0000
3000
0000
0000
0000
0000
,
0100
0001
0100
0001
,
1000
0100
1000
0000
,
0010
0001
0010
0001
,
1000
0010
1000
0000
,
0010
0010
1000
0001
,
0100
0100
0100
0000
,
0100
0000
0010
0000
,
0100
0000
0000
0000
,
0100
0000
0010
0000
,
0100
0000
0000
0000
,
0010
0000
0000
0000
1000
0000
0000
0001
,
0000
0000
0010
0001
,
0100
0000
0000
0000
0001
0000
0000
1000
,
0000
0000
0010
0010
,
1002
0000
0000
1000
0003
0000
0000
0000
,
2001
0000
0000
3001
0000
0000
0000
0000
,
0100
0001
0010
0100
,
0010
0001
0100
0000
,
0010
1000
0100
0010
,
0100
1000
0010
0000
,
0100
0100
0010
1000
,
0010
1000
0010
0110
,
0010
0000
0000
0000
1000
0000
0000
0010
,
0000
0000
1000
0000
,
0001
0000
0000
0000
0100
0000
0000
0001
,
0000
0000
0100
0000
,
1000
0000
0000
0000
0100
0000
0000
0010
,
0000
0000
0001
0000
,
1000
0000
0000
0000
0010
0000
0000
0100
,
0000
0000
0001
0000
,
0100
0000
0100
0000
0100
0000
0000
0010
,
0000
0000
1000
0000
,
0001
0000
0000
0000
1000
0000
0000
0010
,
0000
0000
1000
0000
,
0001
0000
0000
0000
0010
0000
0000
0100
,
0000
0000
0010
0000
,
0001
0000
0000
0000
1000
0000
0000
0100
,
0000
0000
1000
0000
,
0001
0000
0002
0000
0000
0023
0000
0000
,
0032
0000
0000
0023
0000
0000
0130
0000
,
1000
0000
2000
0000
0000
3200
0000
0000
,
2300
0000
0000
3200
0000
0000
1300
0000
,
0001
0000
0200
0000
0000
0302
0000
0000
,
0203
0000
0000
0302
0000
0000
1003
0000
,
0010
0000
0020
0000
0000
2030
0000
0000
,
3020
0000
0000
2030
0000
0000
3010
0000
,
0120
0000
0000
0130
0000
0000
0000
0000
,
2001
0000
0000
3001
0000
0000
0000
0000
,
1000
0010
0100
0001
,
0100
0010
1000
0000
,
1000
0100
0010
0010
,
0100
1000
0001
0000
,
1000
0001
0000
1000
0000
0000
0000
0000
,
0001
1000
0000
0001
0000
0000
0000
0000
,
0100
0010
0000
0100
0000
0000
0000
0000
,
0010
0100
0000
0010
0000
0000
0000
0000
,
0010
0010
0010
0010
,
0010
0010
0010
0010
,
0010
0010
0010
0010
,
0010
0010
0010
0010
,
1001
0000
0000
0000
;

//---------------dance-single - ----------------
#NOTES:
     dance-single:
     :
     Medium:
     8:
     0.431869,0.510083,0.334804,0.413581,0.000000,307.000000,273.000000,34.000000,42.000000,0.000000,0.000000,0.431869,0.510083,0.334804,0.413581,0.000000,307.000000,273.000000,34.000000,42.000000,0.000000,0.000000:
0000
0000
0000
0000
,
0000
0000
0000
0000
,
0002
0000
0000
0000
0013
0000
0000
2000
,
0000
0010
0000
0000
3010
0000
0001
0000
,
0200
0000
0000
0000
0301
0000
0000
0020
,
0000
1000
0000
0000
1030
0000
0100
0000
,
0002
0000
0000
0000
0013
0000
0000
2000
,
0000
0100
0000
0000
3100
0000
0100
0000
,
0010
0000
0100
0000
0010
0000
0100
0010
,
0000
0000
0000
0000
,
0001
0000
1000
0100
0000
0000
1000
0001
,
0000
0000
0000
1001
,
0110
0000
0000
0110
0000
0000
1000
0000
,
1001
0000
0000
0101
0000
0000
0000
0000
,
1000
0000
0100
1000
0100
0000
0010
0001
,
0010
0000
0100
1000
0000
0000
1000
0000
,
0001
0000
0100
0001
0100
0000
0010
1000
,
0010
0000
0100
0001
0000
0000
0001
0000
,
1000
0001
0000
0001
0000
0000
0010
0100
,
0010
0000
0001
1000
0000
0000
0001
0000
,
2000
0000
0000
0000
3100
0000
0000
0002
,
0000
0100
0000
0000
0103
0000
1000
0000
,
0020
0000
0000
0000
1030
0000
0000
0200
,
0000
0010
0000
0000
1300
0000
0001
0000
,
0200
0000
0000
0000
0301
0000
0000
0020
,
0000
0001
0000
0000
0130
0000
0010
0000
,
2000
0000
0000
0000
3001
0000
0000
0002
,
0000
1000
0000
0000
0010
0000
0103
0000
,
0110
0000
0000
0110
0000
0000
0001
0000
,
1001
0000
0000
1001
0000
0000
0000
0000
,
1000
0010
1000
0000
0001
0010
0001
0000
,
1000
0100
0010
0001
0000
0000
1000
0000
,
0001
0100
0001
0000
1000
0100
1000
0000
,
0001
0010
0100
1000
0000
0000
1000
0000
,
0100
1000
0100
1000
0010
0100
0010
0100
,
0001
0010
0001
0010
0000
0000
0010
0000
,
0002
0000
1003
0000
0010
0000
0000
2000
,
0000
3001
0000
0000
0100
0000
0100
0000
,
0020
0000
1030
0000
0100
0000
0000
0200
,
0000
1300
0000
0000
0001
0000
1000
0000
,
0020
0000
1030
0000
0001
0000
0000
0020
,
0000
0031
0000
0000
1000
0000
0010
0000
,
0200
0000
0310
0000
0010
0000
0000
2000
,
0000
3010
0000
0000
0100
0000
0001
0000
,
0010
0000
0110
0000
1001
0000
0000
1000
,
0000
0001
0000
0100
0001
0000
0010
0000
,
0110
0000
1001
0000
1000
0000
0000
0010
,
0000
1000
0000
0001
1000
0000
0010
0000
,
0000
0000
0100
0000
0100
0100
0000
0001
,
0000
0001
0000
0010
0100
0000
1000
0000
,
0010
0000
1000
0000
0001
0100
0000
0100
,
0000
0001
0000
1000
0010
0000
0000
0000
,
1000
0000
0202
0000
0300
0200
0000
0003
,
0002
0000
0300
0200
0000
0003
0301
0010
,
0001
0000
2200
0000
3000
2000
0000
0300
,
0200
0000
3000
2000
0000
0300
3100
1000
,
0001
0000
0022
0000
0030
2000
0000
0003
,
0200
0000
3000
0020
0000
0300
0031
0000
,
1000
0000
2002
0000
3000
2000
0000
0003
,
0002
0000
3000
2000
0000
0003
3001
0000
,
0110
0000
0000
0110
0000
0000
0010
0000
,
1001
0000
0000
1001
0000
0000
0001
1000
,
0001
0100
0010
0000
0010
0100
0001
0000
,
1000
0100
1000
0100
0000
0000
0000
0000
,
1000
0001
0100
0000
0001
0010
0100
0000
,
1000
0010
1000
0100
0000
0000
0000
0000
,
1010
1000
0100
0010
,
0011
0001
0100
0010
,
1001
0100
1000
0100
,
1001
0010
0001
0010
,
0110
1000
1001
0010
,
1001
0100
1010
0001
,
1100
0010
0101
1000
,
0011
0100
1001
0010
,
1100
0000
0000
0000
;

//---------------dance-single - ----------------
#NOTES:
     dance-single:
     :
     Hard:
     10:
     0.575356,0.619387,0.216638,0.265874,0.059083,409.000000,387.000000,22.000000,27.000000,0.000000,0.000000,0.575356,0.619387,0.216638,0.265874,0.059083,409.000000,387.000000,22.000000,27.000000,0.000000,0.000000:
// measure 0
0000
0000
0000
0000
,  // measure 1
0000
0000
0000
0000
,  // measure 2
0001
0000
0010
0000
1000
0000
0010
0100
,  // measure 3
0000
1000
0000
0010
1000
0000
0100
0000
,  // measure 4
0010
0000
0001
0000
1000
0000
0010
1000
,  // measure 5
0000
0001
0000
0010
0001
0000
0100
0000
,  // measure 6
0100
0000
1000
0000
0100
0000
0001
1000
,  // measure 7
0000
0100
0000
1000
0001
0000
0001
0000
,  // measure 8
1000
0000
0100
0000
1000
0000
0010
0100
,  // measure 9
0000
0001
0000
0010
0001
0000
0100
0000
,  // measure 10
1000
0000
0001
0010
0000
0000
1000
0010
,  // measure 11
0000
0100
0000
1000
0100
0000
0001
1000
,  // measure 12
1001
0000
0000
0011
0000
0000
0010
0100
,  // measure 13
1100
0000
0000
1001
0000
0000
0010
0100
,  // measure 14
0010
1000
0010
1000
0001
0100
0001
0100
,  // measure 15
1000
0100
0001
1000
0000
0001
1000
0000
,  // measure 16
0010
0100
0010
0100
0010
0001
0010
0001
,  // measure 17
0010
0100
1000
0001
0000
1000
0001
0000
,  // measure 18
0100
0001
0010
0001
0100
0010
1000
0100
,  // measure 19
1000
0010
0100
0010
0000
0100
0010
0000
,  // measure 20
2000
0000
3100
0000
0002
0000
0103
0010
,  // measure 21
0000
0010
0000
1000
0002
0000
0013
0000
,  // measure 22
2000
0000
3100
0000
0200
0000
1300
0001
,  // measure 23
0000
1000
0000
0001
0100
0000
0100
0000
,  // measure 24
0020
0000
1030
0000
0200
0000
0301
0010
,  // measure 25
0000
1000
0000
0100
0001
0000
0001
0000
,  // measure 26
2000
0000
3010
0000
0002
0000
0013
0100
,  // measure 27
0000
0010
0000
0001
1000
0000
0010
1000
,  // measure 28
1010
0000
0000
0101
0000
0000
0001
1000
,  // measure 29
1010
0000
0000
0101
0000
0000
0010
0100
,  // measure 30
0010
1000
0010
0001
0010
1000
0010
0100
,  // measure 31
0001
1000
0001
0010
0000
0001
0010
0000
,  // measure 32
0001
1000
0100
0010
0100
1000
0100
0001
,  // measure 33
0100
1000
0010
0100
0000
0010
0100
0000
,  // measure 34
1000
0100
0010
0001
0100
0010
1000
0100
,  // measure 35
0010
0001
1000
0100
0000
0000
0110
0000
,  // measure 36
0002
0000
1000
0000
0013
0010
0000
1000
,  // measure 37
0000
0010
0000
1000
0001
0000
0010
0000
,  // measure 38
0000
0000
0000
0100
0010
0100
0000
0001
,  // measure 39
0000
0100
0000
1000
0100
0000
0010
0000
,  // measure 40
0010
0000
0100
0000
1001
1000
0000
0001
,  // measure 41
0000
0010
0000
0100
0010
0000
0001
0010
,  // measure 42
0100
0000
1000
0001
1000
1000
0001
1000
,  // measure 43
0000
1000
0000
0010
0100
0000
0001
0000
,  // measure 44
0100
0000
1000
0000
0100
0001
0000
0010
,  // measure 45
0000
1000
0000
0010
0001
0000
1000
0000
,  // measure 46
0100
0000
0000
1001
0000
1001
0000
0010
,  // measure 47
0001
0001
0000
0100
1000
0000
1000
0000
,  // measure 48
0002
0000
0103
0000
0101
0100
0000
0010
,  // measure 49
0000
0010
0000
0010
1000
0000
0100
0000
,  // measure 50
0110
0000
0010
0000
0001
1000
0000
0010
,  // measure 51
0000
1000
0000
0001
0100
0010
1000
0010
,  // measure 52
0100
0000
0000
0000
0000
0000
0011
0000
0000
0000
0000
0000
0000
0000
0000
0000
0000
0100
1000
0000
0000
0000
0000
1000
,  // measure 53
0001
0000
0000
0000
0000
0000
0000
0000
0001
0100
0000
0000
0000
0000
0000
0100
0000
0000
0010
0000
0000
0100
0000
0000
,  // measure 54
0010
0000
0000
0000
0000
0000
1010
0000
0000
0000
0000
0000
0000
0000
0000
0000
0000
1000
0010
0000
0000
0000
0000
0100
,  // measure 55
0001
0000
0000
0000
0000
0000
0000
0000
0100
0010
0000
0000
0000
0000
0000
1000
0000
0000
0001
0000
0000
0010
0000
0000
,  // measure 56
0001
0000
0000
0000
0000
0000
1001
0000
0000
0000
0000
0000
0000
0000
0000
0000
0000
0010
0100
0000
0000
0000
0000
0010
,  // measure 57
0100
0000
0000
0000
0000
0000
0000
0000
0001
1000
0000
0000
0000
0000
0000
0100
0000
0000
1000
0000
0000
0001
0000
0000
,  // measure 58
1000
0000
0000
0000
0000
0000
0110
0000
0000
0000
0000
0000
0000
0000
0000
0000
0000
0100
0001
0000
0000
0000
0000
0001
,  // measure 59
0100
0000
0000
0000
0000
0000
0000
0000
0100
0001
0000
0000
0000
0000
0000
1000
0000
0000
0010
0000
0000
1000
0000
0000
,  // measure 60
1010
0000
0000
0101
0000
0000
0010
0100
,  // measure 61
1100
0000
0000
0011
0000
0000
0010
0100
,  // measure 62
1000
0100
0001
0100
1000
0100
0010
0100
,  // measure 63
1000
0010
0100
0001
0000
0100
0001
0000
,  // measure 64
0010
0100
0010
0001
0010
1000
0010
0001
,  // measure 65
0010
0100
1000
0010
0000
1000
0010
0000
,  // measure 66
1000
1000
0100
0010
0001
0010
0100
1000
,  // measure 67
0001
0001
0100
0010
1000
0010
0100
0001
,  // measure 68
0100
0100
0001
0010
0100
1000
0010
1000
,  // measure 69
0100
0100
1000
0010
0100
0001
0010
0100
,  // measure 70
2000
3200
0302
0023
,  // measure 71
2030
3200
0302
0023
,  // measure 72
2030
3002
0203
2300
,  // measure 73
3020
0032
2003
3200
,  // measure 74
0310
0000
0000
0000
;
