#VERSION:0.83;
#TITLE:Blows up Everything;
#SUBTITLE:;
#ARTIST:USAO;
#TITLETRANSLIT:;
#SUBTITLETRANSLIT:;
#ARTISTTRANSLIT:;
#GENRE:;
#ORIGIN:;
#CREDIT:;
#BANNER:bn.png;
#BACKGROUND:bg.png;
#PREVIEWVID:;
#JACKET:jacket.png;
#CDIMAGE:;
#DISCIMAGE:;
#LYRICSPATH:;
#CDTITLE:;
#MUSIC:Blows up Everything.ogg;
#OFFSET:0.000000;
#SAMPLESTART:100.466026;
#SAMPLELENGTH:13.395355;
#SELECTABLE:YES;
#BPMS:0.000=215.000,
36.000=107.500,
52.000=215.000,
180.000=107.500,
228.000=215.000,
256.000=107.500,
260.000=215.000,
292.000=107.500,
300.000=215.000,
396.000=107.500;
#STOPS:;
#DELAYS:;
#WARPS:;
#TIMESIGNATURES:0.000=4=4;
#TICKCOUNTS:0.000=4;
#COMBOS:0.000=1;
#SPEEDS:0.000=1.000=0.000=0;
#SCROLLS:0.000=1.000,
36.000=1.900,
36.500=1.800,
37.000=1.700,
37.500=1.600,
38.000=1.500,
38.500=1.400,
39.000=1.300,
39.500=1.200,
40.000=1.100,
40.500=1.000,
44.000=1.100,
45.000=1.200,
46.000=1.300,
47.000=1.400,
48.000=1.500,
48.500=1.600,
49.000=1.700,
49.500=1.800,
50.000=0.500,
52.000=1.000,
148.000=1.250,
149.000=0.750,
149.500=1.250,
150.500=0.750,
151.000=1.250,
152.000=0.750,
152.500=1.250,
153.500=0.750,
154.000=1.000,
156.000=1.250,
157.000=0.750,
157.500=1.250,
158.500=0.750,
159.000=1.250,
160.000=0.750,
160.500=1.250,
161.500=0.750,
162.000=1.000,
164.000=1.250,
165.000=0.750,
165.500=1.250,
166.500=0.750,
167.000=1.250,
168.000=0.750,
168.500=1.250,
169.500=0.750,
170.000=1.000,
172.000=1.250,
173.000=0.750,
173.500=1.250,
174.500=0.750,
175.000=1.250,
176.000=0.750,
176.500=1.250,
177.500=0.750,
178.000=1.000,
180.000=2.000,
180.500=1.900,
181.000=1.800,
181.500=1.700,
182.000=1.600,
182.500=1.500,
183.000=1.400,
183.500=1.300,
184.000=1.200,
184.500=1.100,
185.000=1.000,
196.000=1.100,
196.500=1.200,
197.000=1.300,
197.500=1.400,
198.000=1.500,
202.000=1.400,
202.500=1.300,
203.000=1.150,
203.500=1.025,
204.000=0.750,
210.000=0.500,
212.000=1.500,
220.000=1.600,
221.000=1.700,
222.000=1.800,
223.000=1.900,
226.000=1.000,
228.000=0.750,
260.000=1.000,
275.000=0.500,
275.500=1.000,
288.000=0.750,
292.000=1.000,
296.000=1.350,
296.500=1.600,
297.000=1.750,
297.500=1.900,
298.000=1.000,
315.000=0.500,
315.500=1.250,
316.000=1.000,
331.000=0.500,
331.500=1.250,
332.000=1.000,
364.000=0.500,
364.500=1.250,
365.000=1.000,
396.000=0.500;
#FAKES:;
#LABELS:0.000=Song Start,
20.000=start chart,
36.000=build 1,
52.000=groove 1,
84.000=groove 2,
116.000=groove 3,
148.000=groove 4,
180.000=build 2,
196.000=build 3,
212.000=build 4,
228.000=groove 5,
260.000=groove 6,
292.000=groove 7,
300.000=groove 8,
332.000=groove 9,
365.000=groove 10,
396.000=end;
#BGCHANGES:;
#KEYSOUNDS:;
#ATTACKS:
;

//---------------dance-single - ----------------
#NOTEDATA:;
#CHARTNAME:;
#STEPSTYPE:dance-single;
#DESCRIPTION:;
#CHARTSTYLE:Pad;
#DIFFICULTY:Challenge;
#METER:12;
#RADARVALUES:0.862820,1.233240,0.362384,0.354835,0.483179,800.000000,752.000000,48.000000,47.000000,12.000000,0.000000,6.000000,0.000000,0.000000,0.862820,1.233240,0.362384,0.354835,0.483179,800.000000,752.000000,48.000000,47.000000,12.000000,0.000000,6.000000,0.000000,0.000000;
#CREDIT:Zach Bell;
#NOTES:
// measure 0
0000
0000
0000
0000
,  // measure 1
0000
0000
0000
0000
,  // measure 2
0000
0000
0000
0000
,  // measure 3
0000
0000
0000
0000
,  // measure 4
0000
0000
0000
0000
,  // measure 5
1000
0001
0100
0010
0100
0010
1000
0010
,  // measure 6
0100
0001
1000
0100
0010
0100
0010
0001
,  // measure 7
1000
0001
1000
0100
0010
0001
1000
0010
,  // measure 8
0200
0000
0000
0000
0000
0000
0000
0300
,  // measure 9
0102
0000
0000
0000
1003
0000
0000
0000
0201
0000
0300
0001
1100
0000
0000
0000
,  // measure 10
0001
0000
0000
0000
0012
0000
0000
0000
1003
0000
0000
0001
1010
0000
0000
0000
,  // measure 11
1001
1000
0001
0001
0010
0010
0100
0100
,  // measure 12
0010
0001
0010
0100
0010
0001
1000
0001
0200
0000
0000
0000
0000
0000
0300
0000
,  // measure 13
0001
0100
0010
0100
1000
0100
0010
0100
,  // measure 14
0001
0000
1000
0000
0100
0000
1000
0000
0100
00M0
0100
0000
0001
0000
1000
0000
,  // measure 15
0001
0000
0010
0000
0100
0000
0010
0000
0001
0000
0010
0M00
0010
0000
1000
0000
,  // measure 16
0010
1000
0010
0001
0010
1000
0001
0010
,  // measure 17
1000
0010
0001
1000
0010
0100
1000
0100
,  // measure 18
0001
0000
1000
0000
0100
0000
0001
0000
0100
0000
1000
0000
0100
1000
0100
0000
,  // measure 19
0010
0000
0001
0000
1000
0000
0010
0000
0100
0000
0001
0000
0100
0010
1000
0010
,  // measure 20
0100
0001
1000
0100
0001
1000
0010
0001
,  // measure 21
1000
0010
0110
0100
0001
1000
1100
0100
,  // measure 22
0010
0000
0001
0000
0011
0000
0010
0000
0100
0000
1000
0000
1100
0000
0100
0010
,  // measure 23
0001
0010
0011
0001
0010
0100
0110
0010
,  // measure 24
0001
0010
0100
1000
0001
1000
0001
0000
0100
0000
0010
0000
0100
0000
0001
0000
,  // measure 25
1000
0100
0010
1000
0001
0100
0010
1000
,  // measure 26
0010
0100
0010
0001
1000
0010
0100
1000
,  // measure 27
0001
0010
0001
1000
0100
0010
1000
0001
,  // measure 28
0020
0230
2300
3002
,  // measure 29
0013
0100
0110
0010
0001
1000
1010
0010
,  // measure 30
0100
0000
0001
0000
1001
0000
1000
0000
0100
0000
0010
0000
0110
0000
0100
1000
,  // measure 31
0001
0100
0101
0001
1000
0010
1010
1000
,  // measure 32
0100
0000
0010
0000
0011
0000
0001
0000
1000
0001
1000
0001
0100
0001
0100
0010
,  // measure 33
1000
0010
0100
1000
0001
0010
1000
0001
,  // measure 34
0010
0000
1000
0000
0001
0000
0100
0000
0010
0000
0001
0000
1000
0000
0010
0100
,  // measure 35
0001
0010
1000
0001
0100
0010
0001
1000
,  // measure 36
0010
0001
1000
0100
0010
1000
0001
000M
,  // measure 37
0002
0000
0000
0023
0000
0000
0230
0000
,  // measure 38
0000
0000
0320
0000
0000
0000
0000
0000
0031
0000
0001
0000
1000
0001
1000
0000
,  // measure 39
0020
0000
0000
0230
0000
0000
0320
0000
,  // measure 40
0000
2030
0000
0000
3001
0002
0000
0000
,  // measure 41
2003
0000
0000
3020
0000
0000
0230
0000
,  // measure 42
0000
0000
0302
0000
0000
0000
0000
0000
1003
0000
1000
0000
0100
0010
0001
0000
,  // measure 43
0020
0000
0000
0032
0000
0000
2003
0000
,  // measure 44
0000
0000
3020
0000
0000
0000
0000
0000
0130
0000
0100
0000
0010
0100
0001
0100
,  // measure 45
0020
0000
0000
0000
,  // measure 46
0000
0030
0000
0000
,  // measure 47
1000
1000
0001
0001
0010
0010
0100
0100
,  // measure 48
1000
0000
0000
0001
0100
0000
0010
1000
0000
0001
0100
0000
0000
0010
1000
0000
0200
0000
0000
0000
0000
0000
0000
0000
0000
0000
0000
0000
0300
0000
0000
0000
,  // measure 49
1000
0100
0010
0100
1000
0001
0100
0010
0100
0001
1000
0001
1000
0100
0010
0001
,  // measure 50
1000
0100
1000
0010
0100
0001
0010
0100
4000
0000
0000
0000
0000
0000
0100
0000
,  // measure 51
3001
0100
0001
1000
0100
1000
0001
0010
0001
1000
0010
1000
0001
0010
0100
0010
,  // measure 52
0001
0000
1000
0000
0010
0000
0100
0000
0010
0000
1000
0000
0002
0000
0000
0000
1000
0000
0000
1000
0000
0000
1000
0000
0003
0000
0000
0000
0000
0000
0000
0000
,  // measure 53
1000
0100
0010
0100
0001
0100
0010
0001
1000
0001
0100
0010
0100
1000
0100
0010
,  // measure 54
0100
0001
1000
0100
0001
0100
1000
0001
0100
1000
0100
0001
1000
0010
0100
0001
,  // measure 55
0010
0100
0010
0001
1000
0010
0100
0001
0010
0100
0010
0001
1000
0100
1000
0010
,  // measure 56
0100
0001
1000
0001
1000
0100
0010
0100
2000
0000
0000
0000
3000
0000
0000
0000
,  // measure 57
0001
1000
0001
0001
1001
1000
0010
0001
,  // measure 58
1000
0100
1100
0100
0001
1000
0100
0010
,  // measure 59
1010
1000
0001
0100
0101
0001
1000
0010
,  // measure 60
0001
0001
0010
0010
1000
1000
0010
0010
,  // measure 61
0002
1000
2003
0010
3002
0010
0203
0010
,  // measure 62
2300
0001
3200
0010
0302
1000
0023
1000
,  // measure 63
0230
0000
0001
0000
0320
0000
0001
0000
0031
0000
1000
0000
0001
1000
0001
0100
,  // measure 64
0002
0000
0000
0000
0000
0000
0000
0000
0000
0000
0000
0000
0000
0000
0000
0000
0000
0000
0000
0000
0000
0000
0000
0000
0000
0000
0003
0000
1000
0000
0001
0100
,  // measure 65
0001
0100
0010
1000
0100
0010
1000
0010
,  // measure 66
0001
1000
0010
0001
1000
0100
0010
1000
,  // measure 67
0001
0000
0001
0000
0010
0000
0100
0000
0010
0000
0001
1000
0010
0000
1000
0000
,  // measure 68
1010
0000
0101
0000
0011
0011
00MM
0000
,  // measure 69
0001
0010
1000
0001
0100
0010
0001
1000
,  // measure 70
0010
0100
1000
0100
0010
0100
0001
1000
,  // measure 71
0100
0000
0100
0000
0010
0000
0001
0000
1000
0000
0010
0100
0001
0000
0010
0000
,  // measure 72
0400
0000
0000
0000
0000
0000
0000
0000
4300
0000
0000
0000
0000
0000
0000
0000
3004
0000
0000
0003
0004
0000
0000
0000
MMM0
0000
0000
0000
0003
0000
0000
0000
,  // measure 73
0100
0000
0100
0000
0001
0000
0001
0000
1001
0000
0000
0000
0000
0000
1000
0001
0100
0000
0000
0000
0001
0000
0000
0000
0100
0000
0010
0000
1000
0000
0001
0000
,  // measure 74
1000
0001
1000
0001
0100
0001
0100
0001
1000
0001
1000
0100
1000
0100
0010
0100
0020
0000
0000
0000
0000
0000
0000
0000
0000
0000
0000
0000
0000
0000
0000
0000
,  // measure 75
0031
0010
0100
0010
0001
1000
0010
0100
,  // measure 76
0010
0100
0001
1000
0100
0010
0100
0001
,  // measure 77
0100
0010
0001
1000
0010
0100
0010
0100
,  // measure 78
1000
0100
0010
0100
0001
1000
M000
0000
,  // measure 79
1000
0000
1000
0000
0100
0000
0010
0000
0100
0000
1000
0000
0001
0000
0100
0010
,  // measure 80
1000
0000
0010
0000
0100
0000
0001
0000
0010
0M00
0010
0000
1000
0000
0010
0000
,  // measure 81
0100
0010
1000
0001
0010
0100
0010
0001
,  // measure 82
0011
0010
0110
0100
1100
1000
M000
0000
,  // measure 83
0011
0001
1000
0100
0001
1000
0010
0001
,  // measure 84
1000
0010
0100
1000
0100
0001
1000
0100
,  // measure 85
0001
0100
0010
0001
1000
0010
0100
1000
,  // measure 86
0100
0010
0100
0001
1000
0100
0010
0001
,  // measure 87
0100
00M0
0100
0000
1000
0000
0100
0000
0001
0000
0100
0000
0010
0000
0001
0010
,  // measure 88
0100
0000
0010
0000
0001
0000
1000
0000
0001
0000
0001
0000
0100
0010
0100
0010
,  // measure 89
1000
0000
0001
0000
0100
0000
0010
0000
1000
0000
1000
0000
0010
1000
0001
1000
,  // measure 90
2001
3000
0000
0000
2010
3000
0000
0000
0102
0003
0000
0000
2100
0000
0000
0000
,  // measure 91
3004
0003
0000
0000
1100
0000
0100
0000
0010
0000
0001
0000
1001
0000
1000
0001
,  // measure 92
0100
0010
0110
0100
0001
0010
1010
1000
,  // measure 93
0010
0001
1001
1000
0010
0100
0101
0001
,  // measure 94
0010
0000
0100
0000
0010
0100
0010
0001
0010
0100
0000
0010
0000
0001
1000
0001
,  // measure 95
0100
0010
0001
1000
0100
1000
0001
0010
,  // measure 96
1000
0100
0001
1000
0010
0100
1000
0001
,  // measure 97
1010
0000
0000
0101
0000
0000
0110
0000
0000
1100
0000
0000
0101
0001
1000
0100
,  // measure 98
0020
0000
0000
0000
0000
0000
0000
0030
,  // measure 99
1001
0000
0000
0000
;

//---------------dance-single - ----------------
#NOTEDATA:;
#CHARTNAME:;
#STEPSTYPE:dance-single;
#DESCRIPTION:;
#CHARTSTYLE:Pad;
#DIFFICULTY:Hard;
#METER:10;
#RADARVALUES:0.734476,0.822160,0.234040,0.407683,0.162318,681.000000,650.000000,31.000000,54.000000,6.000000,0.000000,10.000000,0.000000,0.000000,0.734476,0.822160,0.234040,0.407683,0.162318,681.000000,650.000000,31.000000,54.000000,6.000000,0.000000,10.000000,0.000000,0.000000;
#CREDIT:Zach Bell;
#NOTES:
// measure 0
0000
0000
0000
0000
,  // measure 1
0000
0000
0000
0000
,  // measure 2
0000
0000
0000
0000
,  // measure 3
0000
0000
0000
0000
,  // measure 4
0000
0000
0000
0000
,  // measure 5
0001
1000
0100
0010
1000
0010
0001
1000
,  // measure 6
0010
0100
0010
0001
0010
1000
0001
0010
,  // measure 7
0100
0001
0100
0010
0001
1000
0010
0100
,  // measure 8
0002
0000
0000
0000
0000
0000
0000
0003
,  // measure 9
2001
0000
0000
0000
3010
0000
0000
0000
1020
0000
0000
0130
0110
0000
0000
0000
,  // measure 10
0001
0000
0000
0000
0102
0000
0000
0000
0013
0000
0000
0001
0021
0000
0000
0000
,  // measure 11
0031
0001
0010
0010
0100
0100
0010
0010
,  // measure 12
0001
1000
0001
1000
0010
1000
0010
0100
0020
0000
0000
0000
0000
0000
0030
0000
,  // measure 13
1000
0001
0010
0001
1000
0010
0100
0001
,  // measure 14
0100
0000
0010
0000
1000
0000
0001
0000
0100
00M0
0100
0000
1000
0000
0100
0000
,  // measure 15
1000
0000
0001
0000
0010
0000
0001
0000
1000
0000
0001
0000
0100
00M0
0100
0000
,  // measure 16
2000
0000
3002
0000
0103
0200
0000
0300
,  // measure 17
0001
0001
0010
0100
0001
0100
0010
0001
,  // measure 18
1000
1000
0010
0100
1000
0100
0010
1000
,  // measure 19
0001
0001
0010
0100
0001
1000
0010
0100
,  // measure 20
2000
0000
3002
0000
0203
0000
0000
0300
,  // measure 21
0010
1000
1010
0010
0100
0010
0110
0100
,  // measure 22
0001
1000
1001
0001
0010
0001
0011
0010
,  // measure 23
0001
1000
1001
0001
0010
0100
0110
0010
,  // measure 24
0001
1000
1010
0010
2000
3000
0002
0003
,  // measure 25
1000
0010
0001
1000
0001
0010
1000
0001
,  // measure 26
0010
0000
1000
0000
0001
0000
1000
0000
0010
0000
0100
0000
1000
0000
0001
0100
,  // measure 27
0001
1000
0100
0001
1000
0010
0100
1000
,  // measure 28
0002
0023
0230
2300
,  // measure 29
3001
1000
1010
0010
0100
0001
0101
0100
,  // measure 30
0010
1000
1010
0010
1000
0001
0011
0010
,  // measure 31
0100
1000
1100
0100
0010
0100
0110
0010
,  // measure 32
0004
0000
0000
0000
4003
0000
0000
0000
3040
0000
4030
0000
3010
0100
0010
0000
,  // measure 33
0100
0001
1000
0100
0001
1000
0010
0001
,  // measure 34
1000
0000
0010
0000
0001
0000
1000
0000
0100
0000
0010
0000
1000
0000
0001
1000
,  // measure 35
0001
0100
0010
0001
1000
0100
0001
1000
,  // measure 36
0200
0320
0032
0000
,  // measure 37
2003
0000
0000
3002
0000
0000
0200
0003
,  // measure 38
0000
0320
0000
0000
0130
0100
0001
1000
,  // measure 39
0200
0000
0000
2300
0000
0000
3200
0000
,  // measure 40
0000
0320
0000
0030
0001
0100
0001
0000
,  // measure 41
0002
0000
0000
0203
0000
0000
0320
0000
,  // measure 42
0000
2030
0000
0000
3001
0001
1000
0100
,  // measure 43
0020
0000
0000
0032
0000
0000
2003
0000
,  // measure 44
0000
3020
0000
0000
0130
0200
0000
0000
,  // measure 45
0302
0000
0000
0000
,  // measure 46
0003
0000
0000
0000
,  // measure 47
1000
0000
1000
0000
0001
0000
0001
0000
0100
0000
0100
0000
0010
0100
0010
0000
,  // measure 48
1000
0010
0100
0001
1000
0100
0010
0100
2000
0000
0000
0000
3002
0000
0000
0000
,  // measure 49
0103
0010
0100
0001
1000
0100
0010
0100
,  // measure 50
1000
0000
0010
0000
0100
0000
0010
0000
4000
0000
0000
0000
0000
0000
0000
3000
,  // measure 51
0001
0100
0010
0000
0100
0001
1000
0000
0100
0010
0001
0000
0010
0100
1000
0000
,  // measure 52
0001
0000
0100
0000
0010
0000
0000
0000
1000
0000
0001
0000
0010
0000
0000
0000
0100
0000
0000
0100
0000
0000
0200
0000
0000
0000
0000
0000
0000
0000
0000
0000
,  // measure 53
1300
0100
0010
0100
1000
0001
0100
0010
,  // measure 54
0001
0010
1000
0001
0010
1000
0010
0001
,  // measure 55
1000
1000
0001
0001
0100
0100
0010
0010
,  // measure 56
1000
0001
0010
0100
1000
0001
0400
0000
,  // measure 57
0310
0000
0000
0000
1000
0000
0001
0000
0010
0M00
0010
0000
1000
0000
0001
0000
,  // measure 58
0010
0M00
0010
0000
1000
0000
0001
0000
0010
0000
1000
0000
0010
0000
0001
0000
,  // measure 59
1000
0010
0100
0001
0101
0100
0010
1000
,  // measure 60
1010
0010
0100
0100
0001
0001
000M
0000
,  // measure 61
0001
1000
0100
0001
1000
0010
0001
1000
,  // measure 62
0010
0001
1000
0100
0001
1000
0100
0010
,  // measure 63
0001
0000
0010
0000
1000
0000
0010
0000
0001
0000
1000
0000
0001
0100
0001
0100
,  // measure 64
0002
0000
0000
0000
0000
0000
0000
0000
0000
0000
0000
0000
0003
0000
1000
0001
,  // measure 65
1000
0100
0010
1000
0010
0100
1000
0010
,  // measure 66
0100
0010
0001
0010
1000
0001
0010
0100
,  // measure 67
0001
0100
1000
0001
0100
1000
0100
0001
,  // measure 68
0101
0000
1010
0000
0101
0202
0303
0000
,  // measure 69
0001
1000
0100
0001
0100
1000
0010
0001
,  // measure 70
1000
0100
0001
1000
0100
0010
0100
1000
,  // measure 71
0001
0000
0100
0000
0010
0000
1000
0000
0001
0000
0010
0100
0010
0000
0001
0000
,  // measure 72
0040
0000
0000
0000
0034
0000
0000
0000
4003
3000
4000
0000
3000
0000
0000
0000
,  // measure 73
0001
0001
0001
0000
1100
0000
0000
0001
0001
0000
0100
0000
0010
0000
1000
0000
,  // measure 74
0001
0010
0100
0010
0001
1000
0010
0100
0002
0000
0000
0000
0000
0000
0000
0000
,  // measure 75
1003
0010
0100
0001
1000
0100
0010
0100
,  // measure 76
1000
0001
1000
0010
0100
0010
0001
1000
,  // measure 77
0100
0010
1000
0001
0010
0100
0001
1000
,  // measure 78
0010
0100
1000
0001
0100
0010
2000
3000
,  // measure 79
0001
0001
1000
0010
0100
0001
1000
0010
,  // measure 80
0100
0001
1000
0100
0010
0100
1000
0001
,  // measure 81
0010
1000
0010
0001
1000
0010
0001
0010
,  // measure 82
2000
0000
3020
0000
0230
0000
0300
0M00
,  // measure 83
0100
0001
1000
0001
1000
0100
0010
1000
,  // measure 84
0010
0100
0010
0001
1000
0010
0001
1000
,  // measure 85
0100
0001
1000
0100
0010
0100
0001
1000
,  // measure 86
0010
0100
1000
0001
0100
0010
0200
0300
,  // measure 87
0001
0100
0001
1000
0100
0001
0100
1000
,  // measure 88
0001
0100
1000
0100
0001
1000
0100
0001
,  // measure 89
0100
0010
0001
1000
0010
0100
1000
0100
,  // measure 90
0010
1000
0001
0010
0100
0010
0001
1000
,  // measure 91
0022
0033
1000
0001
0100
0010
0100
0001
,  // measure 92
1000
0100
0010
1000
0010
0001
1000
0010
,  // measure 93
0001
0010
1000
0001
0010
0100
0010
0001
,  // measure 94
1000
0000
0001
0000
1000
0001
0100
0001
1000
0001
0000
0000
0000
0000
1000
0001
,  // measure 95
0100
0010
1000
0001
0010
1000
0001
1000
,  // measure 96
0010
0100
1000
0001
0100
1000
0100
0001
,  // measure 97
0101
0000
0000
0110
0000
0000
1010
0000
0000
1001
0000
0000
1100
0000
0100
1000
,  // measure 98
0200
0000
0000
0000
,  // measure 99
0300
0000
0000
0000
;

//---------------dance-single - ----------------
#NOTEDATA:;
#CHARTNAME:;
#STEPSTYPE:dance-single;
#DESCRIPTION:;
#CHARTSTYLE:Pad;
#DIFFICULTY:Beginner;
#METER:6;
#RADARVALUES:0.379641,0.597934,0.105695,0.354835,0.003775,352.000000,338.000000,14.000000,47.000000,0.000000,0.000000,0.000000,0.000000,0.000000,0.379641,0.597934,0.105695,0.354835,0.003775,352.000000,338.000000,14.000000,47.000000,0.000000,0.000000,0.000000,0.000000,0.000000;
#CREDIT:Zach Bell;
#NOTES:
// measure 0
0000
0000
0000
0000
,  // measure 1
0000
0000
0000
0000
,  // measure 2
0000
0000
0000
0000
,  // measure 3
0000
0000
0000
0000
,  // measure 4
0000
0000
0000
0000
,  // measure 5
0001
1000
0100
0010
,  // measure 6
0100
1000
0010
0100
,  // measure 7
0001
0100
0010
1000
,  // measure 8
0200
0000
0000
0000
,  // measure 9
1300
0001
1000
0101
,  // measure 10
0001
1000
0001
1100
,  // measure 11
2000
3200
0320
0032
,  // measure 12
1003
0001
1000
0001
1000
0000
0000
0000
,  // measure 13
0001
1000
0001
1000
,  // measure 14
0001
0100
0001
1000
,  // measure 15
0100
0010
0001
0010
,  // measure 16
0200
0000
0320
0000
,  // measure 17
0031
1000
0001
1000
,  // measure 18
0010
1000
0010
1000
,  // measure 19
0001
0100
0001
0100
,  // measure 20
0020
0000
0230
0000
,  // measure 21
0301
1000
1001
0000
,  // measure 22
0010
1000
1010
0000
,  // measure 23
0100
0001
0101
0000
,  // measure 24
1000
0100
1100
0000
,  // measure 25
1000
1000
0100
0100
,  // measure 26
0010
0010
0001
0001
,  // measure 27
1000
1000
0010
0010
,  // measure 28
0100
0001
1000
0000
,  // measure 29
0000
1010
0000
0101
,  // measure 30
0000
0110
0000
1100
,  // measure 31
0000
0011
0000
1100
,  // measure 32
0000
0100
1000
0001
,  // measure 33
0100
0100
0010
0010
,  // measure 34
1000
1000
0001
0001
,  // measure 35
1000
1000
0010
0010
,  // measure 36
0100
0001
1000
0100
,  // measure 37
0020
0000
0000
0230
0000
0000
0320
0000
,  // measure 38
0000
0230
0000
0000
0320
0000
0000
0000
,  // measure 39
0032
0000
0000
2003
0000
0000
3002
0000
,  // measure 40
0000
2003
0000
0000
3002
0000
0000
0000
,  // measure 41
0203
0000
0000
0320
0000
0000
0230
0000
,  // measure 42
0000
0320
0000
0000
0230
0000
0000
0000
,  // measure 43
0302
0000
0000
2003
0000
0000
3002
0000
,  // measure 44
0000
2003
0000
0000
3002
0000
0000
0000
,  // measure 45
2003
0000
0000
0000
,  // measure 46
3000
0000
0000
0000
,  // measure 47
0001
0001
1000
1000
,  // measure 48
0100
0010
0100
0010
0200
0000
0000
0000
,  // measure 49
1300
0100
1000
0000
0001
0100
0001
0000
,  // measure 50
1000
0001
1000
0001
0200
0000
0000
0000
,  // measure 51
0310
1000
0001
0010
,  // measure 52
0100
0000
0000
0000
1000
0000
0000
0000
0001
0000
0000
0002
0000
0000
0000
0000
,  // measure 53
1003
0001
1000
0000
0001
1000
0001
0000
,  // measure 54
0100
0010
0100
0010
0100
0001
1000
0000
,  // measure 55
0001
1000
0001
1000
0100
1000
0100
1000
,  // measure 56
0100
0010
0100
0010
0002
0000
0000
0000
,  // measure 57
1003
0100
1000
0001
,  // measure 58
0100
0010
0100
0001
,  // measure 59
1000
0100
1000
0100
,  // measure 60
0010
0001
1000
0010
,  // measure 61
0100
0100
0001
0001
,  // measure 62
1000
1000
0100
0010
,  // measure 63
0100
1000
0001
1000
,  // measure 64
0020
0000
0000
0000
0030
0000
0000
0100
,  // measure 65
0001
0100
0010
0100
,  // measure 66
0001
1000
0100
1000
,  // measure 67
0001
0100
0010
0100
,  // measure 68
0002
0000
2003
0000
,  // measure 69
3001
0010
0100
0010
,  // measure 70
0001
1000
0010
0100
,  // measure 71
0010
1000
0001
0010
,  // measure 72
0200
0000
0320
0000
,  // measure 73
0031
0011
0100
1100
,  // measure 74
1000
0100
1000
0100
2000
0000
0000
0000
,  // measure 75
3001
1000
0010
1000
,  // measure 76
0001
0010
0001
1000
,  // measure 77
0100
1000
0001
0100
,  // measure 78
0001
1000
0200
0300
,  // measure 79
1000
0001
0100
0001
,  // measure 80
1000
0100
1000
0001
,  // measure 81
0010
0001
1000
0010
,  // measure 82
0100
0010
2000
3000
,  // measure 83
0001
1000
0010
0100
,  // measure 84
0010
1000
0001
0010
,  // measure 85
0100
0010
0001
1000
,  // measure 86
0010
0100
0010
0100
,  // measure 87
0001
1000
0100
0010
,  // measure 88
0100
1000
0001
1000
,  // measure 89
0010
0100
0010
1000
,  // measure 90
0002
0000
2003
0000
,  // measure 91
3000
0001
1000
0001
,  // measure 92
1000
0100
0010
0100
,  // measure 93
0010
0100
1000
0001
,  // measure 94
1000
0010
0100
0010
,  // measure 95
0100
0001
1000
0001
,  // measure 96
1000
0100
0010
0001
,  // measure 97
2000
0000
3002
0000
,  // measure 98
0203
0000
0000
0000
,  // measure 99
0300
0000
0000
0000
;

//---------------dance-single - ----------------
#NOTEDATA:;
#CHARTNAME:;
#STEPSTYPE:dance-single;
#DESCRIPTION:;
#CHARTSTYLE:Pad;
#DIFFICULTY:Easy;
#METER:8;
#RADARVALUES:0.524163,0.672676,0.143444,0.475630,0.018874,486.000000,467.000000,19.000000,63.000000,0.000000,0.000000,0.000000,0.000000,0.000000,0.524163,0.672676,0.143444,0.475630,0.018874,486.000000,467.000000,19.000000,63.000000,0.000000,0.000000,0.000000,0.000000,0.000000;
#CREDIT:Zach Bell;
#NOTES:
// measure 0
0000
0000
0000
0000
,  // measure 1
0000
0000
0000
0000
,  // measure 2
0000
0000
0000
0000
,  // measure 3
0000
0000
0000
0000
,  // measure 4
0000
0000
0000
0000
,  // measure 5
1000
0001
0100
0000
0001
1000
0100
0000
,  // measure 6
0010
0100
1000
0000
0010
0100
0001
0000
,  // measure 7
0100
0010
1000
0010
0100
0001
1000
0100
,  // measure 8
2000
0000
0000
0000
,  // measure 9
3002
0003
1000
0000
0100
0000
0011
0000
,  // measure 10
0001
1000
0001
0101
,  // measure 11
0001
1000
0001
0010
0100
1000
0100
0010
,  // measure 12
0001
1000
0010
0100
0020
0000
0000
0000
,  // measure 13
1030
1000
0001
0001
,  // measure 14
0010
0000
0100
0000
1000
0100
0010
0000
,  // measure 15
0001
0000
1000
0000
0001
0000
0010
0100
,  // measure 16
2000
0000
3002
0000
0203
0000
0000
0300
,  // measure 17
0001
0100
0001
0000
1000
0000
0010
0000
,  // measure 18
1000
0001
1000
0000
0001
0000
0010
0000
,  // measure 19
0100
1000
0100
0000
0010
0000
0001
0000
,  // measure 20
2000
0000
3020
0000
0230
0000
0000
0300
,  // measure 21
0001
0101
0100
0110
,  // measure 22
0010
1010
1000
1001
,  // measure 23
0001
0011
0010
0110
,  // measure 24
0100
0010
0100
0010
0200
0000
2300
0000
,  // measure 25
3001
0000
1000
0000
0010
0100
0001
0100
,  // measure 26
0010
0000
1000
0000
0100
0010
0100
1000
,  // measure 27
0001
0000
1000
0000
0001
0100
0010
0100
,  // measure 28
0002
0203
0320
2030
,  // measure 29
3001
1001
1000
1100
,  // measure 30
0100
0110
0010
0011
,  // measure 31
0001
1001
1000
1010
,  // measure 32
0020
0030
0020
0030
1000
0010
0100
0010
,  // measure 33
1000
0000
0001
0000
0010
0100
0010
0001
,  // measure 34
1000
0000
0010
0000
0100
0010
1000
0010
,  // measure 35
0100
0000
0001
0000
1000
0100
0010
0001
,  // measure 36
2000
3002
0023
0030
,  // measure 37
0002
0000
0003
2000
0000
3000
0002
0000
,  // measure 38
0003
0200
0000
0300
0010
0020
0000
0030
,  // measure 39
0200
0000
0300
0002
0000
0003
2000
0000
,  // measure 40
3000
0200
0000
0300
0010
0020
0000
0030
,  // measure 41
0200
0000
0300
2000
0000
3000
0002
0000
,  // measure 42
0003
0200
0000
0300
0001
0002
0000
0003
,  // measure 43
2000
0000
3000
0020
0000
0030
0200
0000
,  // measure 44
0300
0002
0000
0003
1000
2000
0000
0000
,  // measure 45
3002
0000
0000
0000
,  // measure 46
0003
0000
0000
0000
,  // measure 47
1000
1000
0001
0001
0100
0100
0010
0010
,  // measure 48
1000
0001
0010
0100
2000
0000
0000
3000
,  // measure 49
0002
0000
0003
0000
,  // measure 50
1000
0000
0000
0001
0000
0000
0000
0000
0200
0000
0000
0000
0000
0000
0000
0000
,  // measure 51
0310
0100
0001
1000
0100
0010
0100
0010
,  // measure 52
0001
0000
1000
0000
0010
0000
0100
0000
0010
0000
0000
0020
0000
0000
0000
0000
,  // measure 53
0130
0001
1000
0000
0001
1000
0100
0000
,  // measure 54
0010
0100
1000
0001
0100
0010
0100
0001
,  // measure 55
1000
1000
0001
0001
0100
0100
0010
0010
,  // measure 56
1000
0001
1000
0001
2002
0000
0000
3003
,  // measure 57
1000
0100
1100
1000
,  // measure 58
0001
0100
0001
0000
0100
0000
0010
0100
,  // measure 59
0001
1000
0101
0010
,  // measure 60
0100
0010
1000
0010
0100
0001
2000
3000
,  // measure 61
0001
0001
0010
0010
,  // measure 62
0100
0000
0100
0000
1000
0100
0010
0001
,  // measure 63
1000
1000
0010
0010
,  // measure 64
0200
0000
0000
0000
0000
0000
0000
0300
,  // measure 65
0001
0000
1000
0000
0100
0010
0100
1000
,  // measure 66
0001
0000
0100
0000
0001
0100
0010
0100
,  // measure 67
0001
0000
1000
0000
0100
0010
0100
1000
,  // measure 68
0100
0000
0100
0000
1000
1000
0200
0000
,  // measure 69
1300
0000
0001
0000
0100
0010
0100
0001
,  // measure 70
0100
0000
0010
0000
0100
0001
1000
0001
,  // measure 71
0100
0000
0001
0000
1000
0100
0010
0100
,  // measure 72
2000
0000
3002
0000
1003
2000
0000
3000
,  // measure 73
0001
1000
0001
0000
1010
0000
0000
0000
1000
0000
1000
0000
0101
0000
0000
0000
,  // measure 74
0001
0100
0001
1000
0200
0000
0000
0300
,  // measure 75
1000
0100
0010
0100
0000
1000
0000
0000
,  // measure 76
0001
0000
0100
0010
0000
0100
0000
0000
,  // measure 77
0001
0100
0000
0010
0000
1000
0001
0010
,  // measure 78
0100
1000
0000
0100
0000
1000
0002
0003
,  // measure 79
1000
0001
0100
0010
0000
0100
0000
0000
,  // measure 80
0001
0000
0100
0010
1000
0001
1000
0000
,  // measure 81
0100
1000
0000
0100
0000
0010
0001
0010
,  // measure 82
0200
2300
3002
0003
,  // measure 83
0100
0001
1000
0001
0000
0100
0000
0000
,  // measure 84
0010
0000
0100
0010
0000
1000
0000
0000
,  // measure 85
0001
1000
0000
0100
0000
0010
0100
1000
,  // measure 86
0001
0100
0000
0010
0000
0100
0001
1000
,  // measure 87
0100
0010
0100
0010
0000
0001
0000
0000
,  // measure 88
1000
0000
0000
0001
0100
0010
0100
0001
,  // measure 89
1000
0100
0000
0010
0000
0100
0010
0001
,  // measure 90
2000
3002
0203
0320
,  // measure 91
0030
0000
1000
0001
0100
0001
1000
0001
,  // measure 92
0010
0001
1000
0100
0010
0100
1000
0001
,  // measure 93
1000
0100
0010
0100
1000
0001
0100
0010
,  // measure 94
0100
0001
0100
0010
1000
0001
1000
0010
,  // measure 95
1000
0001
0010
0100
0010
0001
0010
0100
,  // measure 96
1000
0001
1000
0010
1000
0001
0010
0100
,  // measure 97
1000
0000
0000
0100
0000
0000
0010
0000
0000
0001
0000
0000
1000
0000
0010
0000
,  // measure 98
0200
0000
0000
0000
,  // measure 99
0300
0000
0000
0000
;

//---------------dance-single - ----------------
#NOTEDATA:;
#CHARTNAME:;
#STEPSTYPE:dance-single;
#DESCRIPTION:;
#CHARTSTYLE:;
#DIFFICULTY:Medium;
#METER:9;
#RADARVALUES:0.682707,0.859531,0.158543,0.483179,0.162318,633.000000,612.000000,21.000000,64.000000,10.000000,0.000000,1.000000,0.000000,0.000000,0.682707,0.859531,0.158543,0.483179,0.162318,633.000000,612.000000,21.000000,64.000000,10.000000,0.000000,1.000000,0.000000,0.000000;
#CREDIT:Zach Bell;
#NOTES:
// measure 0
0000
0000
0000
0000
,  // measure 1
0000
0000
0000
0000
,  // measure 2
0000
0000
0000
0000
,  // measure 3
0000
0000
0000
0000
,  // measure 4
0000
0000
0000
0000
,  // measure 5
1000
0001
0100
0001
1000
0100
1000
0001
,  // measure 6
0010
0100
0010
0001
1000
0010
0100
0010
,  // measure 7
1000
0001
0010
0100
1000
0001
0100
0010
,  // measure 8
2000
0000
0000
0000
,  // measure 9
3010
0000
0000
0000
0101
0000
0000
0000
1000
0000
0000
0001
1100
0000
0000
0000
,  // measure 10
0001
0000
0000
0000
0010
0000
0000
0000
0001
0000
0000
1000
0011
0000
0000
0000
,  // measure 11
1000
1000
0001
0001
0100
0100
0010
0010
,  // measure 12
1000
0010
0100
0001
0010
0100
1000
0010
0200
0000
0000
0000
0000
0000
0000
0000
,  // measure 13
0301
0100
0001
1000
0001
0010
0001
0010
,  // measure 14
0100
0000
0010
0000
0001
0000
1000
0000
0010
0M00
0010
0000
0001
0000
0010
0000
,  // measure 15
0001
0000
1000
0000
0010
0000
0100
0000
0010
0000
1000
0000
0010
0M00
0010
0000
,  // measure 16
0002
0023
0230
0300
,  // measure 17
1000
1000
0001
0100
0010
1000
0001
0010
,  // measure 18
0100
0010
0001
1000
0010
0100
0010
1000
,  // measure 19
0001
0001
1000
0010
0100
0001
1000
0100
,  // measure 20
0020
0032
2003
3000
,  // measure 21
0001
0010
0011
0000
0001
0000
1001
0000
,  // measure 22
1000
0010
1010
0000
1000
0000
0101
0001
,  // measure 23
0100
0010
0110
0000
0100
0000
0101
0000
,  // measure 24
0001
0010
0011
0000
0001
0000
1100
1000
,  // measure 25
0002
0000
0000
0000
1000
0000
0000
0000
0103
0000
0000
0000
0001
0000
0100
00M0
,  // measure 26
0200
1000
0010
1300
,  // measure 27
1000
0000
0100
00M0
0200
0000
0000
0000
0001
0000
0000
0000
0010
0000
0000
0000
,  // measure 28
0302
0000
2003
0000
3020
0000
0030
00M0
,  // measure 29
1000
0010
1010
0000
0010
0100
0001
0010
,  // measure 30
0001
0010
0011
0000
0001
1000
0100
0010
,  // measure 31
0100
1000
1001
0000
0001
1000
0010
0100
,  // measure 32
0020
0000
0230
0000
0302
0000
0000
0003
,  // measure 33
1000
0000
0100
00M0
0200
0000
0000
0000
0001
0000
0000
0000
0010
0000
0000
0000
,  // measure 34
0301
0000
0000
0000
0001
0000
0100
00M0
0200
0000
0000
0000
1000
0000
0000
0000
,  // measure 35
0010
0000
0000
0000
1300
0000
0000
0000
1000
0000
0100
00M0
0100
0000
0001
0000
,  // measure 36
2000
3002
0203
0300
,  // measure 37
0020
0000
0030
2000
0000
3000
0002
0000
,  // measure 38
0003
0020
0000
0030
0100
0010
0001
1000
,  // measure 39
0020
0000
0030
0200
0000
0300
0002
0000
,  // measure 40
0003
0020
0000
0030
0100
0001
0100
0010
,  // measure 41
0002
0000
0003
2000
0000
3000
0020
0000
,  // measure 42
0030
0200
0000
0300
0010
0100
0001
0010
,  // measure 43
0200
0000
0300
0020
0000
0030
0002
0000
,  // measure 44
0003
2000
0000
3000
0010
0100
1000
0100
,  // measure 45
0002
0000
0000
0000
,  // measure 46
0000
0003
0000
0000
,  // measure 47
1000
1000
0001
0001
0100
0100
0010
0010
,  // measure 48
0100
0010
0100
0001
1000
0001
1000
0010
2000
0000
0000
0000
3002
0000
0000
0003
,  // measure 49
0100
0010
0100
0001
1000
0100
0010
0001
,  // measure 50
0010
0000
0100
0000
1000
0100
0010
0001
4000
0000
0000
0000
0000
0000
3000
0000
,  // measure 51
0001
0100
0001
0000
1000
0100
1000
0000
0010
0100
0010
0000
0100
0001
0100
0000
,  // measure 52
0010
0000
1000
0000
0010
0000
0000
0000
1000
0000
0001
0000
1000
0000
0000
0000
0010
0000
0000
0010
0000
0000
0020
0000
0000
0000
0000
0000
0000
0000
0000
0000
,  // measure 53
1030
0010
0100
0010
1000
0001
0010
0100
,  // measure 54
0010
0001
1000
0010
0001
0010
0100
0001
,  // measure 55
1000
1000
0100
0100
0010
0010
0001
0001
,  // measure 56
0010
1000
0010
0001
0020
0000
0032
0000
,  // measure 57
1003
0000
0000
0000
1000
0000
0001
0000
1000
0000
0100
00M0
0100
0000
0001
0000
,  // measure 58
1000
0000
0100
00M0
0100
0000
0001
0000
0100
0000
0001
0000
0010
0000
0001
0000
,  // measure 59
0100
1000
0100
0001
1000
0100
0001
0100
,  // measure 60
2000
3020
0230
0302
,  // measure 61
0013
0100
0001
0100
0010
0001
1000
0010
,  // measure 62
0100
1000
0100
0010
1000
0001
0010
0000
,  // measure 63
0001
1000
0100
0001
0100
1000
0010
0001
,  // measure 64
0020
0000
0000
0000
0000
0000
0000
0000
0000
0000
0000
0000
0030
0000
1000
0010
,  // measure 65
0100
0010
1000
0010
0100
0001
0010
0100
,  // measure 66
0010
0001
0100
0001
0010
0100
1000
0010
,  // measure 67
1000
0100
1000
0001
0100
0001
0010
0001
,  // measure 68
1100
0000
0011
0000
0101
0101
0000
0000
,  // measure 69
0010
1000
0100
1000
0010
0100
0001
0010
,  // measure 70
0100
1000
0010
0100
0001
0010
0100
0010
,  // measure 71
0001
0100
0010
1000
0100
0010
0001
0100
,  // measure 72
0020
0000
2030
0000
3100
0200
0000
0000
,  // measure 73
1300
1000
1000
0000
0101
0000
0000
1000
0001
0000
0100
0000
0101
0000
0001
0100
,  // measure 74
0001
0100
0001
1000
0100
1000
0100
0010
0002
0000
0000
0000
0000
0000
0003
0000
,  // measure 75
1000
0001
0010
0100
0010
0001
1000
0010
,  // measure 76
0100
0001
0010
0100
1000
0010
0100
0010
,  // measure 77
0001
0010
1000
0001
0010
0100
0010
0100
,  // measure 78
0001
0100
0010
0001
1000
0100
0020
0000
,  // measure 79
0130
1000
0001
0100
0010
1000
0100
0010
,  // measure 80
0001
0100
0010
1000
0100
0010
0100
0010
,  // measure 81
1000
0010
0001
1000
0010
0100
0010
0100
,  // measure 82
1000
0100
0001
1000
0200
0000
2300
0000
,  // measure 83
3001
0100
0010
1000
0100
0010
0001
0100
,  // measure 84
0001
0010
0100
1000
0010
0100
0001
0010
,  // measure 85
1000
0010
0001
0100
0010
1000
0100
0010
,  // measure 86
1000
0010
0100
1000
0010
0100
0002
0000
,  // measure 87
0103
0001
1000
0100
0010
0001
0100
0010
,  // measure 88
1000
0010
0100
0001
0010
0100
0010
0100
,  // measure 89
0001
0100
0010
0001
1000
0010
0100
0010
,  // measure 90
0001
0010
1000
0001
0010
0100
1000
0001
,  // measure 91
2002
3003
1000
0001
0010
0100
0010
0001
,  // measure 92
1000
0010
0100
0010
1000
0100
0010
0001
,  // measure 93
0010
0100
1000
0010
0100
0001
0010
0100
,  // measure 94
0010
0000
0001
0000
0010
0001
0010
0100
0010
0001
0000
0000
0000
0000
1000
0000
,  // measure 95
0001
1000
0010
0100
0010
1000
0100
1000
,  // measure 96
0010
0100
0001
0010
0100
0010
0001
1000
,  // measure 97
0020
0000
0000
0230
0000
0000
0302
0000
0000
0023
0000
0000
0130
1000
0200
0000
,  // measure 98
0000
0000
0000
0000
,  // measure 99
0300
0000
0000
0000
;
