#VERSION:0.83;
#TITLE:Big Daddy;
#SUBTITLE:;
#ARTIST:USAO;
#TITLETRANSLIT:;
#SUBTITLETRANSLIT:;
#ARTISTTRANSLIT:;
#GENRE:;
#ORIGIN:;
#CREDIT:;
#BANNER:bn.png;
#BACKGROUND:bg.png;
#PREVIEWVID:;
#JACKET:jacket.png;
#CDIMAGE:;
#DISCIMAGE:;
#LYRICSPATH:;
#CDTITLE:;
#MUSIC:big-daddy.mp3;
#OFFSET:-0.030000;
#SAMPLESTART:0.400000;
#SAMPLELENGTH:12.000000;
#SELECTABLE:YES;
#DISPLAYBPM:95.000000:190.000000;
#BPMS:0.000=190.000,
68.000=95.000,
70.000=190.000,
86.000=380.000,
87.000=190.000,
134.000=95.000,
158.000=190.000,
302.000=95.000;
#STOPS:86.000=0.158;
#DELAYS:;
#WARPS:;
#TIMESIGNATURES:0.000=4=4;
#TICKCOUNTS:0.000=4;
#COMBOS:0.000=1;
#SPEEDS:0.000=1.000=0.000=0;
#SCROLLS:0.000=1.000,
134.000=2.000,
134.500=1.750,
135.000=1.500,
135.500=1.250,
136.000=1.000,
150.000=1.125,
151.000=1.250,
152.000=1.375,
153.000=1.500,
154.000=1.625,
155.000=1.750,
156.000=1.875,
157.000=2.000,
158.000=1.000;
#FAKES:;
#LABELS:0.000=Song Start,
8.000=start,
40.000=build 1,
68.000=slow,
70.000=cont,
87.000=jump,
102.000=build 2,
134.000=slow rise 1,
150.000=rise,
158.000=build 3,
170.000=1 2 3 lets GO,
174.000=drop 1,
190.000=drop 1.25,
206.000=drop 1.5,
222.000=drop 1.75,
238.000=drop 2,
254.000=drop 2.5,
270.000=release 1,
302.000=end;
#BGCHANGES:;
#KEYSOUNDS:;
#ATTACKS:
;

//---------------dance-single - ----------------
#NOTEDATA:;
#CHARTNAME:(DDR 6);
#STEPSTYPE:dance-single;
#DESCRIPTION:;
#CHARTSTYLE:Pad;
#DIFFICULTY:Easy;
#METER:5;
#RADARVALUES:0.356336,0.605057,0.065889,0.216491,0.000000,265.000000,258.000000,7.000000,23.000000,0.000000,0.000000,2.000000,0.000000,0.000000,0.356336,0.605057,0.065889,0.216491,0.000000,265.000000,258.000000,7.000000,23.000000,0.000000,0.000000,2.000000,0.000000,0.000000;
#CREDIT:Elik;
#DISPLAYBPM:95.000000:190.000000;
#NOTES:
0000
0000
0000
0000
,
0000
0000
0000
0000
,
1000
0100
0010
0100
,
1000
0001
0200
0001
,
0301
0100
0010
0100
,
0002
0000
2003
0000
,
3100
0100
1000
1000
,
0001
0001
0100
0100
,
0010
0010
1000
0010
,
0100
0001
0010
0100
,
2000
0000
0000
3000
,
0000
0000
0000
0000
,
0002
0000
0000
0000
,
0003
0000
0000
0000
,
0220
0000
0000
0000
,
0000
0000
0330
0000
,
2002
0000
0000
0000
,
3003
0000
1001
1000
,
0100
0100
0010
0010
,
0001
0011
0010
0100
,
1000
0001
0100
0010
,
1000
0010
0000
1001
,
0001
0100
0100
0010
,
0010
1000
1000
0100
,
0010
0001
1000
0010
,
0100
0001
1000
0100
,
0010
0100
1000
0001
,
0100
0010
0100
0001
,
1000
0010
0200
0300
,
0002
0003
1000
0010
,
0100
0001
0010
0100
,
1000
0010
0100
0010
,
1000
0001
1000
1000
,
0001
0001
2002
0000
,
0000
0000
0000
0000
,
3003
0000
1000
0100
,
0010
0001
0010
0100
,
1000
0000
0001
0000
1000
1000
0100
0100
,
0010
0010
0001
0001
1000
1000
0010
0010
,
0100
0100
0001
0001
0100
0000
0010
0000
,
0100
0001
1000
0001
,
1000
0100
0010
0100
,
0010
0100
2000
0000
,
3200
0000
0000
0000
0310
0000
0010
0001
,
0000
0100
0000
0010
0010
0000
1000
0000
,
0100
0010
0100
1000
,
0010
0100
0001
0040
,
0000
0000
0030
0000
0010
0000
0001
0010
,
0000
0100
0000
1000
1000
0000
0100
0000
,
0010
0001
0100
0010
,
1000
0100
0020
0030
,
0020
0000
0030
0000
0100
0100
0000
1000
,
0000
0001
0000
0100
0100
0000
0010
0000
,
0100
0001
0010
0100
,
1000
0010
0100
0010
,
4000
0000
0000
0000
3010
0010
0000
0100
,
0000
0001
0000
0010
0010
0000
0100
0000
,
1000
0100
0010
0001
,
1000
0010
0200
0000
,
0320
0000
1030
0001
,
0100
1000
0100
0001
,
1000
0100
0010
0001
,
1000
0100
0001
0100
,
1000
0001
0100
0010
,
1000
0001
0010
0100
,
1000
0010
0001
0010
,
1000
0001
0020
0000
,
0230
0000
1300
1000
,
0100
0010
0001
0001
,
1000
1000
0010
0100
,
0001
1000
0001
0001
,
1000
1000
0100
0010
,
0001
1000
0010
0010
,
0100
0100
0010
0100
,
0001
0010
0100
0100
,
0010
0000
0010
0000
2002
3003
0000
0000
;

//---------------dance-single - ----------------
#NOTEDATA:;
#CHARTNAME:(DDR 11);
#STEPSTYPE:dance-single;
#DESCRIPTION:;
#CHARTSTYLE:Pad;
#DIFFICULTY:Medium;
#METER:9;
#RADARVALUES:0.817556,1.172581,0.310617,0.432982,0.207078,608.000000,575.000000,33.000000,46.000000,2.000000,0.000000,4.000000,0.000000,0.000000,0.817556,1.172581,0.310617,0.432982,0.207078,608.000000,575.000000,33.000000,46.000000,2.000000,0.000000,4.000000,0.000000,0.000000;
#CREDIT:Elik;
#DISPLAYBPM:95.000000:190.000000;
#NOTES:
0000
0000
0000
0000
,
0000
0000
0000
0000
,
0001
0010
0022
0033
2002
3003
2020
3030
,
0010
1000
0001
0010
0100
1000
0001
0100
,
0010
0100
0220
0330
0202
0303
2002
3003
,
0001
0100
1000
0100
0001
0010
1000
0010
,
0001
1000
2002
3003
2200
3300
0022
0033
,
0001
0010
0100
1000
0010
0100
0001
0010
,
0100
1000
2002
3003
0202
0303
2020
3030
,
0010
1000
0100
0000
0010
0001
0200
0300
,
0010
0100
0001
1000
0100
0010
0001
0100
,
0001
0010
0100
1000
0010
0100
0001
0010
,
0100
1000
0100
0010
0001
0100
0010
0100
,
0001
1000
0100
0010
0100
1000
0010
0100
,
0001
0010
1000
0010
0100
1000
0001
1000
,
0010
0001
0010
0100
0001
1000
0100
0010
,
1000
0010
0001
1000
0010
0001
0010
0100
,
M001
0100
0010
0100
0001
1000
0010
0100
M004
0000
0003
0000
0100
0000
0100
0000
,
1000
0100
0010
0001
1000
0010
0010
0001
,
0010
0000
0010
0000
4000
0000
0000
3000
2020
0000
3030
0000
0010
0000
0010
0000
,
0001
0010
0100
1000
0100
0100
0001
0100
,
0100
1000
0200
0000
0320
0030
0110
0100
,
1000
0010
0100
0001
0100
0100
1000
0100
,
0100
0004
0200
0303
2020
3030
1000
0010
,
0010
0001
0010
0100
2000
3000
0200
0300
,
2000
3000
0004
0003
0100
0010
0001
0010
,
1000
0100
0001
0100
0010
0001
1000
0010
,
0001
0010
1000
0001
0010
1000
0010
0100
,
1000
0001
0100
1000
0100
0010
0001
0010
,
0100
1000
0100
0001
1000
0100
0010
0001
,
0010
0100
0001
0100
0010
1000
0010
0100
,
1000
0010
0100
1000
0100
1000
0001
0010
,
1000
0001
0010
0100
0001
1000
0001
1000
,
0010
0000
0100
0000
1000
0000
0100
0000
1000
0000
0001
0000
0000
0010
0001
0000
,
0000
1000
0010
0000
0000
1000
0010
0100
0001
1000
0001
0000
0000
0010
0100
0000
,
0000
0010
0001
0001
1000
0010
0100
0001
1000
0000
0010
0000
0000
0100
0001
0000
,
0000
1000
0100
0000
0000
1000
0001
0100
0010
0100
0001
0000
1000
0001
0010
0000
,
0100
1000
0001
0100
0010
1000
0001
0010
0100
1000
0100
0010
0100
1000
0001
0100
,
0010
0100
0001
0100
1000
0100
0001
1000
0100
0010
0100
1000
0010
0100
0010
1000
,
0010
0001
0010
1000
0001
0010
0100
1000
0001
0000
0010
0000
0100
0000
0001
0000
,
0100
1000
0001
0100
1000
0100
0001
1000
,
0100
0010
1000
0010
0001
1000
0010
0001
,
0010
0100
1000
0100
0010
0000
0010
0000
,
0010
1000
0100
0000
0210
0000
0310
1100
,
0000
0101
0000
1010
1000
0001
0010
0100
,
1000
0001
0100
0010
0001
1000
0100
0001
,
1000
0100
0001
1000
0010
0001
1000
0010
,
1000
0100
0010
0001
0020
0000
0130
0011
,
0000
1100
0000
1010
0010
0100
0001
0010
,
0100
1000
0010
0100
1000
0001
0010
1000
,
0100
0001
1000
0010
0001
0100
0010
1000
,
0001
0000
0010
0000
0100
0000
1000
0000
0002
0003
0002
0003
0002
0003
0011
0000
,
0000
1010
0000
1001
1000
0010
0100
1000
,
0100
0001
1000
0100
0001
0100
0010
0001
,
1000
0010
0100
0001
0010
0100
1000
0010
,
0100
0001
0010
0100
2000
0000
3000
0011
,
0000
1100
0000
1001
0001
0100
0010
0001
,
0010
0100
0001
1000
0100
0010
1000
0010
,
0100
1000
0001
0100
1000
0001
0010
1000
,
0100
0001
1000
0010
0001
1000
0010
0100
,
0001
0010
0100
1000
0010
0100
0010
1000
,
0100
0010
0001
0100
0010
1000
0001
0010
,
0100
1000
0010
0100
0001
1000
0010
0100
,
0001
1000
0100
0010
0001
0100
0010
1000
,
0100
0010
0001
0100
0001
0010
0100
1000
,
0010
0100
0010
1000
0100
0010
0001
0100
,
0001
0010
0100
1000
0002
0000
0000
0203
,
0000
0000
0310
0010
0010
0110
0100
0001
,
1000
0001
1000
0100
0010
0001
1000
0001
,
1000
0010
0100
0001
1000
1100
0100
0010
,
0100
1000
0100
0010
0001
1000
0010
0100
,
0010
1000
0001
0010
0100
0010
0011
0001
,
1000
0010
0100
0001
1000
0100
1000
0010
,
0100
0000
0001
0000
0010
0000
0001
0000
0100
0000
0010
0000
1000
0001
1000
0000
,
0001
1000
0001
0000
2000
0000
3000
0000
1002
0000
0000
1000
0000
0000
1000
0000
,
0000
1000
0000
0000
2000
0000
3003
0000
1001
0000
0000
0000
0000
0000
0000
0000
;

//---------------dance-single - ----------------
#NOTEDATA:;
#CHARTNAME:(DDR 3);
#STEPSTYPE:dance-single;
#DESCRIPTION:;
#CHARTSTYLE:Pad;
#DIFFICULTY:Beginner;
#METER:3;
#RADARVALUES:0.267588,0.320324,0.028238,0.301205,0.000000,199.000000,196.000000,3.000000,32.000000,0.000000,0.000000,0.000000,0.000000,0.000000,0.267588,0.320324,0.028238,0.301205,0.000000,199.000000,196.000000,3.000000,32.000000,0.000000,0.000000,0.000000,0.000000,0.000000;
#CREDIT:Elik;
#DISPLAYBPM:95.000000:190.000000;
#NOTES:
0000
0000
0000
0000
,
0000
0000
0000
0000
,
0001
0001
0001
0001
,
0001
0000
0000
0000
,
1000
1000
1000
1000
,
2000
3000
0002
0003
,
0100
0100
0100
0100
,
0100
0000
0000
0000
,
0010
0010
0010
0010
,
0010
0000
1000
0000
,
0001
0000
0010
0000
,
0100
0000
1000
0000
,
0100
0000
0010
0000
,
0100
0000
1000
0000
,
0001
1000
0001
0000
,
1000
0001
1000
0000
,
0010
0100
0010
0100
,
0020
0030
1001
0000
,
0001
0000
1000
0000
,
0001
0000
1001
0000
,
1000
0000
0001
0000
,
0020
0000
0030
0010
,
0000
0100
0000
1000
,
0000
0010
0000
0100
,
0000
0010
1000
1000
,
1000
2000
3000
0001
,
0001
0000
1000
1000
,
1000
0000
0100
0100
,
0100
0000
0000
0000
0020
0030
0200
0300
,
0020
0030
0200
0300
0010
0000
0010
0000
,
0010
0000
0001
0001
,
0001
0000
1000
0001
,
1000
0100
1000
0001
,
0100
0001
2000
3000
,
0000
0000
0002
0023
,
0230
0000
2300
3200
,
0320
0032
2003
3020
,
0230
0302
1003
1000
,
1000
0000
0001
0001
,
0001
0000
1000
1000
,
1000
0000
0001
0001
,
0001
0000
0010
0010
,
0100
0000
0100
0000
0200
0300
0020
0030
,
0002
0003
0002
0003
1000
0000
0000
0000
,
0001
0000
0100
0000
,
0001
0000
1000
0000
,
0100
0000
0010
0010
,
0010
0000
0001
0000
,
1000
0000
0010
0000
,
0100
0000
0001
0000
,
0100
0000
0010
0010
,
0010
0010
1000
0000
,
0001
0000
1000
0100
,
1000
0000
0001
0000
,
1000
0000
0010
0100
,
0010
0000
1000
0000
,
0001
0000
0010
0001
,
0010
0000
0001
0000
,
1000
0000
0010
0100
,
0010
0100
0010
0000
,
1000
0000
0001
0000
,
0010
0000
0100
0000
,
0010
0000
0001
0000
,
1000
0000
0001
0000
,
0010
0000
0100
0000
,
1000
0000
0010
0000
,
0100
0000
0000
0000
0002
0000
0003
2000
,
0000
3000
0002
0003
0001
0000
0001
0000
,
0001
0001
0001
0000
,
0000
0000
1000
1000
,
1000
1000
1000
0000
,
0000
0000
0100
0100
,
0100
0100
0100
0000
,
0000
0000
0010
0010
,
0010
0000
0010
0000
0002
0000
0003
2000
,
0000
3000
0000
0000
2002
3003
0000
0000
;

//---------------dance-single - ----------------
#NOTEDATA:;
#CHARTNAME:(DDR 17);
#STEPSTYPE:dance-single;
#DESCRIPTION:;
#CHARTSTYLE:Pad;
#DIFFICULTY:Hard;
#METER:12;
#RADARVALUES:0.968158,1.173552,0.508283,0.470633,0.602410,720.000000,666.000000,54.000000,50.000000,1.000000,0.000000,1.000000,0.000000,0.000000,0.968158,1.173552,0.508283,0.470633,0.602410,720.000000,666.000000,54.000000,50.000000,1.000000,0.000000,1.000000,0.000000,0.000000;
#CREDIT:Elik;
#DISPLAYBPM:95.000000:190.000000;
#NOTES:
// measure 0
0000
0000
0000
0000
,  // measure 1
0000
0000
0000
0000
,  // measure 2
1000
0100
0011
0000
1010
0000
0101
0000
,  // measure 3
1100
0100
0001
0100
1000
0010
0001
1000
,  // measure 4
0100
0010
1010
0000
1001
0000
0011
0000
,  // measure 5
1100
2000
3200
0302
2003
3020
0032
2003
,  // measure 6
3010
0100
0101
0000
1100
0000
0011
0000
,  // measure 7
1010
0010
0001
1000
0100
1000
0001
0010
,  // measure 8
1000
0001
0011
0000
1010
0000
0011
0000
,  // measure 9
2000
0000
3002
0000
0203
0000
0000
0300
,  // measure 10
0001
0100
0001
0000
1000
0000
0100
0000
0010
0000
0100
0000
1000
0000
0001
0000
,  // measure 11
0100
0001
1000
0100
0010
0001
1000
0010
,  // measure 12
0100
0010
0100
0000
0001
0000
0100
0000
0010
0000
1000
0000
0100
0000
0001
0000
,  // measure 13
0100
1000
0001
0100
0010
0100
0001
1000
,  // measure 14
0100
0010
0100
0000
1000
0000
0001
0000
0100
0000
0010
0000
1000
0000
0001
0000
,  // measure 15
0100
0001
1000
0000
0100
0000
1000
0000
0001
0000
0100
0000
0010
0000
1000
0000
,  // measure 16
0010
0100
0001
0000
1000
0000
0100
0000
0010
0001
1000
0000
0010
0000
0100
0000
,  // measure 17
001M
1000
0100
0010
0001
0100
0010
1000
0100
0000
1000
0000
0001
0010
0100
0000
,  // measure 18
1000
0010
0100
0000
0001
0010
0100
0000
1000
0010
0100
0000
0001
0010
0100
0000
,  // measure 19
1000
0010
0100
0000
0001
0010
0100
0010
0001
0000
1000
0000
0010
0100
0001
0000
,  // measure 20
1000
0100
0010
0000
0100
0010
0001
0000
0100
0010
1000
0000
0100
0010
0100
0000
,  // measure 21
0010
0001
0100
0000
0001
0010
0100
1000
0020
0030
0000
0000
1001
0000
0001
0000
,  // measure 22
1000
0010
0100
0000
0001
1000
0100
0000
0010
0001
1000
0000
0010
0100
0001
0000
,  // measure 23
1000
0100
0010
0000
0001
1000
0010
0100
0001
0000
1000
0000
0001
0100
0010
0000
,  // measure 24
0100
0010
1000
0000
0010
1000
0001
0000
1000
0001
1000
0100
1000
0100
0010
0100
,  // measure 25
0010
0001
0010
0001
1000
0001
1000
0010
1000
0000
0001
0000
0100
0001
1000
0000
,  // measure 26
0100
0000
0001
0000
0100
0010
0001
0000
1000
0000
0010
0000
0100
1000
0100
0000
,  // measure 27
0001
0000
1000
0000
0100
0010
1000
0000
0010
0000
0001
0000
1000
0010
0100
0000
,  // measure 28
1000
0000
0100
0000
0010
0001
0010
0000
2020
3030
0000
0000
2002
3003
0000
0000
,  // measure 29
0022
0033
0000
0000
0001
0000
0010
0100
1000
0000
0001
0000
0100
0010
0001
0000
,  // measure 30
0010
0000
1000
0000
0100
0001
0100
0000
1000
0000
0001
0000
0010
1000
0010
0000
,  // measure 31
0001
0000
1000
0000
0010
0001
0010
0000
0100
0000
1000
0000
0100
1000
0100
0000
,  // measure 32
0001
0000
1000
0000
0100
0010
1000
0000
0020
0000
0100
0000
0230
0000
1000
0000
,  // measure 33
2300
0000
0001
0000
3001
0000
0000
0000
2002
3003
0001
0000
0000
1000
0001
0000
,  // measure 34
0000
0100
0010
0000
0000
1000
0010
0100
0001
1000
0100
0000
0000
0001
0100
0000
,  // measure 35
0000
0010
0100
0000
1000
0100
0001
0100
1000
0000
1000
0000
0000
0001
1000
0000
,  // measure 36
0000
0001
0100
0000
0000
1000
0100
0010
0100
0000
0001
0000
1000
0100
0010
0000
,  // measure 37
0001
0010
0100
1000
0010
1000
0100
0010
0001
0100
1000
0100
0001
1000
0100
0001
,  // measure 38
0100
0010
1000
0010
0001
1000
0010
0100
1000
0001
1000
0100
0001
1000
0100
0001
,  // measure 39
1000
0001
0100
0010
0001
1000
0010
0100
0001
0000
0100
0000
0001
0000
0100
0000
,  // measure 40
0001
1000
0001
1000
0100
1000
0100
1000
,  // measure 41
0001
0000
0010
0000
0001
0000
0010
0000
0001
1000
0001
1000
0100
1000
0100
1000
,  // measure 42
0001
1000
0001
0010
0001
1000
0010
1000
0020
0000
0000
0000
0230
0000
0000
0000
,  // measure 43
0302
0000
2000
0003
0200
0000
0000
3300
1100
0000
1000
0000
0100
0000
0011
0000
,  // measure 44
0001
1001
1000
1010
0010
0100
0001
0010
,  // measure 45
0100
0000
1000
0000
0100
0000
0010
0100
1000
0000
0001
0000
1000
0000
0010
0100
,  // measure 46
0001
0000
1000
0000
0200
0000
0010
0000
0310
0000
0001
0000
0010
0001
1000
0001
,  // measure 47
1000
0010
1000
0010
0100
0001
0400
0300
0101
0000
0001
0000
0100
0000
0110
0000
,  // measure 48
0010
1010
1000
1001
0001
1000
0100
0001
,  // measure 49
0100
0000
1000
0000
0001
0000
1000
0010
0100
0000
0001
0000
0010
0000
0100
0010
,  // measure 50
0001
0000
2000
0000
0001
0000
3001
0000
1000
0010
0100
0001
1000
0000
0100
0000
,  // measure 51
1000
0100
0010
0000
2200
0000
3300
0000
1002
0000
1000
0000
1003
0000
0101
0000
,  // measure 52
0001
1010
1000
1100
0100
0010
1000
0001
,  // measure 53
0100
0000
0010
0000
0001
0000
1000
0010
0100
0000
0001
0000
1000
0000
0100
0010
,  // measure 54
0001
0000
2000
0000
0010
0000
3010
0000
1000
0001
0100
0010
1000
0001
0010
0100
,  // measure 55
1000
0001
0100
0010
1000
0001
0010
0100
2000
0000
0000
0000
3100
0000
0011
0000
,  // measure 56
0010
0110
0100
1100
1000
0100
0001
1000
,  // measure 57
0001
0000
0100
0000
0010
0000
0001
1000
0010
0000
1000
0000
0001
0000
0010
0100
,  // measure 58
1000
0002
0100
1003
2002
0000
3003
0220
,  // measure 59
0000
0000
0330
0000
2002
0000
0000
3003
1001
0000
0001
0000
0010
0000
1100
0000
,  // measure 60
1000
0011
0001
1010
1000
0010
0001
1000
,  // measure 61
0100
0001
0010
1000
0001
0100
0010
0001
,  // measure 62
1000
0010
0001
1000
0100
0001
0010
1000
,  // measure 63
0010
0001
1000
0010
1010
1000
0001
0101
,  // measure 64
1000
1010
0001
0011
0010
1000
0010
0001
,  // measure 65
1000
0010
0100
1000
0001
0010
1000
0100
,  // measure 66
0001
1000
0010
0001
0202
0000
0303
2020
,  // measure 67
0000
0000
3030
0000
0220
0030
0000
0000
0301
0000
0001
0000
0100
0000
1000
0000
,  // measure 68
0100
0001
0010
1000
0010
0001
0100
1000
,  // measure 69
0100
0001
0010
0100
1000
1000
0100
0001
,  // measure 70
0100
1000
0010
0001
0010
1000
0100
0001
,  // measure 71
0100
1000
0001
0100
0101
0001
0010
1000
,  // measure 72
0001
1000
0001
0100
1000
0001
1000
0010
,  // measure 73
0001
0000
1000
0000
0001
0000
1000
0000
0100
0000
0002
0000
0003
0000
1000
0100
,  // measure 74
1000
0000
0001
0100
0001
0000
1000
1001
0001
0000
0000
1000
0000
0000
0100
0000
,  // measure 75
0000
0001
0000
0000
0110
0000
0000
0000
2002
3003
0000
0000
0000
0000
0000
0000
;
