#TITLE:Berserkerz Warefare 345;
#SUBTITLE:;
#ARTIST:Camellia;
#TITLETRANSLIT:;
#SUBTITLETRANSLIT:;
#ARTISTTRANSLIT:;
#GENRE:;
#CREDIT:;
#BANNER:Berserkerz Warefare 345 - banner.png;
#BACKGROUND:Berserkerz Warefare 345 - bg.png;
#LYRICSPATH:;
#CDTITLE:;
#MUSIC:Berserkerz Warefare 345.ogg;
#OFFSET:0.000000;
#SAMPLESTART:-0.012314;
#SAMPLELENGTH:20.000000;
#SELECTABLE:YES;
#DISPLAYBPM:172.000000:345.000000;
#BPMS:0.000000=345.000000
,128.000000=172.500000
,128.500000=258.750000
,129.000000=345.000000
,130.000000=431.250000
,131.000000=517.500000
,132.000000=345.000000
,260.000000=431.250000
,261.000000=517.500000
,266.000000=431.250000
,267.000000=345.000000
,267.500000=258.750000
,268.000000=172.500000
,268.500000=129.375000
,271.500000=178.000000
,272.000000=345.000000
,336.000000=258.750000
,336.500000=172.500000
,366.000000=86.250000
,366.250000=129.375000
,366.750000=172.500000
,367.250000=258.750000
,368.000000=345.000000
,376.000000=172.500000
,380.000000=345.000000
,388.000000=172.500000
,392.000000=345.000000
,396.000000=172.500000
,398.000000=345.000000
,402.000000=172.500000
,404.000000=345.000000
,416.000000=86.250000
,416.125000=129.375000
,416.250000=172.500000
,416.750000=258.750000
,417.000000=345.000000
,417.250000=431.250000
,417.500000=517.500000
,418.000000=690.000000
,420.000000=345.000000
,604.000000=517.500000
,616.000000=172.500000
;
#STOPS:
;
#BGCHANGES:;
#KEYSOUNDS:;
#ATTACKS:;

//---------------dance-single - ----------------
#NOTES:
     dance-single:
     idk:
     Challenge:
     18:
     0.936963,1.424658,0.763802,0.813616,0.103778,790.000000,698.000000,92.000000,98.000000,0.000000,0.000000,0.936963,1.424658,0.763802,0.813616,0.103778,790.000000,698.000000,92.000000,98.000000,0.000000,0.000000:
0000
0000
0000
0000
,
0000
0000
0000
0000
,
0000
0000
0000
0000
,
0000
0000
0000
0000
,
0000
0000
0000
0000
,
0000
0000
0000
0000
,
0000
0000
0000
0000
,
0000
0000
0000
0000
,
0000
0000
0000
0000
,
2002
0000
0000
0000
,
3003
0000
0000
0000
,
0000
0000
0000
0000
,
0001
0100
0001
0100
0010
1000
0010
1000
,
0200
0000
0000
0000
,
0300
0000
0000
0000
,
1000
0100
1000
0100
0020
0030
0000
0010
,
0001
0020
0030
0100
1000
0100
0010
0000
,
2002
3003
0000
0000
0100
0000
0010
0000
,
1001
0100
0020
0031
,
2200
3300
0000
0000
0100
0000
0010
0000
,
0202
0303
0000
0000
0110
0000
1100
0000
,
2020
3030
0000
0000
0100
1000
0100
0000
,
0210
0000
0302
0003
,
2010
3002
0023
2030
,
3200
0302
0203
1300
,
0010
0100
0010
0100
0000
0100
0001
0100
,
0001
0010
0100
0010
0100
0000
0010
0000
,
0001
0100
0001
0100
0000
0010
1000
0010
,
1000
0100
0010
0100
0010
0000
1000
0000
,
0001
0010
0001
0010
0100
1000
0100
1000
,
0010
0100
0010
0100
0001
1000
0001
1000
,
0010
0100
0001
0010
0100
1000
0010
0100
,
2002
0000
0000
0000
0000
3003
0000
0000
,
0101
1100
1010
0101
,
0101
0001
0100
0010
0100
0010
1000
0010
,
1010
1100
1100
1010
,
0101
0100
0001
1000
0100
0010
0100
1000
,
1001
0001
1000
0100
1000
0010
0100
0001
,
0010
0100
0010
0001
0100
0010
1000
0100
,
0022
0033
0000
0202
0303
0000
0220
0330
,
2020
0000
3030
0000
,
1010
1100
1010
0101
,
0011
1001
0011
0110
,
0001
0000
0100
0000
1000
0000
0010
0000
1000
0000
0100
0000
,
0010
0000
0001
0000
0010
0000
1000
0000
0100
0000
1000
0000
,
0010
0100
0010
0100
0001
1000
0001
1000
,
0000
0100
0010
0100
0010
0001
0100
0001
,
0220
0330
0000
2020
3030
0000
0022
0033
,
2100
0000
3200
0000
0320
0000
0032
0003
,
1000
0000
0100
0001
0000
0001
0100
0000
,
0100
1000
0000
1000
0010
0000
0110
0000
,
0100
1000
0010
0100
0000
0100
1000
0000
,
1000
0010
0000
0010
0200
0000
1000
0300
,
0010
0000
0100
1000
0000
1000
0001
0000
,
0001
0100
0000
0100
0010
0000
1010
0000
,
0100
0010
1000
0100
0000
0100
0010
0001
,
0010
0000
0010
0100
0000
0100
1000
0001
,
0100
0001
1000
0100
0000
0100
0001
0000
,
0001
0010
0000
0010
0100
0000
1100
0000
,
0010
0001
0100
0010
0000
0010
1000
0000
,
1000
0100
0000
0100
0020
0000
0001
0030
,
0100
0000
0010
1000
0000
1000
0100
0010
,
0100
1000
0000
1000
0100
0010
0001
0010
,
0000
0010
0100
1000
0100
1000
0010
0100
,
0010
1000
0001
0010
0100
0010
0001
0100
,
2002
0000
0000
0000
,
0000
0000
0000
0000
,
3003
0000
0000
0000
,
1001
1100
1010
0101
,
0011
0110
1100
0110
,
0001
0100
0001
0100
0010
1000
0010
1000
,
0100
0010
0100
0010
0001
0010
0001
0000
,
0011
0101
1100
1010
,
0110
1001
1100
0101
,
0100
0010
0100
0010
1000
0001
1000
0001
,
0010
0010
0100
0100
0001
0001
0100
0000
,
1010
1100
0110
0011
,
0101
0110
1010
1001
,
0010
0100
0010
0100
0001
1000
0001
1000
,
0100
0010
0100
0010
0001
0100
0001
0000
,
2200
3300
0000
0022
0000
0000
0033
0000
,
2200
3300
0000
0022
0000
0000
0033
0000
,
2000
0000
3000
0000
,
0020
0000
0030
0000
,
2002
0000
0000
0000
,
0000
0000
0000
0000
,
0000
3003
0000
0000
,
0200
0000
0000
0000
,
0000
0300
0000
0000
,
2000
0000
0000
0000
,
0000
3000
0000
0000
,
0020
0000
0030
0000
,
2002
0000
0000
0000
,
0000
3003
0000
0000
,
0001
0010
0001
0100
0000
0010
1000
0001
1000
0000
0100
0001
0100
0010
0001
0000
,
2200
0000
0000
0000
,
0000
3300
0000
0000
,
1000
0100
0001
0100
1000
0000
0100
0000
0011
0000
0000
0101
0000
0000
1010
0000
,
0202
0000
0303
0000
,
0001
0100
0001
0010
0100
1000
0100
0000
0022
0000
0000
0000
0000
0000
0000
0000
,
0033
0000
0000
0000
0000
0000
0000
0000
0000
0000
0000
0000
0000
0000
0000
0000
0001
0000
0100
0000
1000
0000
0100
0000
0010
0100
0010
0000
0001
0000
0010
0000
,
0100
0001
0100
0001
1000
0010
1000
0010
,
0100
0010
0100
0010
1000
0100
1000
0100
,
0010
0001
0010
0001
0100
0010
0100
0001
,
0020
0000
0030
0000
,
0010
0100
1000
0001
0010
0100
1000
0010
,
1000
0100
0010
0001
1000
0100
0010
0001
,
0010
0100
1000
0001
0010
0100
1000
0010
,
1000
0100
0010
0001
1000
0100
0010
0001
,
0010
0100
1000
0001
0010
0100
1000
0010
,
1000
0100
0010
0001
1000
0100
0010
0001
,
2010
0000
3000
0201
0000
0300
1020
0000
,
0030
0102
0000
0003
0120
0000
0030
0000
,
1000
0010
0100
0001
1000
0010
0100
0001
,
0010
0001
0100
0010
1000
0001
0100
0010
,
1000
0100
1000
0010
0100
0001
1000
0010
,
0100
0001
0010
0100
0020
0000
0030
0000
,
0100
1000
0010
0100
0001
1000
0100
0010
,
0100
1000
0001
0100
0010
1000
0010
0100
,
0002
0000
0000
0000
,
0203
0000
0300
0000
,
2010
0000
0100
0000
0010
0000
3001
0100
,
0010
0000
1000
0100
0001
0000
0100
0010
,
0012
0000
0100
0000
1000
0000
0103
0010
,
1000
0000
0001
0100
1000
0000
0100
1000
,
1020
0000
0100
0000
0001
0000
0031
0100
,
0010
0000
1000
0010
0001
0000
0010
0001
,
0021
0000
1000
0000
0100
0000
0031
0100
,
0010
0000
0001
0010
1000
0000
0100
0001
,
0201
0000
0010
0000
0001
0000
1300
0001
,
0010
0000
0100
1000
0001
0000
0010
1000
,
1002
0000
0010
0000
0100
0000
1003
0010
,
0100
0000
0010
1000
0001
0000
0010
0100
,
0210
0000
0001
0000
0010
0000
1300
0010
,
0001
0000
0001
0100
1000
0000
0010
0100
,
0120
0000
1000
0000
0100
0000
0031
0100
,
1000
0000
0001
0010
1000
0000
0100
0000
,
0001
0100
0000
0001
0100
0000
0010
1000
,
0000
0010
1000
0000
0100
0010
0000
0100
,
0010
0000
0100
0001
0000
0100
0001
0000
,
0010
1000
0000
0010
0200
0000
0320
0030
,
1000
0010
0000
0100
0001
0000
0010
1000
,
0000
0100
0010
0000
0100
1000
0000
0010
,
0100
0000
1000
0001
0000
0010
0100
0000
,
0002
0000
0200
0003
0020
0300
0030
0000
,
1000
0010
0000
0010
0100
1000
0100
0001
,
0000
0001
0010
0001
0010
1000
0000
1000
,
0001
0100
0001
0010
0000
0010
1000
0001
,
1000
0100
0000
0100
0001
1000
0001
0010
,
0000
0010
0100
1000
0100
0001
0000
0001
,
0010
0001
0100
1000
0000
1000
0001
0000
,
0020
0000
0000
0030
0000
0000
2000
0000
,
0000
3000
0000
0000
0020
0000
0000
0030
,
0000
0000
0200
0000
0000
0300
0000
0000
,
2002
0000
0000
0000
,
0000
0000
0000
0000
,
3003
0000
0000
0000
;

//---------------dance-single - ----------------
#NOTES:
     dance-single:
     :
     Hard:
     17:
     0.811244,1.359900,0.356995,0.672478,0.087173,684.000000,641.000000,43.000000,81.000000,0.000000,0.000000,0.811244,1.359900,0.356995,0.672478,0.087173,684.000000,641.000000,43.000000,81.000000,0.000000,0.000000:
// measure 0
0000
0000
0000
0000
,  // measure 1
0000
0000
0000
0000
,  // measure 2
0000
0000
0000
0000
,  // measure 3
0000
0000
0000
0000
,  // measure 4
0000
0000
0000
0000
,  // measure 5
0000
0000
0000
0000
,  // measure 6
0000
0000
0000
0000
,  // measure 7
0000
0000
0000
0000
,  // measure 8
0000
0000
0000
0000
,  // measure 9
2002
0000
0000
0000
,  // measure 10
3003
0000
0000
0000
,  // measure 11
0000
0000
0000
0000
,  // measure 12
1000
0100
1000
0100
0010
0100
0010
0000
,  // measure 13
0200
0000
0000
0000
,  // measure 14
0300
0000
0000
0000
,  // measure 15
0010
0100
0010
0001
0010
0001
1000
0001
,  // measure 16
1000
0000
0010
1000
0010
1000
0100
0000
,  // measure 17
2200
0000
3300
0000
,  // measure 18
2000
0100
3001
1000
,  // measure 19
0101
0001
1000
0100
,  // measure 20
0010
0010
0100
1000
,  // measure 21
2200
0000
3300
0000
,  // measure 22
0011
0010
1000
0010
,  // measure 23
0011
0001
0100
1000
,  // measure 24
0200
0000
0320
0000
,  // measure 25
1030
0002
0003
0000
0010
0100
0010
0001
,  // measure 26
0010
0200
0300
0000
1000
0100
0010
0100
,  // measure 27
1000
0001
0000
0000
0100
0010
0100
1000
,  // measure 28
0100
0020
0030
0000
1000
0001
0010
0000
,  // measure 29
0001
0010
0001
0010
0100
0010
0100
1000
,  // measure 30
0001
1000
0010
0100
0001
0100
0010
1000
,  // measure 31
0001
0010
0100
0010
0001
1000
0010
0000
,  // measure 32
2002
0000
3003
0000
,  // measure 33
1100
1000
0101
0001
,  // measure 34
1010
1000
0110
0010
,  // measure 35
0110
0100
0101
0001
,  // measure 36
0011
0000
0010
0000
0100
0010
0100
1000
,  // measure 37
0001
0000
1000
0100
1000
0100
0010
0001
,  // measure 38
0010
0000
0100
1000
0010
0100
0010
0000
,  // measure 39
1010
0000
0000
0110
0000
0000
0101
0000
,  // measure 40
2002
0000
3003
0000
,  // measure 41
1001
0001
1100
1000
,  // measure 42
0011
0001
0101
0100
,  // measure 43
0010
0000
0100
0000
0010
0000
1000
0000
0010
0000
0100
0000
,  // measure 44
0001
0000
1000
0000
0100
0000
0010
0000
0100
0000
1000
0000
,  // measure 45
0010
1000
0010
1000
0001
0100
0001
0200
,  // measure 46
0300
0010
1000
0010
1000
0100
0010
0100
,  // measure 47
0020
0000
0030
0002
0000
0003
2000
0000
,  // measure 48
3020
0000
0200
0330
,  // measure 49
0001
0000
0100
0010
0000
1000
0010
0000
,  // measure 50
0100
0001
0000
0010
0100
0000
1000
0000
,  // measure 51
0100
0000
0010
0001
0000
1000
0100
0000
,  // measure 52
0010
0100
0000
1000
0010
0000
0100
0000
,  // measure 53
0001
0000
0100
0010
0000
0100
1000
0000
,  // measure 54
0100
0010
0000
0001
0010
0000
0100
0000
,  // measure 55
0001
0000
1000
0100
0000
0010
0100
0000
,  // measure 56
1000
0001
0000
0100
0010
0000
1000
0000
,  // measure 57
0001
0000
0010
0100
0000
0010
0001
0000
,  // measure 58
0010
0100
0000
1000
0010
0000
0100
0000
,  // measure 59
0001
0000
0010
0100
0000
1000
0010
0000
,  // measure 60
1000
0100
0000
0010
0001
0000
0100
0000
,  // measure 61
0010
0000
1000
0100
0000
0001
0100
0000
,  // measure 62
0010
0001
0000
1000
0010
0000
0001
0010
,  // measure 63
0000
0100
0001
0000
0010
0001
0010
0001
,  // measure 64
0100
0010
0100
0010
1000
0001
1000
0001
,  // measure 65
0200
0000
0000
0000
,  // measure 66
0000
0000
0000
0000
,  // measure 67
0300
0000
0000
0000
,  // measure 68
2001
3001
1020
1030
,  // measure 69
0210
0310
0102
0103
,  // measure 70
1000
0001
0100
0000
0010
0100
0001
0000
,  // measure 71
1000
0100
0010
0000
0100
1000
0001
0000
,  // measure 72
0102
0103
2010
3010
,  // measure 73
1002
1003
0021
0031
,  // measure 74
1000
0100
0010
0000
0001
0100
0010
0000
,  // measure 75
0100
0010
1000
0000
0001
0010
0100
0000
,  // measure 76
2100
3100
0210
0310
,  // measure 77
0021
0031
1002
1003
,  // measure 78
0001
1000
0100
0000
0010
0001
0100
0000
,  // measure 79
0010
1000
0100
0000
0010
0001
0100
0000
,  // measure 80
2020
3030
0000
2020
0000
3030
0000
0000
,  // measure 81
0220
0330
0000
0202
0000
0000
0303
0000
,  // measure 82
0200
0000
0300
0000
,  // measure 83
0002
0000
0003
0000
,  // measure 84
0202
0000
0000
0000
,  // measure 85
0000
0000
0000
0000
,  // measure 86
0000
0303
0000
0000
,  // measure 87
2000
0000
0000
0000
,  // measure 88
0000
3000
0000
0000
,  // measure 89
0002
0000
0000
0000
,  // measure 90
0000
0003
0000
0000
,  // measure 91
2000
0000
3000
0000
,  // measure 92
2002
0000
0000
0000
,  // measure 93
3003
0000
0000
0000
,  // measure 94
1000
0100
1000
0000
0100
0000
0010
0001
0010
0000
0100
0000
1000
0100
0010
0000
,  // measure 95
0002
0000
0000
0000
,  // measure 96
0003
0000
0000
0000
,  // measure 97
1000
0010
1000
0001
0000
0000
0100
0000
0020
0000
0000
0032
0000
0000
0023
0000
,  // measure 98
2030
0000
3000
0000
,  // measure 99
0100
0010
0001
1000
0010
0100
0001
0000
0200
0000
0000
0000
0000
0000
0000
0000
,  // measure 100
0300
0000
0000
0000
0000
0000
0000
0000
0010
1000
0010
0100
0001
1000
0001
0010
,  // measure 101
0100
0010
0100
1000
0001
0100
0001
1000
,  // measure 102
0010
0100
0010
1000
0001
0010
0100
1000
,  // measure 103
0010
0100
0001
0010
1000
0010
0001
0000
,  // measure 104
0022
0000
0030
0000
,  // measure 105
1003
0100
0010
0001
1000
0100
0010
0001
,  // measure 106
1000
0100
0010
0001
1000
0010
0100
0001
,  // measure 107
1000
0100
0010
0001
1000
0100
0010
0001
,  // measure 108
1000
0100
0010
0001
1000
0010
0100
0001
,  // measure 109
1000
0100
0010
0001
1000
0100
0010
0001
,  // measure 110
1000
0100
0010
0001
1000
0010
0100
0001
,  // measure 111
0400
0000
0000
0340
0000
0000
0034
0000
,  // measure 112
0000
0043
0000
0000
4030
0000
0000
3000
,  // measure 113
0001
0100
0010
1000
0001
0100
0010
1000
,  // measure 114
0001
0100
0010
1000
0001
0010
0100
1000
,  // measure 115
0001
0100
0010
1000
0001
0100
0010
1000
,  // measure 116
0001
0100
0010
1000
0002
0000
0003
0000
,  // measure 117
1000
0100
1000
0100
0010
0001
0010
0001
,  // measure 118
1000
0010
0100
0010
0100
0001
1000
0100
,  // measure 119
0020
0000
0000
0000
,  // measure 120
0230
0000
0300
0000
,  // measure 121
2000
0000
0001
0000
0100
0000
3100
0010
,  // measure 122
0001
0000
0010
0100
1000
0000
0001
0000
,  // measure 123
0200
0000
0010
0000
0001
0000
0301
0100
,  // measure 124
0010
0000
0100
0020
1000
0030
1000
0000
,  // measure 125
0200
0000
0010
0000
1000
0000
1300
0100
,  // measure 126
0010
0000
0001
1000
0010
0000
0100
0000
,  // measure 127
0002
0000
0100
0000
1000
0000
1003
0001
,  // measure 128
0100
0000
0010
0100
0001
0000
1000
0000
,  // measure 129
0200
0000
0010
0000
1000
0000
1300
0100
,  // measure 130
0010
0000
0001
2000
0001
3000
0001
0000
,  // measure 131
0020
0000
0001
0000
0100
0030
0001
0010
,  // measure 132
0100
0000
1000
0100
0010
0000
0001
0000
,  // measure 133
0020
0000
1000
0000
0001
0030
0100
0010
,  // measure 134
1000
0000
0100
0010
0001
0000
0010
0000
,  // measure 135
0200
0000
1000
0000
0010
0300
1000
0010
,  // measure 136
0100
0000
0100
0001
0010
0000
0100
0000
,  // measure 137
1000
0010
0000
0010
0100
0000
0100
0001
,  // measure 138
0000
0001
0010
0000
0010
0100
0000
0100
,  // measure 139
1000
0000
1000
0010
0000
0010
0100
0000
,  // measure 140
0100
0001
0000
0001
2000
0000
3020
0030
,  // measure 141
0100
0010
0000
0010
1000
0000
1000
0100
,  // measure 142
0000
0100
0010
0000
0010
0100
0000
0100
,  // measure 143
1000
0000
1000
0010
0000
0010
0100
0000
,  // measure 144
0002
0203
0320
0030
,  // measure 145
0001
0010
0000
0100
1000
0000
1000
0010
,  // measure 146
0000
0100
0001
0000
0010
0100
0000
0010
,  // measure 147
0001
0000
1000
0010
0000
0100
0010
0000
,  // measure 148
1000
0001
0000
0010
0100
0000
1000
0010
,  // measure 149
0000
0100
0001
0000
0010
1000
0000
0010
,  // measure 150
0001
0000
0100
1000
0000
0100
0010
0000
,  // measure 151
4010
0000
0000
0000
,  // measure 152
0000
0000
0000
0000
,  // measure 153
3000
0000
0000
0000
,  // measure 154
2002
0000
0000
0000
,  // measure 155
0000
0000
0000
0000
,  // measure 156
3003
0000
0000
0000
;

//---------------dance-single - ----------------
#NOTES:
     dance-single:
     :
     Medium:
     16:
     0.749570,1.100872,0.257368,0.489830,0.070569,632.000000,601.000000,31.000000,59.000000,0.000000,0.000000,0.749570,1.100872,0.257368,0.489830,0.070569,632.000000,601.000000,31.000000,59.000000,0.000000,0.000000:
0000
0000
0000
0000
,
0000
0000
0000
0000
,
0000
0000
0000
0000
,
0000
0000
0000
0000
,
0000
0000
0000
0000
,
0000
0000
0000
0000
,
0000
0000
0000
0000
,
0000
0000
0000
0000
,
0000
0000
0000
0000
,
2002
0000
0000
0000
,
3003
0000
0000
0000
,
0000
0000
0000
0000
,
1000
0100
0010
0000
0100
0010
0001
0000
,
0200
0000
0000
0000
,
0300
0000
0000
0000
,
0010
0100
0010
0000
0100
0000
0001
0000
,
0010
0001
0010
0000
0100
0000
1000
0000
,
0220
0000
0330
0000
,
0010
0100
1000
0001
,
0100
0010
1000
0010
,
0100
0001
0010
0100
,
2020
0000
3030
0000
,
0001
1000
0100
0010
,
0100
1000
0010
0100
,
0002
0000
0003
0000
,
0010
0100
0000
0000
1000
0100
1000
0100
,
0000
0000
0100
0000
0010
0100
0010
0100
,
0000
0000
0010
0000
0001
1000
0001
0100
,
0000
0000
0010
0000
1000
0100
1000
0001
,
0010
0100
1000
0010
,
0100
0010
1000
0000
0010
0100
0001
0000
,
1000
0100
0010
0100
0010
0100
0010
0100
,
0020
0000
0030
0000
,
1001
1000
0100
0001
,
0101
0100
0001
0010
,
1100
0100
0010
1000
,
0011
0001
0010
1000
,
0110
0010
0001
0010
,
1100
0100
0010
1000
,
1100
0000
0000
1100
0000
0000
0100
0000
,
2002
0000
3003
0000
,
0110
0100
1100
1000
,
1001
0001
0011
0010
,
0001
0000
0100
0000
0010
0000
1000
0000
0001
0000
0100
0000
,
0010
0000
1000
0000
0001
0000
0010
0000
0100
0000
1000
0000
,
0001
0100
0001
0100
0001
0000
0100
0000
,
1000
0100
1000
0100
1000
0000
0010
0000
,
0002
0000
0003
0020
0000
0030
0200
0000
,
2300
0000
0000
3000
,
0010
0000
1000
0100
0000
0100
0010
0000
,
0100
1000
0000
1000
0010
0000
0100
0000
,
0001
0000
0010
0100
0000
0100
1000
0000
,
0001
0010
0000
0010
0100
0000
1000
0000
,
0001
0000
0100
0010
0000
0010
1000
0000
,
0001
0100
0000
0100
0010
0000
1000
0000
,
0010
0000
1000
0100
0000
0100
0010
0000
,
0001
0100
0000
0100
0010
0000
1000
0000
,
0100
0000
0010
0001
0000
0001
0100
0000
,
0010
1000
0000
1000
0100
0000
0010
0000
,
0100
0000
1000
0010
0000
0010
0100
0000
,
0001
0010
0000
0010
0100
0000
1000
0000
,
0010
0000
0100
0001
0000
0001
1000
0000
,
0010
1000
0000
1000
0100
0000
0010
0000
,
0001
0100
0001
0100
0001
0000
0010
0100
,
0010
0100
1000
0100
1000
0100
1000
0000
,
0020
0000
0000
0000
,
0000
0000
0000
0000
,
0030
0000
0000
0000
,
1100
0100
0110
0010
,
0011
0001
1001
1000
,
0010
0100
0010
0000
1000
0000
0100
0010
,
0100
0000
0010
0000
0001
0100
0001
0000
,
0101
0100
0110
0010
,
1010
1000
1100
0100
,
0010
0001
0010
0000
0100
1000
0100
0000
,
1000
0010
1000
0000
0001
0010
0001
0000
,
0101
0100
0110
0010
,
0011
0001
1010
1000
,
0010
0100
0010
0000
0100
0010
0100
0000
,
0001
0010
0001
0000
1000
0010
1000
0000
,
0200
0000
0300
2000
0000
0000
3000
0000
,
0020
0000
0030
0200
0000
0000
0300
0000
,
0002
0000
0003
0000
,
2000
0000
3000
0000
,
2002
0000
0000
0000
,
0000
0000
0000
0000
,
0000
3003
0000
0000
,
0200
0000
0000
0000
,
0000
0300
0000
0000
,
0020
0000
0000
0000
,
0000
0030
0000
0000
,
0200
0000
0300
0000
,
2020
0000
0000
0000
,
0000
3030
0000
0000
,
0010
1000
0010
0000
1000
0000
0010
0000
1000
0010
1000
0000
0010
0000
1000
0000
,
0200
0000
0000
0000
,
0300
0000
0000
0000
,
0010
0001
0010
0001
0000
0000
0010
0000
0200
0000
0300
2000
0000
3000
0020
0000
,
0230
0000
0300
0000
,
0010
0100
0010
0100
0010
0000
0100
0000
0020
0000
0000
0000
0000
0000
0000
0000
,
0030
0000
0000
0000
0000
0000
0000
0000
0001
0010
0001
0100
0010
0000
1000
0000
,
0100
0000
0010
0001
0010
0000
0100
1000
,
0100
0000
0010
0001
0010
0001
0100
0010
,
0100
0010
1000
0100
1000
0100
1000
0000
,
0200
0000
0300
0000
,
1000
0100
1000
0100
1000
0100
1000
0000
,
0010
0100
0010
0100
0010
0100
0010
0000
,
1000
0010
1000
0010
1000
0010
1000
0000
,
0001
0010
0001
0010
0001
0010
0001
0000
,
0100
0010
0100
0010
0100
0010
0100
0000
,
0001
1000
0001
1000
0001
1000
0001
0000
,
2000
0000
0000
3020
0000
0000
0230
0000
,
0000
0302
0000
0000
0023
0000
0030
0000
,
0100
1000
0100
1000
0100
1000
0100
1000
,
0010
0100
0010
0100
0010
0100
0010
0100
,
0001
0010
0001
0010
0001
0010
0001
0010
,
0100
1000
0100
1000
0020
0000
0030
0000
,
0100
0001
0100
0001
1000
0010
1000
0010
,
0100
0010
1000
0001
0010
0100
0010
0100
,
0020
0000
0000
0000
,
0230
0000
0300
0000
,
0002
0000
0100
0000
1003
0000
0010
0100
,
0010
0000
0100
0000
0001
0010
0100
0000
,
2000
0000
0010
0000
3001
0000
0100
0010
,
0100
0000
0001
0000
0010
0100
1000
0000
,
0020
0000
1000
0000
0130
0000
0001
0100
,
0001
0000
0010
0000
0100
1000
0100
0000
,
2000
0000
0001
0000
3100
0000
0010
0001
,
0010
0000
0100
0000
1000
0010
0100
0000
,
0020
0000
0100
0000
0031
0000
1000
0100
,
1000
0000
0010
0000
0100
0001
0010
0000
,
0200
0000
1000
0000
0310
0000
0001
0100
,
0001
0000
0010
0000
0100
0010
0001
0000
,
0020
0000
0100
0000
0031
0000
1000
0100
,
1000
0000
0010
0000
0100
0001
1000
0000
,
0020
0000
1000
0000
0130
0000
0001
0010
,
0001
0000
0100
0000
0010
1000
0100
0000
,
0010
0001
0000
0001
0100
0000
0100
0010
,
0000
0010
1000
0000
1000
0100
0000
0100
,
0010
0000
0010
0100
0000
0100
1000
0000
,
1000
0010
0000
0010
0200
0000
0000
0300
,
0001
1000
0000
1000
0010
0000
0010
0100
,
0000
0100
0001
0000
0001
0010
0000
0010
,
0100
0000
0100
1000
0000
1000
0100
0000
,
0020
0000
0032
0003
,
1000
0010
0000
1000
0010
0000
0100
0001
,
0000
0100
0001
0000
0010
0100
0000
0010
,
0100
0000
1000
0001
0000
1000
0001
0000
,
0100
0010
0000
0100
0010
0000
1000
0100
,
0000
0010
0001
0000
1000
0100
0000
0010
,
0001
0000
1000
0100
0000
0010
0001
0000
,
0200
0000
0000
0000
,
0300
0000
0020
0000
,
0000
0000
0030
0000
,
2002
0000
0000
0000
,
0000
0000
0000
0000
,
3003
0000
0000
0000
;

//---------------dance-single - ----------------
#NOTES:
     dance-single:
     :
     Easy:
     15:
     0.600130,0.971357,0.033209,0.464923,0.020756,506.000000,502.000000,4.000000,56.000000,0.000000,0.000000,0.600130,0.971357,0.033209,0.464923,0.020756,506.000000,502.000000,4.000000,56.000000,0.000000,0.000000:
0000
0000
0000
0000
,
0000
0000
0000
0000
,
0000
0000
0000
0000
,
0000
0000
0000
0000
,
0000
0000
0000
0000
,
0000
0000
0000
0000
,
0000
0000
0000
0000
,
0000
0000
0000
0000
,
0000
0000
0000
0000
,
2002
0000
0000
0000
,
3003
0000
0000
0000
,
0000
0000
0000
0000
,
1000
0010
1000
0000
0010
1000
0010
0000
,
0200
0000
0000
0000
,
0300
0000
0000
0000
,
0010
0100
0010
0000
1000
0000
0100
0000
,
0010
1000
0010
0001
,
0200
0000
0300
0000
,
0010
1000
0100
0010
,
1000
0010
0001
0100
,
0010
0001
0010
0000
,
0200
0000
0300
0000
,
0001
0010
1000
0010
,
0100
1000
0010
0000
,
0200
0000
0300
0000
,
0010
0100
0010
0000
0100
0000
0001
0000
,
0010
0100
0010
0000
0100
0000
1000
0000
,
0010
0100
0010
0000
0100
0000
0001
0000
,
0010
0100
0010
0000
0100
0000
1000
0000
,
0010
0100
0001
0010
,
0100
1000
0010
1000
,
0100
0001
0010
1000
,
0020
0000
0030
0000
,
1000
1000
0010
0100
,
0001
0001
0010
0100
,
0010
0010
0100
1000
,
0010
0010
0100
0001
,
0010
0010
0100
1000
,
0100
0100
0010
0100
,
1000
0000
0000
1100
0000
0000
0100
0000
,
0020
0000
0030
0000
,
0010
0010
0100
0100
,
1000
1000
0001
0001
,
0100
0000
0000
0000
0010
0000
0000
0000
0100
0000
0000
0000
,
0001
0000
0000
0000
0100
0000
0000
0000
0010
0000
0000
0000
,
1000
0100
1000
0100
1000
0000
0100
0000
,
0010
0100
0010
0100
0010
0000
0001
0000
,
0020
0000
0030
0200
0000
0300
2000
0000
,
3002
0000
0000
0003
,
0001
0000
0010
0100
0000
0100
0010
0000
,
0001
0010
0000
0010
0001
0000
0010
0000
,
0100
0000
1000
0010
0000
0010
1000
0000
,
0100
0010
0000
0010
0100
0000
1000
0000
,
0001
0000
0100
0010
0000
0010
0100
0000
,
0010
0100
0000
0100
0010
0000
1000
0000
,
0100
0000
0010
0001
0000
0001
0010
0000
,
0100
0010
0000
0010
0100
0000
1000
0000
,
0010
0000
0100
0010
0000
0010
0100
0000
,
0001
0100
0000
0100
0001
0000
0010
0000
,
0100
0000
1000
0001
0000
0001
0100
0000
,
0001
0100
0000
0100
0002
0000
0003
0000
,
0010
0000
0100
1000
0000
1000
0100
0000
,
0010
0100
0000
0100
0010
0000
0001
0000
,
0100
0010
1000
0100
,
0001
0000
0100
0000
1000
0000
0010
0100
,
0020
0000
0000
0000
,
0000
0000
0000
0000
,
0030
0000
0000
0000
,
1000
1000
0001
0001
,
0100
0100
0010
0010
,
1000
0100
0001
0100
,
1000
0010
0100
0001
,
0010
0010
0100
0100
,
1000
1000
0010
0010
,
0100
0001
0010
0100
,
0010
0001
0100
1000
,
0100
0100
0001
0001
,
0010
0010
1000
1000
,
0010
0001
0100
1000
,
0100
0010
1000
0100
,
0020
0000
0030
0200
0000
0000
0300
0000
,
2000
0000
3000
0020
0000
0000
0030
0000
,
0200
0000
0300
0000
,
0002
0000
0003
0000
,
2002
0000
0000
0000
,
0000
0000
0000
0000
,
0000
3003
0000
0000
,
0200
0000
0000
0000
,
0000
0300
0000
0000
,
0002
0000
0000
0000
,
0000
0003
0000
0000
,
2000
0000
3000
0000
,
0200
0000
0000
0000
,
0300
0000
0000
0000
,
0010
1000
0010
0100
0010
0100
0001
0010
,
0200
0000
0000
0000
,
0300
0000
0000
0000
,
0100
0000
1000
0000
0100
0000
0010
0000
0002
0000
0003
0020
0000
0030
0200
0000
,
2300
0000
3000
0000
,
0010
0010
0100
0100
0020
0000
0000
0000
,
0030
0000
0000
0000
1000
0100
0001
0100
,
1000
0010
0100
0010
,
0100
0000
0001
0010
0001
0010
0001
0000
,
0010
0000
0100
1000
0100
1000
0100
0000
,
0020
0000
0030
0000
,
1000
0010
0001
0100
,
1000
0010
0001
0100
,
0001
0010
1000
0100
,
0001
0010
1000
0100
,
0001
0010
1000
0010
,
0001
0100
1000
0100
,
0002
0000
0000
0023
0000
0000
0230
0000
,
0000
2300
0000
0000
3200
0000
0300
0000
,
1000
0100
1000
0100
1000
0100
1000
0000
,
0001
0100
0001
0100
0001
0100
0001
0000
,
0100
0010
0100
0010
0100
0010
0100
0000
,
0010
1000
0200
0300
,
0010
1000
0010
0001
,
0100
0000
1000
0000
0100
0000
0010
0100
,
0020
0000
0000
0000
,
2030
0000
3000
0000
,
0020
1000
0130
0010
,
0001
0010
1000
0100
,
0020
0001
0130
0010
,
0001
0100
1000
0100
,
0002
1000
0013
0001
,
1000
0010
0100
0010
,
2000
0001
3100
1000
,
0010
0100
0001
0010
,
2000
0010
3001
1000
,
0010
0100
1000
0010
,
0200
0010
1300
0100
,
0001
0010
1000
0010
,
0200
1000
0301
0100
,
0010
1000
0100
0010
,
2000
0010
3100
1000
,
0001
0100
1000
0100
,
0010
0001
0000
0000
0100
0000
0010
0100
,
0000
0000
0010
0000
1000
0100
0000
0000
,
0010
0000
0100
1000
0000
0000
0001
0000
,
0100
0010
0000
0000
2000
0000
3000
0000
,
0100
0010
0000
0000
0100
0000
1000
0010
,
0000
0000
0100
0000
0001
0010
0000
0000
,
0100
0000
1000
0010
0000
0000
0100
0000
,
0020
0000
0230
0300
,
0010
1000
0000
1000
0010
0000
0100
0001
,
0000
0001
0010
0000
0100
0010
0000
0010
,
0100
0000
1000
0100
0000
0100
1000
0000
,
0001
1000
0000
1000
0001
0000
0100
0001
,
0000
0001
0100
0000
0010
0100
0000
0100
,
0010
0000
1000
0010
0000
0010
1000
0000
,
0200
0000
0000
0000
,
0300
0000
0020
0000
,
0000
0000
0030
0000
,
2002
0000
0000
0000
,
0000
0000
0000
0000
,
3003
0000
0000
0000
;

//---------------dance-single - ----------------
#NOTES:
     dance-single:
     :
     Beginner:
     11:
     0.496946,0.647572,0.024907,0.498132,0.020756,419.000000,416.000000,3.000000,60.000000,0.000000,0.000000,0.496946,0.647572,0.024907,0.498132,0.020756,419.000000,416.000000,3.000000,60.000000,0.000000,0.000000:
0000
0000
0000
0000
,
0000
0000
0000
0000
,
0000
0000
0000
0000
,
0000
0000
0000
0000
,
0000
0000
0000
0000
,
0000
0000
0000
0000
,
0000
0000
0000
0000
,
0000
0000
0000
0000
,
0000
0000
0000
0000
,
2002
0000
0000
0000
,
3003
0000
0000
0000
,
0000
0000
0000
0000
,
1000
0010
0100
0010
,
0200
0000
0000
0000
,
0300
0000
0000
0000
,
0010
0100
0000
0001
,
0010
0100
1000
0010
,
0200
0000
0300
0000
,
0020
0000
0030
0000
,
0200
0000
0300
0000
,
0002
0000
0013
0100
,
2000
0000
3000
0000
,
0020
0000
0030
0000
,
0200
0000
0300
0000
,
0020
0000
0030
0000
,
1000
0100
0000
0010
,
0100
1000
0001
0000
,
0010
0100
0000
0001
,
0010
0100
1000
0010
,
0100
0010
1000
0100
,
0010
0001
0100
0001
,
0010
0100
0010
0100
,
2000
0000
3000
0000
,
0010
0100
0010
0100
,
0001
0010
0001
0010
,
0100
1000
0100
1000
,
0010
0100
0001
0100
,
0010
1000
0100
0010
,
0100
1000
0010
0100
,
0002
0000
0003
0020
0000
0030
0200
0300
,
2000
0000
3000
0000
,
0001
0100
0001
0100
,
0010
1000
0010
1000
,
0001
0000
0000
0000
0100
0000
0000
0000
0010
0000
0000
0000
,
0100
0000
0000
0000
0001
0000
0000
0000
0010
0000
0000
0000
,
0100
1000
0100
1000
,
0010
1000
0010
0100
,
0002
0000
0003
0020
0000
0030
0200
0300
,
2000
0000
3000
0000
,
0010
0000
0100
0000
0000
0001
0100
0000
,
0010
0000
0000
1000
0010
0000
1000
0000
,
0100
0000
0010
0000
0000
0100
0010
0000
,
0001
0000
0000
0010
0001
0000
1000
0000
,
0010
0000
0100
0000
0000
0010
1000
0000
,
0100
0000
0000
1000
0100
0000
0010
0000
,
0001
0000
0100
0000
0000
0010
1000
0000
,
0010
0000
0000
1000
0100
0000
0010
0000
,
0100
0000
1000
0000
0000
0001
1000
0000
,
0001
0000
0000
0100
0001
0000
0010
0000
,
0100
0000
1000
0000
0000
0010
1000
0000
,
0100
0000
0000
0010
0002
0000
0003
0000
,
0100
0000
0010
0000
0000
1000
0100
0000
,
0010
0000
0000
0100
1000
0000
0010
0000
,
0100
0001
0010
0100
,
1000
0010
0100
0010
,
0200
0000
0000
0000
,
0000
0000
0000
0000
,
0300
0000
0000
0000
,
0010
1000
0010
1000
,
0001
0100
0001
0100
,
0010
0100
0010
0100
,
0001
0010
0001
0010
,
0100
1000
0100
1000
,
0100
0010
0100
0010
,
0001
1000
0001
1000
,
0010
0100
0010
0100
,
0001
0010
0001
0010
,
0100
0010
0100
0010
,
0100
1000
0100
1000
,
0010
0100
0010
0100
,
0020
0000
0030
2000
0000
0000
3000
0000
,
0002
0000
0003
0020
0000
0000
0030
0000
,
0200
0000
0300
0000
,
2000
0000
3000
0000
,
2002
0000
0000
0000
,
0000
0000
0000
0000
,
0000
3003
0000
0000
,
0001
0000
0000
0000
,
0000
0000
0000
0000
,
1000
0000
0000
0000
,
0000
0000
0000
0000
,
0001
0000
0000
0000
,
0200
0000
0000
0000
,
0300
0000
0000
0000
,
0010
0100
0010
0000
1000
0100
1000
0000
,
0020
0000
0000
0000
,
0030
0000
0000
0000
,
0100
0000
1000
0000
0100
0000
0000
0000
0020
0000
0030
0200
0000
0300
2000
0000
,
3020
0000
0030
0000
,
0100
0001
0100
0000
0020
0000
0000
0000
,
0030
0000
0000
0000
1000
0100
1000
0000
,
0010
0100
0010
0100
,
0001
1000
0001
1000
,
0100
0010
0100
0010
,
0200
0000
0300
0000
,
0010
0001
0010
0100
,
0010
0001
0010
0100
,
0010
0001
0010
0100
,
0010
0001
0010
0100
,
1000
0010
0100
0010
,
1000
0010
0100
0010
,
2000
0000
0000
3200
0000
0000
0320
0000
,
0000
0032
0000
0000
0203
0000
0300
0000
,
0010
1000
0100
1000
,
0010
0100
0001
0100
,
0010
1000
0100
1000
,
0100
0010
0200
0300
,
1000
0100
1000
0001
,
0010
0001
0010
0100
,
0020
0000
0000
0000
,
0230
0000
0300
0000
,
2000
0000
3010
0100
,
0001
0100
0010
1000
,
0200
0000
0310
0001
,
0100
0010
1000
0001
,
0020
0000
0130
1000
,
0010
1000
0100
0010
,
0002
0000
0103
0010
,
1000
0010
0100
0001
,
2000
0000
3010
1000
,
0100
0010
0100
1000
,
0020
0000
0130
0001
,
0010
0100
1000
0010
,
0200
0000
0301
1000
,
0100
0010
0100
1000
,
0002
0000
1003
0001
,
0010
0100
1000
0010
,
0100
0000
0000
0010
0000
0000
1000
0000
,
0000
0100
0000
0000
0010
0000
0000
0100
,
0000
0000
1000
0000
0000
0010
0000
0000
,
0100
0000
0002
0003
,
0010
0000
0000
0100
0000
0000
1000
0000
,
0000
0100
0000
0000
0010
0000
0000
0001
,
0000
0000
0100
0000
0000
0010
0000
0000
,
0200
0300
0020
0030
,
1000
0000
0000
0100
1000
0000
0100
0000
,
0000
0010
0001
0000
0010
0000
0000
0100
,
1000
0000
0010
0000
0000
1000
0010
0000
,
0100
0000
0000
0001
0100
0000
0010
0000
,
0000
0100
0010
0000
1000
0000
0000
0001
,
0100
0000
0001
0000
0000
0010
0100
0000
,
0020
0000
0000
0000
,
0000
0000
0000
0000
,
0030
0000
0000
0000
,
2002
0000
0000
0000
,
0000
0000
0000
0000
,
3003
0000
0000
0000
;
