#VERSION:0.83;
#TITLE:ADAM;
#SUBTITLE:;
#ARTIST:P*Light;
#TITLETRANSLIT:;
#SUBTITLETRANSLIT:;
#ARTISTTRANSLIT:;
#GENRE:;
#CREDIT:;
#MUSIC:P-Light_adam.ogg;
#BANNER:bn.png;
#BACKGROUND:bg.png;
#CDTITLE:;
#SAMPLESTART:9.618;
#SAMPLELENGTH:19.200;
#SELECTABLE:YES;
#OFFSET:0.000;
#BPMS:0.000=200.000;
#STOPS:;
#SPEEDS:0.000=1.000=0.000=0;
#SCROLLS:0.000=1.000,
92.000=0.750,
96.000=1.000,
127.000=0.750,
128.000=1.000,
284.000=0.750,
288.000=1.000
;
#TICKCOUNTS:0.000=4;
#TIMESIGNATURES:0.000=4=4;
#LABELS:0.000=Song Start,
16.000=intro 1,
32.000=intro 2,
64.000=build 1,
80.000=build 2,
92.000=fill 1,
96.000=drop 1,
128.000=drop 2,
160.000=drop 3,
192.000=release 1,
224.000=verse 1,
256.000=build 3,
272.000=build 4,
284.000=fill 2,
288.000=drop 4,
320.000=drop 5,
352.000=end
;
#COMBOS:0.000=1;
#ORIGIN:;
#PREVIEWVID:;
#JACKET:jacket.png;
#CDIMAGE:;
#DISCIMAGE:;
#BGCHANGES:4.000=p-light - adam mv (edit).mp4=1.000=0=0=0=StretchNoLoop====,
99999.000=-nosongbg-=1.000=0=0=0=StretchNoLoop====
;
#FGCHANGES:;

//--------------- dance-single - ----------------
#NOTEDATA:;
#STEPSTYPE:dance-single;
#DESCRIPTION:;
#DIFFICULTY:Hard;
#METER:10;
#RADARVALUES:0.794309,0.892577,0.276625,0.433379,0.050715,603,573,30,47,0,0,2,0,0,0.794309,0.892577,0.276625,0.433379,0.050715,603,573,30,47,0,0,2,0,0;
#CHARTNAME:;
#CHARTSTYLE:Pad;
#CREDIT:Zach Bell;
#NOTES:
0000
0000
0000
0000
,
0000
0000
0000
0000
,
0000
0000
0000
0000
,
0000
0000
0000
0000
,
0001
1000
0010
0200
0300
0010
0100
0001
,
1000
0100
0010
0100
0010
0001
2000
3000
,
0001
1000
0001
0200
0300
0010
0100
0001
,
0010
0100
1000
0020
0000
0030
0000
0000
,
1001
1000
0001
0200
0300
0101
0001
0100
,
0010
1000
0001
0010
0100
1000
0010
0100
,
0110
0010
0100
0002
0003
0101
0100
0001
,
1000
0100
0010
0100
2000
0000
0000
3000
,
1010
0010
0100
0002
0003
1001
1000
0100
,
0010
0100
1000
0001
0100
0010
0100
0001
,
0011
0010
0100
2000
3000
1100
0100
0010
,
0001
1000
0010
2000
0000
0000
3000
0000
,
1010
0000
1000
1100
0000
0100
0010
0001
,
0011
0000
1000
1002
0000
0003
0000
0000
,
0101
0000
0001
0011
0000
0010
0100
1000
,
1100
0000
1000
1020
0000
0030
0000
0000
,
1000
0010
0100
0001
1000
0010
1000
0001
,
0010
0100
1000
0100
1000
0010
0100
0001
,
0100
0001
0010
0100
1000
0010
0100
0001
,
2000
3020
0230
0302
,
1003
0001
1000
0100
0010
0001
1000
0010
,
1000
0001
0100
0001
0010
0100
1000
0010
,
0100
0010
1000
0001
0010
0100
1000
0010
,
0200
0000
0001
0000
0320
0000
1000
0000
0430
0300
0004
0003
0200
0000
0010
0000
,
0301
0100
0001
1000
0100
0010
0100
1000
,
0010
0100
0001
0010
0100
1000
0010
0100
,
0001
0010
0100
2000
3000
0100
1000
0100
,
0010
0001
1000
0020
0000
0030
0000
0000
,
1000
0000
0000
0001
0100
0000
0000
0001
1000
0000
0000
0010
0100
0000
0000
0001
,
1000
0000
0000
0100
0010
0000
0000
0100
1000
0000
0000
0100
0010
0000
0001
0000
,
0001
0000
0000
0010
0001
0000
0000
1000
0010
0000
0000
0100
0001
0000
0000
1000
,
0200
0300
2000
3000
0001
0010
0200
0300
,
1000
0100
0010
0100
1000
0010
0100
0010
,
1000
0001
0010
0100
0010
0001
0100
0010
,
0100
0001
1000
0200
0300
1000
0100
0010
,
0100
1000
0001
0200
0000
0300
0000
0000
,
0001
0100
0010
1000
0001
0010
0100
1000
,
0010
0100
0001
0010
0100
1000
0010
0100
,
0001
0100
0010
0100
0001
1000
0100
0010
,
0100
1000
0010
0100
0001
0010
0100
1000
,
0001
0100
0010
0100
0001
1000
0100
1000
,
0010
0100
0001
0010
0001
0100
0010
1000
,
0200
0300
1000
0002
0003
0100
0020
0000
,
0000
0000
0030
0000
,
1000
0010
1000
0010
0100
0001
0100
0001
,
1000
0100
1000
0100
0010
0001
0010
0001
,
1000
0100
0010
0001
0010
0001
1000
0100
,
1000
0010
0100
0001
0010
0001
0010
0001
,
1000
0010
1000
0010
0100
0001
0100
0001
,
1000
0100
1000
0100
0010
0001
0010
0001
,
1000
0010
0100
0001
0100
0001
1000
0010
,
1000
0100
0010
0001
0020
0030
0000
0000
,
0011
0001
1000
0020
0030
1010
1000
0001
,
0010
0100
1000
0100
0010
0001
1000
0010
,
1010
1000
0001
0200
0300
0110
0001
1000
,
0100
0010
0001
0010
0200
0000
0300
0000
,
1001
0001
0100
0020
0030
0110
1000
0001
,
0010
0100
1000
0001
1000
0010
0100
0001
,
0011
0010
0100
2000
3000
0011
0001
1000
,
0010
0100
0001
0020
0000
0030
0000
0000
,
0001
1000
0001
0010
0001
1000
0010
0100
,
0010
1000
0001
1000
0100
0010
0100
1000
,
1001
0001
0010
0100
0010
0001
1000
0010
,
0100
0001
0100
0010
1000
0001
0010
0100
,
1100
1000
0010
0100
0101
0001
0010
0001
,
1001
1000
0010
0100
0101
0001
1000
0010
,
1010
1000
0001
0001
0010
0010
0100
0100
,
2000
3200
0320
0032
,
1003
0100
0010
0100
1000
0010
0100
0001
,
1000
0100
1000
0010
0100
0001
0010
0001
,
0100
0010
1000
0001
0010
0100
0010
0001
,
1000
1000
0010
0100
0001
0001
0100
0100
,
0010
1000
0001
0010
0100
0010
0001
1000
,
0010
0100
0010
1000
0001
0010
0100
1000
,
0100
0010
0001
0100
0010
0100
0001
1000
,
0010
0010
1000
1000
0010
0020
0030
0000
,
1000
0001
0100
0010
0100
0001
0010
0100
,
1000
0010
0100
0010
1000
0100
0010
0001
,
0100
0001
0010
0100
1000
0010
0100
0001
,
1000
1000
0010
0100
0001
0001
0100
0100
,
0020
0000
1000
0030
2000
0000
0001
3000
,
0002
0000
0103
0000
0100
0010
1000
0001
,
0020
0000
0000
0230
0000
0000
0320
0000
,
0000
0000
0000
0000
,
0030
0000
0000
0000
;

//--------------- dance-single - ----------------
#NOTEDATA:;
#STEPSTYPE:dance-single;
#DESCRIPTION:;
#DIFFICULTY:Challenge;
#METER:12;
#RADARVALUES:1.00112,1.338866,0.368834,0.359613,0.54864,760,720,40,39,0,1,2,0,0,1.00112,1.338866,0.368834,0.359613,0.54864,760,720,40,39,0,1,2,0,0;
#CHARTNAME:;
#CHARTSTYLE:Pad;
#CREDIT:Zach Bell;
#NOTES:
0000
0000
0000
0000
,
0000
0000
0000
0000
,
0000
0000
0000
0000
,
0000
0000
0000
0000
,
1000
0000
0001
0100
0001
0000
2000
0000
3000
0000
0010
0000
1000
0000
0001
0000
,
0010
0000
0100
0010
0001
0000
0010
0000
0001
0000
1000
0000
0020
0000
0030
0000
,
1000
0000
0010
0100
0010
0000
2000
0000
3000
0000
0001
0000
0100
0000
0010
0000
,
0100
0001
2000
0020
0000
3030
0000
0000
,
0101
0001
0100
0020
0030
1010
0010
1000
,
0100
0000
0010
0000
0001
0000
0010
0000
0001
0000
1000
0000
0100
1000
0100
0000
,
0011
0010
0001
2000
3000
1100
1000
0001
,
0100
0000
0010
0000
0100
0010
0100
0010
0100
0000
0001
0000
0100
0000
4000
3000
,
0101
0001
0100
0020
0030
1010
1000
0001
,
0010
0000
0100
0000
0010
0000
0001
0000
1000
0000
0010
0000
1000
0010
0100
0000
,
0110
0010
0100
0002
0003
1001
1000
0100
,
0010
0000
0100
0000
0100
1000
0100
1000
0200
0000
0000
0000
0000
0000
0000
0000
,
1310
0000
0001
1100
0000
0010
1100
0001
,
1100
0000
0001
2020
0000
3030
0000
0000
,
0101
0000
1000
0011
0000
0100
0011
1000
,
0011
0000
1000
0202
0000
0303
0000
0000
,
1000
0000
0001
0000
0100
0000
0010
0000
0100
0000
0001
0000
1000
0100
1000
0000
,
0100
0000
0010
0000
0001
0000
1000
0000
0010
0000
0100
0000
0001
0100
0001
0000
,
0100
0000
0010
0000
1000
0001
1000
0000
0001
0000
0100
0000
0010
0000
1000
0000
,
0002
0023
0230
2300
,
3001
1000
0010
0100
0001
0010
0100
1000
,
0001
0100
0010
0100
0001
1000
0100
1000
0001
0100
0010
0100
0001
0000
0001
0000
,
0100
0010
1000
0010
0100
0001
0010
0100
,
0010
0000
0100
0000
1000
0000
0010
0000
0100
0000
0010
1000
0001
0000
1000
0000
,
1000
0001
0010
0100
0010
0001
0100
0010
,
1000
0010
1000
0001
0010
0100
0010
0001
1000
0010
1000
0001
0010
0000
0010
0000
,
0001
0001
1000
0020
0100
1030
0200
0001
,
0310
0002
0100
1000
0013
0001
2000
3000
,
0001
0000
0000
1000
0100
0000
0000
1000
0001
0000
0000
0100
0010
0000
0000
1000
,
0001
0100
0010
0000
1000
0010
0100
0000
0001
1000
0100
0000
0010
0100
1000
0000
,
1000
0000
0000
0001
0100
0000
0000
0010
1000
0000
0000
0010
0100
0000
0000
0001
,
1000
0000
0000
0100
0010
0100
1000
0000
0001
1000
0100
0010
0001
0000
0001
0000
,
0001
0010
0001
0010
0100
0010
0100
0010
0100
1000
0100
1000
0001
1000
0001
1000
,
0001
0100
0001
0100
0010
0100
0010
0100
0010
1000
0010
1000
0001
1000
0001
1000
,
0001
0000
1100
0010
0000
1100
0001
1000
,
0101
0000
0000
0000
0010
0000
0202
0000
0000
0000
0000
0303
0000
0000
0000
0000
,
1000
0001
0100
0010
0100
0001
0010
0100
,
1000
0000
0010
0000
0100
0000
0010
0000
1000
0000
0100
0000
1000
0100
0010
0100
,
1000
0100
0010
0001
0100
0010
0100
0001
,
0010
0000
0100
0000
1000
0000
0010
0000
1000
0000
0001
0100
0010
0100
0001
1000
,
0100
0010
0100
1000
0010
0100
0001
0010
,
0001
0100
0010
1000
0100
0010
0100
1000
,
0001
1000
0001
1000
0010
1000
0010
1000
0010
0100
0010
0100
0001
0100
0001
0100
,
0001
1000
0001
1000
0100
1000
0100
1000
0100
0010
0100
0010
0002
0000
0003
0000
,
0010
0001
1000
0010
0100
0001
0100
0010
,
1000
0001
0010
0100
1000
0001
1000
0100
,
0010
0001
1000
0010
0100
0001
0100
0010
,
1000
0001
0010
0100
1000
0001
1000
0100
,
0010
0001
1000
0000
0010
0000
0100
0000
0001
0100
0010
0000
1000
0000
0001
0000
,
0010
0100
1000
0000
0001
0000
1000
0000
0100
0010
0001
0000
1000
0000
0010
0000
,
0100
0001
0100
0000
0010
0000
1000
0000
0001
0010
0100
0000
1000
0000
0001
0000
,
1000
0100
0010
0000
0001
0000
1000
0000
0010
0200
0002
0000
0000
0000
0303
0000
,
0101
0001
1000
0020
0030
1010
1000
0010
,
0100
0000
0001
0000
1000
0000
0100
0000
0010
0000
0001
0000
1000
0010
0100
0000
,
0110
0010
1000
0002
0003
0011
0010
0001
,
1000
0000
0010
0000
1000
0010
0100
0010
1000
0000
0001
0000
0010
0000
4000
3000
,
0011
0001
1000
0200
0300
1100
1000
0001
,
0100
0000
0010
0000
1000
0000
0100
0000
0010
0000
0001
0000
0100
0010
1000
0000
,
1010
0010
0100
0002
0003
0101
0100
0010
,
1000
0000
0001
0000
0100
0010
1000
0010
0200
0000
0000
0000
0000
0000
0000
0000
,
0301
0100
0010
1000
0100
0010
0001
0100
,
0001
0010
0100
1000
0010
0100
0010
1000
,
0011
0100
0010
1000
0001
0010
0100
0010
,
0001
0100
0001
0010
0100
1000
0100
0010
,
0101
0010
0100
1000
0101
1000
0001
1000
,
0011
0100
0010
0100
0011
1000
0001
0010
,
0101
1000
0100
1000
0001
0100
0010
1000
,
0002
0023
0230
2300
,
3001
1000
0010
0100
0001
0010
0100
1000
,
0100
0000
1000
0000
0010
0000
0100
0000
0001
0000
1000
0000
0010
0100
0001
1000
,
0010
0100
0001
0010
0100
0010
0001
0100
,
0001
0000
0001
0000
0100
0000
0010
0000
1000
0000
0001
0100
0010
1000
0001
0100
,
0010
1000
0001
0010
0100
0010
0001
0100
,
0010
0000
1000
0000
0100
0000
1000
0000
0010
0000
0100
0000
0001
0100
0010
1000
,
0010
0100
0001
1000
0100
0010
0100
1000
,
0001
0000
0001
0000
0100
0000
0010
0000
1000
0010
0100
0002
0003
0000
0000
0000
,
0101
0000
0001
1000
0100
0010
0100
1000
,
0010
0000
0100
0000
0001
0000
0010
0000
0100
0000
0010
0000
0001
0010
0100
0010
,
0001
1000
0010
0100
0001
0010
0100
1000
,
0001
0000
0001
0000
0100
0000
0010
0000
1000
0000
0001
0100
0010
0100
0001
1000
,
0010
0000
1000
0010
0110
0000
0001
0000
,
0101
0000
0000
0000
1000
0000
0001
0000
0011
0000
0001
0000
0010
0001
1000
0000
,
0010
0100
0001
0100
0010
1000
0010
0100
0001
0100
0010
1000
0001
1000
0100
0010
,
0100
1000
0001
1000
0001
0100
0001
1000
0010
1000
0001
0200
0002
0000
0000
0000
,
0303
0000
0000
0000
;
