#VERSION:0.83;
#TITLE:A thing, on my birthd'eh;
#SUBTITLE:;
#ARTIST:SeamlessR;
#TITLETRANSLIT:;
#SUBTITLETRANSLIT:;
#ARTISTTRANSLIT:;
#GENRE:;
#ORIGIN:;
#CREDIT:;
#BANNER:bn.png;
#BACKGROUND:bg.png;
#PREVIEWVID:;
#JACKET:;
#CDIMAGE:;
#DISCIMAGE:;
#LYRICSPATH:;
#CDTITLE:;
#MUSIC:A thing, on my birthd'eh.ogg;
#OFFSET:1.310000;
#SAMPLESTART:1.310000;
#SAMPLELENGTH:12.000000;
#SELECTABLE:YES;
#DISPLAYBPM:*;
#BPMS:0.000=174.000,
20.000=348.000,
28.000=174.000,
40.000=348.000,
48.000=174.000,
60.000=348.000,
68.000=174.000,
72.000=348.000,
80.000=174.000,
84.000=348.000,
92.000=300.000,
92.500=275.000,
93.000=250.000,
93.500=225.000,
94.000=200.000,
94.500=175.000,
95.000=150.000,
95.500=125.000,
96.000=100.000,
96.500=75.000,
97.000=60.000,
97.333=348.000;
#STOPS:97.333=0.200;
#DELAYS:;
#WARPS:;
#TIMESIGNATURES:0.000=4=4;
#TICKCOUNTS:0.000=4;
#COMBOS:0.000=1;
#SPEEDS:0.000=1.000=0.000=0;
#SCROLLS:0.000=1.000;
#FAKES:;
#LABELS:4.000= song start,
8.000=start,
92.000=build,
290.000=end;
#BGCHANGES:;
#KEYSOUNDS:;
#ATTACKS:
;

//---------------dance-single - ----------------
#NOTEDATA:;
#CHARTNAME:;
#STEPSTYPE:dance-single;
#DESCRIPTION:;
#CHARTSTYLE:Pad;
#DIFFICULTY:Hard;
#METER:16;
#RADARVALUES:0.856730,1.028866,0.000000,0.309433,0.117879,407.000000,407.000000,0.000000,21.000000,0.000000,0.000000,0.000000,0.000000,0.000000,0.856730,1.028866,0.000000,0.309433,0.117879,407.000000,407.000000,0.000000,21.000000,0.000000,0.000000,0.000000,0.000000,0.000000;
#CREDIT:Elik;
#DISPLAYBPM:174.000000:348.000000;
#NOTES:
// measure 0
0000
0000
0000
0000
,  // measure 1
0000
0000
0000
0000
,  // measure 2
0001
0000
0010
0100
0000
0100
1000
0010
,  // measure 3
0100
0001
0010
1000
0010
0001
0100
1000
,  // measure 4
0100
0000
0010
1000
0000
1000
0001
0010
,  // measure 5
0200
0000
0000
0000
0000
2300
0000
0000
0000
0000
3002
0000
,  // measure 6
0000
0000
0000
0203
0000
0000
0000
0302
0000
0000
0000
0000
,  // measure 7
1003
0100
1000
0000
0001
0000
0100
0000
0010
0100
0010
0000
1000
0000
0100
0000
,  // measure 8
0001
0100
1000
0010
0001
0010
1000
0001
,  // measure 9
0010
0000
0100
1000
0000
0001
0100
0001
,  // measure 10
0020
0000
0000
0000
0000
0230
0000
0000
0000
0000
2300
0000
,  // measure 11
0000
0000
0000
3002
0000
0000
0000
0203
0000
0000
0000
0000
,  // measure 12
0310
0000
0100
0010
0000
0010
0100
0001
,  // measure 13
1000
0100
0001
0100
1000
0010
0001
0010
,  // measure 14
1000
0000
0010
0100
0000
0100
0001
0100
,  // measure 15
0020
0000
0000
0000
0000
2030
0000
0000
0000
0000
3200
0000
,  // measure 16
0000
0000
0000
0302
0000
0000
0000
0203
0000
0000
0000
0000
,  // measure 17
0310
0001
0010
0000
0100
0000
1000
0000
0001
0100
0001
0000
1000
0000
0100
0000
,  // measure 18
0010
0100
0010
0000
0001
1000
0001
0000
,  // measure 19
0100
0010
0100
0000
0010
1000
0010
0000
,  // measure 20
0100
0000
0001
0100
0000
0100
0010
1000
,  // measure 21
0200
0000
0000
0000
0000
0320
0000
0000
0000
0000
0032
0000
,  // measure 22
0000
0000
2003
0000
0000
0000
3200
0000
0000
0000
0000
0000
,  // measure 23
0000
0000
0000
0000
,  // measure 24
0000
0000
0000
0000
0300
0000
0000
0000
0000
1000
0000
0000
,  // measure 25
0100
0000
0010
0100
1000
0000
0010
0000
,  // measure 26
0100
0000
0010
0100
0001
0000
0010
0000
,  // measure 27
0100
0000
1000
0100
0010
0000
0001
0000
,  // measure 28
1000
0000
0010
0100
0001
0000
0010
0000
,  // measure 29
0001
0000
0010
0100
1000
0000
0100
0000
,  // measure 30
1000
0000
0010
0100
0001
0000
0010
0000
,  // measure 31
0100
0000
1000
0100
0010
0000
0001
0100
,  // measure 32
0010
0000
0100
0010
1000
0000
0001
0000
,  // measure 33
0010
0000
0100
0010
0001
0010
0001
0000
,  // measure 34
0100
0000
0010
1000
0100
1000
0100
0000
,  // measure 35
1000
0000
0001
1000
0010
1000
0010
0000
,  // measure 36
0100
0000
0010
1000
0001
1000
0001
0000
,  // measure 37
0100
0000
0001
0100
0010
0100
0001
0000
,  // measure 38
0010
0000
0100
0010
0001
0010
0001
0000
,  // measure 39
0010
0000
0100
1000
0010
1000
0100
0000
,  // measure 40
0010
0000
0001
0100
0010
0100
0010
0000
,  // measure 41
1000
0000
0100
1000
0001
0100
0010
1000
,  // measure 42
0001
0000
1000
0001
0100
0000
0010
0000
,  // measure 43
0100
0000
0010
1000
0100
0010
0100
1000
,  // measure 44
0100
0000
0010
0100
1000
0000
0010
0000
,  // measure 45
0100
0000
0010
0100
0001
0010
0100
0010
,  // measure 46
0001
0000
0100
0010
1000
0000
0010
0000
,  // measure 47
0100
0000
0001
0010
0100
0010
0001
0100
,  // measure 48
0010
0000
1000
0010
0100
0000
0010
0000
,  // measure 49
0100
0000
0010
1000
0100
1000
0001
0010
,  // measure 50
0001
0000
0100
0010
1000
0000
0001
0000
,  // measure 51
0010
0000
0100
0010
0001
1000
0010
0100
,  // measure 52
0010
0000
1000
0001
0010
0000
0001
0000
,  // measure 53
0010
0000
0100
0010
0100
1000
0010
0100
,  // measure 54
0001
0000
0010
0001
1000
0000
0010
0000
,  // measure 55
0100
0000
0010
1000
0100
0010
0100
1000
,  // measure 56
0001
0000
0100
0010
1000
0000
0001
0000
,  // measure 57
0010
0000
0100
1000
0010
0100
0001
0100
,  // measure 58
0010
1000
0100
0000
0010
0100
1000
0000
,  // measure 59
0010
0000
1000
0010
0100
0001
1000
0010
,  // measure 60
0100
0010
1000
0000
0100
0010
0001
0000
,  // measure 61
0100
0000
0010
0100
0010
1000
0100
0010
,  // measure 62
0100
1000
0010
0000
0100
0001
1000
0000
,  // measure 63
0100
0000
0010
0100
1000
0010
0100
0001
,  // measure 64
0010
0100
1000
0000
0010
0100
0001
0000
,  // measure 65
0100
0000
0010
1000
0100
0010
0001
0010
,  // measure 66
0100
0000
0010
0100
1000
0010
0100
0010
,  // measure 67
1000
0000
0001
0010
0100
1000
0100
0010
,  // measure 68
0100
0000
1000
0001
0100
0010
0100
0001
,  // measure 69
0010
0001
0100
0010
1000
0010
0100
0010
,  // measure 70
1000
0100
0010
0001
0010
0100
1000
0001
,  // measure 71
0100
0010
1000
0100
0010
0100
1000
0010
,  // measure 72
0100
0001
1000
0010
0200
0000
0000
0000
,  // measure 73
0000
0000
0300
0000
;

//---------------dance-single - ----------------
#NOTEDATA:;
#CHARTNAME:;
#STEPSTYPE:dance-single;
#DESCRIPTION:;
#CHARTSTYLE:Pad;
#DIFFICULTY:Medium;
#METER:12;
#RADARVALUES:0.623077,0.812262,0.000000,0.309433,0.103144,296.000000,296.000000,0.000000,21.000000,0.000000,0.000000,0.000000,0.000000,0.000000,0.623077,0.812262,0.000000,0.309433,0.103144,296.000000,296.000000,0.000000,21.000000,0.000000,0.000000,0.000000,0.000000,0.000000;
#CREDIT:Elik;
#DISPLAYBPM:*;
#NOTES:
0000
0000
0000
0000
,
0000
0000
0000
0000
,
1000
1000
0001
0100
0000
0100
0010
0000
,
0001
0000
0010
0000
0100
0000
0000
0010
1000
0000
1000
0000
0100
0000
0000
0000
,
0001
0001
0100
0010
0000
0010
1000
0100
,
0020
0000
0000
0000
0032
0000
0000
0000
0003
0200
0000
0000
,
0000
0320
0000
0000
0000
2030
0000
0000
0000
3000
0000
0000
,
0001
0001
1000
0010
0000
0010
0100
0000
,
0001
0010
0100
0000
0010
0010
1000
0000
,
0100
0100
1000
0010
0000
0010
0100
0000
,
0002
0000
0000
0000
0023
0000
0000
0000
0030
0200
0000
0000
,
0000
2300
0000
0000
0000
3002
0000
0000
0000
0003
0000
0000
,
1000
1000
0001
0100
0000
0100
0010
0000
,
0001
0000
0010
0000
0100
0000
0000
0010
0100
0000
0100
0000
0001
0000
0000
0000
,
0010
0010
0001
0100
0000
0100
0001
0000
,
2000
0000
0000
0000
3002
0000
0000
0000
0000
0203
0000
0000
,
0000
0020
0000
0300
0000
2030
0000
0000
0000
0000
3000
0000
,
0010
0010
1000
0100
0000
0100
0010
0000
,
1000
0100
0010
0001
,
1000
0010
0100
0001
,
1000
1000
0001
0100
0000
0100
0001
0000
,
0020
0000
0000
0000
0032
0000
0000
0000
0003
0200
0000
0000
,
0000
0320
0000
0000
0000
2030
0000
0000
0000
0000
0000
0000
,
0000
0000
0000
0000
,
0000
0000
0000
0000
3000
0000
0000
0000
0000
1000
0000
0000
,
0100
0010
0001
1000
,
0100
0010
0001
1000
,
0010
0100
0001
1000
,
0010
0100
0001
1000
,
0100
0010
0001
1000
,
0100
0010
0001
1000
,
0010
0100
0001
1000
,
0010
0100
0001
0010
,
0001
0010
0001
0100
,
0010
0100
0001
0010
,
0100
1000
0100
1000
,
0100
1000
0010
0100
,
0001
0010
0100
1000
,
0010
0100
0001
0010
,
0100
1000
0010
0100
,
0001
0000
0001
0000
,
0010
1000
0100
0010
,
0100
1000
0010
0100
,
0001
0010
0100
0010
,
0001
1000
0010
0100
,
0010
1000
0100
0010
,
0100
1000
0010
0100
,
0001
0010
0001
0100
,
0001
1000
0010
0100
,
0010
1000
0100
0010
,
0001
0010
0100
0010
,
0001
0100
0010
0100
,
0001
0010
0001
0010
,
0100
1000
0100
1000
,
0010
0100
0010
0100
,
0001
0010
0100
1000
,
0100
0010
0001
0100
,
0010
1000
0100
1000
,
0010
0100
0010
1000
,
0100
0010
0100
1000
,
0001
0100
0010
1000
,
0010
0100
0001
0010
,
0100
0010
0001
0010
,
0100
1000
0100
1000
,
0010
0000
1000
0000
0010
0000
0100
0001
,
0100
0001
1000
0100
,
1000
0000
0010
0000
0100
0000
0001
0010
,
0001
1000
0010
0100
,
0010
0000
1000
0000
0100
0000
0010
0100
,
0010
0000
0001
0000
0100
0000
0010
0100
,
0001
0000
0100
0000
0010
0000
1000
0010
,
1000
0000
0001
0100
0001
0000
0010
0100
,
0010
0100
0010
1000
0200
0000
0000
0000
,
0000
0000
0300
0000
;

//---------------dance-single - ----------------
#NOTEDATA:;
#CHARTNAME:;
#STEPSTYPE:dance-single;
#DESCRIPTION:;
#CHARTSTYLE:Pad;
#DIFFICULTY:Easy;
#METER:9;
#RADARVALUES:0.387318,0.541508,0.000000,0.235759,0.007367,184.000000,184.000000,0.000000,16.000000,0.000000,0.000000,0.000000,0.000000,0.000000,0.387318,0.541508,0.000000,0.235759,0.007367,184.000000,184.000000,0.000000,16.000000,0.000000,0.000000,0.000000,0.000000,0.000000;
#CREDIT:Elik;
#DISPLAYBPM:*;
#NOTES:
0000
0000
0000
0000
,
0000
0000
0000
0000
,
2000
0010
0010
3100
,
0001
0000
1000
0000
0010
0010
0100
0000
,
0002
1000
0100
0103
,
2000
0000
0000
3000
,
0002
0000
0000
0003
,
0200
0010
0001
1300
,
0010
0000
0001
0000
1000
1000
0010
0000
,
0200
0001
0010
1300
,
1000
0000
0100
0000
,
1000
0000
0010
0000
,
0002
1000
0100
0103
,
1000
0000
0010
0000
0100
0100
0001
0000
,
0020
0100
1000
0130
,
0002
0000
0000
0003
,
2000
0000
0000
3000
,
0200
0001
1000
0301
,
0010
0000
1000
0000
,
1000
0000
0010
0000
,
0020
0100
1000
1030
,
0200
0000
0000
0000
0000
0000
0000
0300
0000
0002
0000
0000
,
0000
0000
0000
0000
0000
0023
0000
0000
0000
0000
0000
0000
,
0000
0000
0000
0000
,
0000
0000
0000
0000
0030
0000
0000
0000
0000
0010
0000
0000
,
0000
0001
0000
0100
,
0000
0001
0000
1000
,
0000
0001
0000
0010
,
0000
0100
0000
0001
,
0000
1000
0000
0010
,
0000
0100
0000
0001
,
0000
0010
0000
0100
,
0000
0010
0100
1000
,
0000
0010
0000
0100
,
0000
0010
0000
1000
,
0000
0100
0000
0010
,
0000
0100
0000
1000
,
0000
0010
0000
0100
,
0000
0001
0000
0010
,
0000
0100
0000
0001
,
0010
0001
0010
0100
,
0000
0010
0000
0001
,
0100
0010
0000
0100
,
0000
0010
0000
1000
,
0001
0100
0000
0010
,
0000
1000
0000
0100
,
0010
0001
0000
0100
,
0000
0010
0000
1000
,
0010
0100
0000
0010
,
0000
0100
0000
1000
,
0010
0100
0000
0010
,
0000
0001
0000
0100
,
0010
1000
0000
0001
,
0000
0100
0000
0010
,
0100
1000
0000
0010
,
0000
0100
0000
0010
,
0001
0100
0000
0010
,
0100
0001
0000
0010
,
0100
0010
0000
0001
,
0000
0100
0000
0010
,
1000
0100
0000
1000
,
0010
0100
0000
0010
,
0100
1000
0000
0010
,
0000
0100
0000
0001
,
0010
0100
0000
0010
,
0100
1000
0000
0100
,
0010
0100
0000
0010
,
0000
1000
0000
0001
,
0100
0010
0000
1000
,
0001
0010
0000
0100
,
1000
0100
0000
1000
,
0010
1000
0010
0100
,
0010
1000
0200
0000
,
0000
0000
0300
0000
;

//---------------dance-single - ----------------
#NOTEDATA:;
#CHARTNAME:;
#STEPSTYPE:dance-single;
#DESCRIPTION:;
#CHARTSTYLE:Pad;
#DIFFICULTY:Beginner;
#METER:5;
#RADARVALUES:0.185239,0.379056,0.000000,0.147349,0.007367,88.000000,88.000000,0.000000,10.000000,0.000000,0.000000,0.000000,0.000000,0.000000,0.185239,0.379056,0.000000,0.147349,0.007367,88.000000,88.000000,0.000000,10.000000,0.000000,0.000000,0.000000,0.000000,0.000000;
#CREDIT:Elik;
#DISPLAYBPM:*;
#NOTES:
0000
0000
0000
0000
,
0000
0000
0000
0000
,
2000
0000
0010
3000
,
0001
0001
0100
0100
,
0020
0000
0100
0030
,
1000
0000
0000
0000
,
0100
0000
0000
0000
,
0002
0000
0100
0003
,
0010
0010
0100
0100
,
2000
0000
0001
3000
,
0100
0000
0000
0000
,
0010
0000
0000
0000
,
0002
0000
0100
0003
,
1000
1000
0010
0010
,
0200
0000
0010
0300
,
1000
0000
0000
0000
,
0100
0000
0000
0000
,
0002
0000
0100
0003
,
0010
0000
0000
0000
,
0100
0000
0000
0000
,
2000
0000
0100
3000
,
0010
0000
0000
0000
,
0200
0000
0000
0000
,
0000
0000
0000
0300
,
0000
0000
0000
0000
0010
0000
0000
0000
0000
1000
0000
0000
,
0000
0000
0000
0100
,
0000
0000
0000
0010
,
0000
0000
0000
1000
,
0000
0000
0000
0001
,
0000
0000
0000
0100
,
0000
0000
0000
0001
,
0000
0000
0000
0100
,
0000
0000
0000
0010
,
0000
0000
0000
1000
,
0000
0000
0000
0001
,
0000
0000
0000
0100
,
0000
0000
0000
0010
,
0000
0000
0000
1000
,
0000
0000
0000
0100
,
0000
0000
0000
1000
,
0000
0000
0000
0001
,
0000
0000
0000
0100
,
0000
0000
0000
0010
,
0000
0000
0000
1000
,
0000
0000
0000
0010
,
0000
0000
0000
0100
,
0000
0000
0000
0001
,
0000
0000
0000
0010
,
0000
0000
0000
0001
,
0000
0000
0000
0010
,
0000
0000
0000
0010
,
0000
0000
0000
0100
,
0000
0000
0000
0100
,
0000
0000
0000
1000
,
0000
0000
0000
1000
,
0000
0000
0000
0100
,
0000
0000
0000
0001
,
0000
0000
0000
0100
,
0000
0000
0000
0010
,
0000
0000
0000
1000
,
0000
0000
0000
0010
,
0000
0000
0000
0001
,
0000
0000
0000
0100
,
0000
0000
0000
0010
,
0000
0000
0000
1000
,
0000
0000
0000
0010
,
0000
0000
0000
0100
,
0000
0000
0000
0001
,
0000
0000
0000
1000
,
0000
0000
0000
0010
,
0000
0000
0000
1000
,
0000
0000
0000
0100
,
0000
0000
0200
0000
,
0000
0000
0300
0000
;

//---------------dance-single - ----------------
#NOTEDATA:;
#CHARTNAME:;
#STEPSTYPE:dance-single;
#DESCRIPTION:;
#CHARTSTYLE:Pad;
#DIFFICULTY:Challenge;
#METER:19;
#RADARVALUES:1.134589,1.516223,0.427313,0.265229,0.427313,539.000000,510.000000,29.000000,18.000000,0.000000,0.000000,0.000000,0.000000,0.000000,1.134589,1.516223,0.427313,0.265229,0.427313,539.000000,510.000000,29.000000,18.000000,0.000000,0.000000,0.000000,0.000000,0.000000;
#CREDIT:Mozata;
#DISPLAYBPM:*;
#NOTES:
0000
0000
0000
0000
,
0000
0000
0000
0000
,
0011
0000
0010
0001
0000
0010
0001
0000
0010
0001
0000
0010
0001
0000
0100
0000
,
1010
0100
0010
1000
0010
0001
0010
1000
,
1100
0000
1000
0100
0000
1000
0100
0000
1000
0100
0000
1000
0100
0000
0010
0000
,
0102
0000
0000
1003
0000
0000
0210
0000
,
0000
1300
0000
0000
0011
0000
0010
0000
,
0001
1000
0010
0100
0020
0000
0000
0000
0130
0001
1000
0100
0020
0000
0000
0000
,
0031
0110
1100
0110
0101
0110
1100
1001
,
0100
0001
0100
0001
1000
0000
1100
0000
0000
0000
0011
0000
0000
0000
1100
0000
,
2100
0000
3100
1000
0000
0002
0100
0000
,
2003
0100
0000
3002
0010
0000
0103
0000
,
0010
1000
0010
1000
0001
0100
0001
0100
0001
0010
0001
0010
0100
1000
0100
1000
,
0100
0001
0010
0000
0100
1000
0010
0000
,
1000
0001
1000
0001
0100
0010
0100
0010
0100
0001
0100
0001
1000
0010
1000
0010
,
1000
0010
1000
0010
1000
0000
0001
0201
,
0000
1300
0200
0000
0010
0000
0301
0000
,
2020
0000
0000
0000
0000
0000
0000
3030
,
1000
0000
0010
0000
1000
0000
0001
0000
0010
0000
0001
0000
,
1000
0000
0100
0000
1000
0000
0001
0000
0100
0000
0001
0000
,
2002
0000
0000
0000
0000
0000
0000
3003
,
1001
0010
1001
0100
,
0010
1000
0100
0001
0100
1000
0010
0000
,
0220
0000
0000
0000
,
0000
0000
0000
0000
0330
0000
0000
0000
0000
1000
0000
0000
,
0010
1000
0000
0010
1000
0010
0100
0000
,
0010
0001
0000
0010
0100
0010
1000
0000
,
0001
1000
0000
0001
1000
0001
1000
0000
,
0010
0100
0000
0010
0100
0010
0100
0000
,
0001
1001
0000
1000
0001
0100
0001
0000
,
1000
1001
0000
1000
0010
0100
0001
0000
,
0001
1001
0000
0100
0001
0010
1000
0010
,
0001
0100
1000
0100
0010
0001
1000
0100
,
0001
0010
0001
0000
1000
0001
0000
1000
,
0001
0000
0001
0010
0100
1000
0001
1000
,
0010
0100
0001
0000
1000
0001
0000
1000
,
0001
0000
1000
0010
0100
0001
1000
0001
,
0010
0100
1000
0000
0001
1000
0000
0001
,
1000
0000
0100
0010
0010
0100
1000
0001
,
1000
0001
1000
0000
0010
1000
0000
0001
,
0100
0000
1100
0000
0011
0000
0010
0001
,
0100
0010
1000
0100
0010
0001
1000
0010
,
0100
1000
0100
0010
1000
0100
0010
0001
,
0100
0010
0100
0001
1000
0001
0100
0010
,
0100
0010
1000
0001
0010
0001
0010
0001
,
0010
1000
0010
0001
1000
0010
1000
0010
,
0001
0010
1000
0001
0100
1000
0100
0001
,
0100
1000
0010
0100
0001
0010
0001
0100
,
0001
0010
0100
1000
0010
1000
0100
1000
,
0001
0010
0001
1000
0100
1000
0010
0100
,
0001
0100
0001
1000
0001
0010
1000
0010
,
0100
0010
1000
0010
0001
0100
0010
1000
,
0010
0001
0010
0100
0010
1000
0010
0001
,
1000
0100
0001
1000
0010
0001
0010
0100
,
1000
0100
0010
1000
0001
1000
0001
0100
,
0010
0100
0010
1000
0010
1000
0010
0100
,
0001
0100
0001
1000
0100
0010
0001
1000
,
0100
0010
0001
1000
0001
1000
0010
0100
,
0010
1000
0100
1000
0010
0100
0010
0001
,
1000
0001
0010
0100
0010
1000
0100
1000
,
0001
0010
0001
1000
0010
1000
0001
0010
,
1000
0010
0001
0100
0001
0010
0100
1000
,
0100
0010
0001
0100
0010
1000
0010
0100
,
0001
1000
0001
1000
0001
0100
0010
0100
,
0010
0100
0001
0010
0001
0010
0001
1000
,
0100
0000
0000
0010
0000
0000
0001
0000
0000
1000
0000
0000
0010
0000
0000
0100
0000
0000
0001
0000
0100
0000
0010
0000
,
1000
0000
0100
0000
0010
0000
0001
0000
0000
1000
0000
0000
0001
0000
0000
1000
0000
0000
0010
0000
0100
0000
0010
0000
,
0100
0000
0010
0000
0100
0000
0010
0000
0000
1000
0000
0000
0100
0000
0000
0010
0000
0000
0001
0000
0010
0000
0100
0000
,
1000
0000
0010
0000
0100
0000
0001
0000
0000
0100
0000
0000
0001
0000
0000
1000
0000
0000
0010
0000
1000
0000
0010
0000
,
1000
0000
0001
0000
1000
0000
0100
0000
0000
1000
0000
0000
0100
0000
0000
0010
0000
0000
0001
0000
0100
0000
1000
0000
,
0100
0000
0001
0000
0010
0000
0100
0000
0000
1000
0000
0000
0100
0000
0000
1000
0000
0000
0100
0000
0000
0001
0000
0000
,
0100
1000
0010
1000
0001
0100
0010
1000
,
0100
0010
0001
0010
2002
0000
0000
0000
,
0000
0000
3003
0000
;
