#TITLE:Touch Me;
#ARTIST:C-Show;
#GENRE:DIVING GHOST;
#MUSIC:Touch Me.mp3;
#BANNER:Touch Me.png;
#BACKGROUND:Touch Me-bg.png;
#CDTITLE:./CDTitles/NAMCO MUSEUM ARCADE PAC.png;
#SAMPLESTART:33.806;
#SAMPLELENGTH:15.000;
#SELECTABLE:YES;
#OFFSET:-1.951;
#BPMS:0.000=128.000;
#STOPS:;
#BGCHANGES:;
#FGCHANGES:;

//--------------- dance-single - ----------------
#NOTES:
     dance-single:
     :
     Beginner:
     3:
     0,0,0,0,0:
0000
0000
0000
0000
,
0000
0000
0000
0000
,
0000
0000
0000
0000
,
0000
0000
0000
0000
,
0000
0000
0000
0000
,
0000
0100
0000
0010
,
0000
1000
0000
0001
,
0000
0010
0000
1000
,
0000
0010
0000
0100
,
1001
0000
0000
0000
,
0010
0000
0000
0000
,
0100
0000
0000
0000
,
0010
0000
0000
0000
,
0100
0000
0010
0000
,
0100
0000
0010
0000
,
0100
0000
0010
0000
,
0100
0000
0000
0000
,
1001
0100
1000
0000
,
0010
0001
0010
0000
,
1000
0100
1000
0000
,
0001
0010
0001
1000
,
0001
0100
0010
0000
,
1000
0001
0100
0000
,
0010
1000
0001
0000
,
0010
0100
1000
0000
,
1001
0000
0010
0000
,
0100
0000
1000
0000
,
0001
0000
0010
0000
,
1000
0000
0000
0000
,
1001
0000
0100
0000
,
1000
0000
0001
0000
,
0010
0000
1000
0000
,
0010
0000
1000
0000
,
0001
0000
0010
0000
,
1000
0000
0001
0000
,
0010
0000
0100
0000
,
1000
0000
0010
0000
,
1001
0000
0110
0000
,
1001
0000
0110
0000
,
0010
0010
0010
0010
,
0210
0000
0000
0000
,
0310
0000
0000
0000
,
0010
0000
0000
1000
,
1001
0100
0010
0000
,
0001
0010
0001
0000
,
1000
0001
1000
0000
,
0010
0100
1000
0000
,
0100
0010
0010
0000
,
0001
1000
0001
0000
,
0010
0000
1000
0000
,
0001
0000
0010
0000
,
1000
0001
0100
0000
,
0001
0010
0100
0000
,
1000
1000
1000
0000
,
0001
0010
0100
0000
,
0001
0000
0010
0000
,
0002
0000
0000
0103
,
0200
0300
0000
0000
;

//--------------- dance-single - ----------------
#NOTES:
     dance-single:
     :
     Easy:
     5:
     0,0,0,0,0:
0000
0000
0000
0000
,
0000
0000
0000
0000
,
0000
0000
0000
0000
,
0000
0000
0000
0000
,
0000
0000
0000
0000
,
0000
0010
0000
0010
,
0000
1000
0000
0001
,
0000
0010
0000
1000
,
0000
0001
0000
0010
,
1001
0000
0010
0000
,
1000
0000
0001
0000
,
0010
0000
1000
0000
,
0001
0000
0010
0000
,
1000
0000
0001
0000
,
0010
0000
1000
0000
,
0001
0010
0100
1000
,
0002
0000
0000
1003
,
1001
0100
1000
0001
,
0010
1000
0001
0010
,
0100
1000
0001
0010
,
0100
1000
0001
0010
,
0100
1000
0001
0010
,
0100
0001
1000
0001
,
0100
1000
0001
0010
,
0200
0000
0000
0300
,
1001
0010
1000
0000
,
0001
0010
1000
0000
,
0010
1000
0001
0000
,
0010
0000
0200
0000
,
0301
0000
0000
0000
0000
0000
1000
0000
0000
0000
0000
0001
0000
0000
0000
0000
,
0100
0000
0000
0000
0000
0000
0000
1000
0000
0000
0000
0001
0000
0100
1000
0000
,
0001
0000
0000
0000
0000
0000
0000
0000
1000
0000
0000
0010
0000
0000
0000
0000
,
0100
0000
0000
0001
0000
0000
1000
0000
0000
0000
0010
0000
2000
0000
0000
0000
,
3010
0000
0001
0000
0000
0000
0000
0000
1000
0000
0000
0001
0000
0000
0100
0000
,
0010
0000
1000
0000
0000
0000
0001
0100
0000
0000
0000
1000
0000
0000
0001
0000
,
1000
0000
0010
0000
0000
0000
0000
0000
1000
0000
0000
0001
0000
0000
0100
0000
,
1000
0000
0000
0001
0000
0000
0100
0000
0000
0000
0010
0000
0100
0000
0010
0000
,
0100
0000
0110
0000
,
1001
0000
1100
0000
,
0011
0011
0011
0011
,
0200
0000
0000
0000
,
0302
0000
0000
0000
,
1003
0000
0000
0000
,
1001
0100
0010
1000
,
0001
0010
1000
0001
,
0010
1000
0001
0010
,
0100
1000
0001
0010
,
1000
0010
0100
1000
,
0001
1000
0001
0100
,
1001
0100
1000
0001
,
0010
0100
1000
0001
,
1001
0100
0010
1000
,
0001
0010
0100
1000
,
0001
0010
0100
1000
,
0001
0010
0100
1000
,
0001
0010
0100
1000
,
0002
0000
0000
0010
,
0203
0300
0000
0000
;

//--------------- dance-single - ----------------
#NOTES:
     dance-single:
     :
     Medium:
     8:
     0,0,0,0,0:
0000
0000
0000
0000
,
0000
0000
0000
0000
,
0000
0000
0000
0000
,
0000
0000
0000
0000
,
0000
0000
0000
0000
,
0000
0001
1000
0010
,
0100
0010
1000
0001
,
0100
0010
1000
0100
,
0010
0001
0010
0001
,
0010
0100
1000
0100
,
0010
0100
1000
0010
,
1000
0100
1000
0001
,
0100
0010
0100
0010
,
0100
0001
0010
0100
,
0010
0001
1000
0001
,
0100
0010
0100
0010
,
0100
0001
1000
0010
,
0100
0010
1000
0100
,
0010
0001
0010
0001
,
0010
0100
1000
0010
,
1000
0010
1000
0001
,
0100
0001
1000
0010
,
1000
0100
1000
0001
,
0010
0100
1000
0010
,
2000
0000
0000
3100
,
0110
0001
1000
0001
,
0010
0100
1000
0100
,
0010
0100
1000
0001
,
0100
0001
0100
0010
,
0001
0000
0100
0000
0001
0000
1000
0000
0010
0000
0000
0001
0000
0000
0010
0000
,
0100
0000
1000
0000
0001
0000
0000
1000
0000
0010
0000
0001
0000
0100
1000
0000
,
0001
0000
0100
0000
0001
0000
0000
0000
1000
0000
0000
0010
0000
0000
1000
0000
,
0100
0001
0000
0001
0000
0000
1000
0000
0000
0000
0010
0000
2000
0000
0000
0000
,
3010
0000
0001
0000
0100
0000
0001
0000
1000
0000
0000
0001
0000
1000
0100
0000
,
0010
0000
1000
0000
0000
0000
0001
0100
0000
0000
0000
1000
0000
0000
0001
0000
,
1000
0000
0010
0000
0100
0000
0000
0000
1000
0000
0000
0001
0000
0000
0100
0000
,
1000
0010
0000
0001
0000
0000
0100
0000
1000
0000
0010
0000
0100
0000
0010
0000
,
2200
3300
0022
0033
,
0220
0330
0220
0330
,
0110
0110
0110
0110
,
0200
0000
0000
0000
,
0310
0000
0000
0000
0000
0000
1000
0001
0000
1000
0001
0200
0000
0000
0000
0000
,
0302
0000
0000
0000
0003
1000
0100
0001
0000
0000
1000
0000
0000
0001
0000
0000
,
1010
0100
1000
0100
,
0010
0001
0010
0001
,
0010
0100
1000
0100
,
0010
0001
0100
0001
,
0010
0100
0010
0100
,
0200
0001
0001
0001
,
0301
0001
1000
0100
,
0010
0001
0010
0001
,
1001
0001
0100
0010
,
1000
0100
0010
0100
,
0010
0100
1000
0010
,
0100
0010
0100
0010
,
1000
0100
1000
0001
,
0002
0000
0000
0203
,
1300
0000
0000
0000
;

//--------------- dance-single - ----------------
#NOTES:
     dance-single:
     :
     Hard:
     13:
     0,0,0,0,0:
0000
0000
0000
0000
,
0000
0000
0000
0000
,
0000
0000
0000
0000
,
0000
0000
0000
0000
,
0000
0000
0000
0000
,
0000
1000
0000
0001
,
0000
0010
0000
0100
,
0000
1000
0000
0001
,
0200
0010
0000
0000
,
0310
1000
0001
1000
,
0100
0010
0100
0010
,
0001
0100
0010
1000
,
0001
1000
0010
0100
,
0001
1000
0010
1000
,
0100
0010
0100
1000
,
0001
0010
0001
0010
0001
0010
0001
0010
,
0002
0000
0000
1003
,
1001
0000
0100
0010
0001
1000
0001
1000
,
0001
0000
0100
1000
0100
1000
0001
1000
,
0001
0000
0001
0100
0010
0100
0010
1000
,
0100
0010
0100
1000
0001
1000
0001
1000
,
0010
0000
0010
0100
0010
1000
0100
1000
,
0100
0000
0001
0010
0001
0100
0010
1000
,
0010
0000
0001
0010
0001
0010
0001
0100
,
0002
0000
2003
3200
,
0301
0010
1000
0001
,
0100
1000
0001
0010
,
1000
0001
0010
1000
,
0002
0000
0203
0000
,
0301
0000
0100
0000
0001
0000
1000
0000
0010
0000
0000
0001
0000
0000
0010
0000
,
0100
0000
1000
0000
0001
0000
0100
1000
0000
0010
1000
0001
0000
0100
1000
0000
,
0001
0000
0100
0000
0001
0000
0100
0000
1000
0000
0000
0010
0000
0001
1000
0000
,
0100
0001
0000
0001
0000
0000
1000
0000
0100
0000
0010
0000
2000
0000
0000
0000
,
3010
0000
0001
0000
0100
0000
0001
0000
1000
0000
0000
0001
0000
1000
0100
0000
,
0010
0000
1000
0000
0100
0000
0001
0100
0000
0001
0010
1000
0000
0100
0001
0000
,
1000
0000
0010
0000
0100
0000
0001
0000
1000
0000
0000
0001
0000
0000
0100
0000
,
1000
0010
0000
0001
0000
0000
0100
0000
1000
0000
0010
0000
0100
0000
0010
0000
,
2200
3300
0022
0033
,
0220
0330
0220
0330
,
0110
0000
0110
0000
0010
0010
0010
0010
,
0210
0000
0000
0000
,
0301
0000
0000
0000
0000
0000
0001
1000
0000
1000
0100
0001
2000
0000
3002
0000
,
0203
0000
0000
0000
0300
0001
1000
0001
0000
0000
0001
0000
0000
1000
0000
0000
,
0001
0000
0001
0010
0001
1000
0010
0100
,
0001
1000
0001
1000
0000
0001
1000
0001
1000
0000
0010
1000
0100
0000
0010
0000
,
0100
0000
0001
1000
0100
1000
0001
0010
,
0001
0000
1000
0100
0010
0100
0010
1000
,
0010
0000
0001
1000
0010
0100
0010
1000
,
0002
0000
0000
0003
,
0010
0100
1000
0001
,
0100
0000
0000
0000
0000
0001
1000
0001
0000
0000
0001
1000
0000
0002
0000
0000
,
1003
0010
0100
1000
0001
0010
0001
0010
,
1000
0001
1000
0001
0000
1000
0001
1000
0000
0001
1000
0001
1000
0000
0010
0000
,
0100
1000
0100
1000
0010
0100
0010
1000
,
0100
0000
0001
0000
1000
0001
1000
0001
1000
0000
0001
1000
0001
1000
0001
0000
,
0100
1000
0010
1000
0100
1000
0010
0100
,
0002
0000
0000
0000
0000
0000
0000
1003
0100
1000
0100
1000
0200
0000
0000
0000
,
0301
0000
0000
0000
;
