#TITLE:The Second Summer;
#ARTIST:rira;
#GENRE:TROP;
#MUSIC:The Second Summer.mp3;
#BANNER:The Second Summer.png;
#BACKGROUND:The Second Summer-bg.png;
#CDTITLE:./CDTitles/NAMCO MUSEUM ARCADE PAC.png;
#SAMPLESTART:28.301;
#SAMPLELENGTH:15.000;
#SELECTABLE:YES;
#OFFSET:-2.051;
#BPMS:0.000=128.000
,169.000=84.600
,170.000=128.000
;
#STOPS:53.750=0.945
,163.750=1.629
;
#BGCHANGES:;
#FGCHANGES:;

//--------------- dance-single - ----------------
#NOTES:
     dance-single:
     :
     Beginner:
     2:
     0,0,0,0,0:
0000
0000
0000
0000
,
0000
0000
0000
0000
,
0000
0000
0000
0000
,
0000
0000
0000
0000
,
0000
0000
0000
0000
,
0001
0000
0000
0000
,
1000
0000
0000
0000
,
0001
0000
0000
0000
,
1000
0000
0000
0000
,
0010
0000
0100
0000
,
0010
0000
0100
0000
,
0010
0000
0100
0000
,
0010
0000
0100
0000
,
0020
0000
0000
0000
0000
0000
0000
0030
1001
0000
0000
0000
0000
0000
0000
0000
,
0100
0000
0100
0000
,
0100
0000
0001
0000
,
1000
0000
0100
0000
,
0001
0000
0100
0000
,
1000
0000
0001
0000
,
0100
0000
0010
0000
,
0100
0000
0001
0000
,
1000
0000
1001
0000
,
0010
0000
0100
0000
,
1000
0000
0010
0000
,
0001
0000
1000
0000
,
0010
0000
0100
0000
,
0010
0000
1000
0000
,
0001
0000
0010
0000
,
1000
0000
0001
1000
,
0001
0000
0001
0000
,
0000
0000
0100
0000
,
0000
0000
0010
0000
,
0000
0000
1000
0000
,
0000
0000
0010
0000
,
0100
0000
0001
0000
,
1000
0000
0001
0000
,
0100
0000
0001
0010
,
0100
1000
0001
0000
,
0010
0000
0100
0000
,
0010
0000
0100
0000
,
0010
0000
0000
0000
0000
0000
0000
0000
0020
0000
0000
0000
0000
0000
0000
0030
,
1000
0001
1000
0000
,
0000
1001
1000
0010
,
0100
0000
1000
0000
,
0001
0000
0100
0000
,
1000
0000
0001
1000
,
0001
0000
0200
0300
,
1000
0000
0001
0000
,
0100
0000
1000
0001
,
0100
0000
0001
0000
,
1000
0000
0001
0000
,
0100
0000
0010
0000
,
0010
0000
1000
0000
,
0100
0000
0001
0000
,
0010
0000
1000
0000
,
0001
0000
0100
0000
,
0010
0000
0001
1000
,
0001
0000
0010
0000
,
0000
0000
1001
0000
;

//--------------- dance-single - ----------------
#NOTES:
     dance-single:
     :
     Easy:
     4:
     0,0,0,0,0:
0000
0000
0000
0000
,
0000
0000
0000
0000
,
0000
0000
0000
0000
,
0000
0000
0000
0000
,
0000
0000
0000
0000
,
0001
1000
0001
0010
,
0100
1000
0001
0100
,
0010
1000
0001
0100
,
0010
0001
1000
0001
,
0100
1000
0001
1000
,
0001
0100
0010
1000
,
0001
1000
0001
1000
,
0001
1000
0001
1000
,
0020
0000
0000
0000
0000
0000
0000
0030
1001
0000
0000
0000
0100
0000
0000
0000
,
0100
0100
0100
0100
,
0100
0100
1001
0100
,
0001
0100
1000
0100
,
0010
0100
0001
1000
,
0001
0100
1000
0100
,
0001
0100
1000
0001
,
0100
0010
1000
0000
,
0001
0000
1001
0000
,
0100
0000
1000
0000
,
0010
0001
0100
0000
,
1000
0000
0001
0100
,
1000
0010
0001
1000
,
0001
0010
0100
0001
,
0010
0001
1000
0001
,
1000
0001
1000
0000
,
0001
0000
1001
0000
,
0010
0000
0100
0000
,
0001
0000
0010
0000
,
0100
0000
1000
0000
,
0001
0000
1000
0001
,
0100
0010
1000
0001
,
0100
0010
1000
0001
,
0010
0100
0001
1000
,
0001
0010
1000
0000
,
0001
0000
0100
0000
,
1000
0000
0001
1000
,
0001
0000
0000
0000
1000
0000
0000
0000
0020
0000
0000
0000
0000
0000
0000
0030
,
0001
0010
0100
1000
,
0010
0000
1001
0100
,
1000
0100
0010
0100
,
1000
0001
0100
0010
,
1000
0001
0010
1000
,
0001
0010
0200
0301
,
1000
0010
0001
1000
,
0001
0100
0010
0001
,
1000
0001
1000
0000
,
0000
0000
1001
0000
,
0010
0100
0010
0001
,
0010
0001
1000
0100
,
0001
0010
0001
0100
,
0010
0100
0001
1000
,
0001
0100
1000
0001
,
0010
0100
1000
0000
,
0001
0000
0010
0000
,
0000
0000
1001
0000
;

//--------------- dance-single - ----------------
#NOTES:
     dance-single:
     :
     Medium:
     6:
     0,0,0,0,0:
0000
0000
0000
0000
,
0000
0000
0000
0000
,
0000
0000
0000
0000
,
0000
0000
0000
0000
,
0000
0000
0000
0000
,
0001
1000
0100
0010
,
0001
0010
0100
1000
,
0100
0010
0100
1000
,
0001
0010
0100
1000
,
0001
0100
0010
0100
,
0001
0100
0010
1000
,
0001
1000
0100
1000
,
0001
0100
0001
0100
,
0010
0010
0010
0010
0100
0001
1000
0000
,
0001
0010
0100
0010
,
0001
0000
1000
0000
0001
1000
0100
0000
,
0001
0100
0010
0100
,
0001
1000
0200
1300
,
0001
1000
0001
0010
,
0001
0000
0100
0000
0010
0100
1000
0000
,
0001
1000
0100
0000
0001
0000
1000
0000
,
0100
1000
0010
0000
1001
0100
1000
0000
,
0001
0010
0001
0010
,
0100
0000
0010
0000
0100
0001
1000
0000
,
0010
1000
0100
1000
,
0010
1000
0100
0000
0001
0000
0100
0000
,
0010
0001
1000
0000
0100
1000
0010
0000
,
0100
0001
1000
0000
0001
1000
0010
0000
,
0100
0001
0010
0000
0001
0000
1000
0000
,
0001
1000
0001
0010
,
0100
0010
0001
1000
,
0100
1000
0010
0100
,
0010
0100
0010
1000
,
0001
1000
0010
1000
,
0100
0010
0100
1000
,
0001
0100
0001
0100
,
0001
0010
0100
1000
,
0010
1000
0010
0100
,
0001
0010
0001
1000
,
0010
1000
0100
0010
,
0100
0010
0100
1000
,
0010
0100
0010
0100
,
0010
0000
1001
0000
1000
0001
0000
0100
,
1000
0001
0000
0100
1000
0000
0001
0000
,
0100
1000
0001
0100
1000
0000
0001
0000
,
0100
0100
0100
0000
0010
0100
0100
0000
,
0001
1000
0001
0000
0200
0000
1300
0001
,
0100
0000
1000
0001
0100
0000
1000
0001
,
0100
0000
0010
0000
0100
1000
0001
0000
,
0100
0010
1000
0000
0001
0000
1000
0000
,
0001
1001
0100
1000
,
0001
0100
1000
0000
0001
1000
0001
0000
,
0100
0010
1000
0000
0001
0000
1000
0000
,
0001
0100
1000
0000
0001
0000
1000
0000
,
0001
0010
0100
1000
0002
0000
0103
0000
,
1000
0001
0100
0000
1000
0001
0100
0000
,
0001
1000
0001
0000
0010
0100
1000
0000
,
0001
1000
0100
0000
0001
0000
1000
0000
,
0001
1000
0010
0000
1001
0000
0000
0000
;

//--------------- dance-single - ----------------
#NOTES:
     dance-single:
     :
     Hard:
     11:
     0,0,0,0,0:
0000
0000
0000
0000
,
0000
0000
0000
0000
,
0000
0000
0000
0000
,
0000
0000
0000
0000
,
0000
0000
0000
0000
,
0001
0100
1000
0001
,
0100
1000
0001
0100
,
0010
1000
0001
0010
,
1000
0001
0100
0001
,
1000
0001
0100
0010
,
1000
0001
0100
1000
,
0001
1000
0001
1000
,
0100
0100
0100
0100
,
0010
0010
0010
0010
1001
0000
0000
1000
,
0001
0000
0000
0100
0000
0000
0100
0000
0000
0100
0100
0000
0000
0100
0000
0000
,
0100
0000
0000
0100
0000
0000
0100
0000
0001
1000
0010
0000
0000
0000
0100
0000
,
0100
0000
0000
0100
0000
0000
0100
0000
0000
0100
0100
0000
0000
0100
0000
0000
,
0100
0000
0000
0100
0000
0000
0100
0000
0020
0000
0000
0000
0031
0000
0010
0000
,
0100
1000
0000
0100
0000
0000
0100
0000
0000
0100
0100
0100
0000
0100
0100
0000
,
0100
0100
0000
0100
0100
0000
0000
0000
0001
0000
0000
1000
0000
0000
0001
0000
,
0000
0100
0000
0000
1000
0000
0001
0000
0100
0000
0000
1000
0000
0000
0001
0000
,
0000
0001
1000
0000
0100
1000
0000
0100
,
0001
0000
0000
0010
0000
0000
0010
0000
0000
0010
0010
0010
0000
0010
0000
0000
,
0010
0000
0000
0010
0000
0000
0010
0000
1000
0001
0100
0000
0000
0000
1000
0000
,
0010
0010
0000
0010
0000
0000
0010
0000
0000
0010
0010
0000
0000
0010
0000
0000
,
0010
0000
0000
0010
0000
0000
0010
0000
0200
0000
0000
0000
0301
0000
1000
0000
,
0100
0010
0000
0010
0000
0000
1000
0000
0010
0010
0010
0000
0010
0000
0010
0000
,
0010
0000
0010
0000
0010
0000
1000
0000
0001
0000
0000
1000
0000
0000
0001
0000
,
0000
0100
0000
0000
1000
0000
0001
0000
0100
0000
0000
1000
0000
0000
0001
0000
,
0000
0100
1000
0000
1001
0000
0001
0000
,
0100
1000
0001
0010
,
0100
1000
0001
0010
,
0100
0001
1000
0001
,
0100
1000
1001
0100
,
0010
0001
0100
1000
,
0001
0010
0001
1000
,
0001
0100
0010
1000
,
0001
0100
1000
0001
,
0010
0001
1000
0001
,
0100
0010
1000
0001
,
1000
0000
0001
0000
0010
0010
0010
0010
,
0001
1000
0001
0100
,
0010
0000
1001
0000
0001
1000
0001
0000
,
0100
0100
0100
0100
,
0100
0100
0100
0100
0100
0001
1000
0000
,
0001
0100
0000
0100
0000
0100
0000
0100
,
0100
0100
0100
0100
0002
0000
1003
0001
,
0100
0100
0100
0100
,
0100
0000
0100
0000
0100
0000
0100
0000
0100
0000
0000
0001
0000
0000
1000
0000
,
0000
0001
0000
0000
0100
0000
0000
0000
0001
0000
0000
0100
0000
0000
1000
0000
,
0000
0001
1000
0000
1001
0100
1000
0001
,
0100
1000
0001
0000
0100
0010
0100
0000
,
1000
0001
0100
0010
1000
0000
0001
0000
,
0100
1000
0001
0000
0100
0010
1000
0000
,
0001
0100
0001
1000
0001
0000
0100
1000
,
0001
0000
0100
0000
1000
0001
0100
0000
,
0010
1000
0001
0010
0100
0000
1000
0000
,
0001
0000
1000
0000
0001
0000
0000
0000
0010
0000
0000
0100
0000
0000
1000
0000
,
0000
0001
1000
0000
2002
0000
0000
0000
,
3003
0000
0000
0000
;
