#TITLE:Starlight Kiss;
#ARTIST:BlackY;
#GENRE:TROP;
#MUSIC:Starlight Kiss.mp3;
#BANNER:Starlight Kiss.png;
#BACKGROUND:Starlight Kiss-bg.png;
#CDTITLE:./CDTitles/NAMCO MUSEUM ARCADE PAC.png;
#SAMPLESTART:25.159;
#SAMPLELENGTH:15.000;
#SELECTABLE:YES;
#OFFSET:-0.139;
#BPMS:0.000=127.000;
#STOPS:;
#BGCHANGES:;
#FGCHANGES:;

//--------------- dance-single - ----------------
#NOTES:
     dance-single:
     :
     Beginner:
     3:
     0,0,0,0,0:
0000
0000
0000
0000
,
0000
0000
0000
0000
,
0000
0000
0000
0000
,
0000
0000
0000
0000
,
0000
0000
0000
0000
,
0000
0001
0000
0001
,
0000
1000
0000
1000
,
0000
0010
0000
0100
,
0000
0010
0000
1000
,
0001
0100
1000
0001
,
0010
0100
1000
0001
,
0100
0010
0100
0010
,
1000
0000
0000
0000
,
1001
0010
0000
1000
,
0000
0001
0000
0100
,
0000
1000
0000
0001
,
0000
0010
0000
0100
,
0001
1000
0000
0001
,
0000
0100
0000
1000
,
0000
0001
0000
0100
,
0000
1000
0000
0001
,
0000
0100
0000
1000
,
0000
0001
0000
0010
,
0000
0100
0000
1000
,
0000
0001
0000
0100
,
0010
0100
0000
1000
,
0001
0010
0000
0010
,
1000
0001
0100
1000
,
0002
0000
0000
0000
,
1003
0000
0010
0000
,
0100
0000
0000
1000
,
0000
0001
0000
0010
,
0000
0100
0000
1000
,
0001
0010
1000
0001
,
0010
0100
1000
0001
,
0001
0000
1000
0000
,
1001
0000
0000
0020
,
1030
0000
0001
0000
,
0100
0000
1000
0000
,
0001
0000
0100
0000
,
0010
0000
1000
0000
,
0001
0000
1000
0000
,
0010
0000
0100
0000
,
1000
0000
0001
0000
,
0010
0000
1000
0000
,
1001
0000
0010
0000
,
0100
0000
1000
0000
,
0001
0000
0100
0000
,
0001
0000
1000
0000
,
0001
0000
1000
0000
,
0001
0000
0010
0000
,
0010
0100
1000
0001
,
0200
0000
0000
0000
,
0310
0000
0000
0000
;

//--------------- dance-single - ----------------
#NOTES:
     dance-single:
     :
     Easy:
     4:
     0,0,0,0,0:
0000
0000
0000
0000
,
0000
0000
0000
0000
,
0000
0000
0000
0000
,
0000
0000
0000
0000
,
0000
0000
0000
0000
,
0000
0001
0000
1000
,
0000
0000
0010
0000
0000
0001
1000
0000
,
0000
0010
0000
0100
,
0000
0000
1000
0000
0000
0001
1000
0000
,
0010
0100
0000
1000
,
0000
0000
0001
0000
0000
0010
0100
0000
,
1000
0001
1000
0001
,
0100
0010
1000
1001
,
0010
1001
0100
1000
,
0001
0100
0010
1000
,
0001
0010
0001
0100
,
1000
0001
0010
0100
,
1001
0010
0100
1000
,
0001
0010
0100
1000
,
0001
0010
0100
1000
,
0001
0010
0100
1000
,
0001
0010
0100
0000
1000
0000
0001
0000
,
0010
0100
0001
1000
,
0001
0010
0100
0010
,
1000
0001
0010
0100
,
1000
0001
0100
1000
,
0001
0010
0100
1000
,
0001
1000
0001
0100
,
0010
1000
0001
0100
,
0010
0000
0000
0000
,
1000
0000
0000
0000
,
0001
0000
0000
0000
,
0100
0000
0000
0000
,
1000
0000
0001
0000
,
0010
0000
0100
0000
,
1000
0001
0100
0010
,
1001
0000
0000
0010
,
0100
1000
0001
0010
,
0100
0001
1000
0001
,
0010
0100
0001
1000
,
0001
0100
0001
1000
,
0100
0001
0100
0001
,
1000
0001
0100
0001
,
1000
0001
0010
0100
,
1000
0001
0100
0010
,
1000
0001
0100
0010
,
1000
0001
0100
0010
,
0100
0001
0100
0001
,
1000
0001
0100
0010
,
1000
0001
0100
0010
,
1000
0001
0010
0100
,
0001
1000
0001
0010
,
0100
1000
0001
0100
,
1001
0000
0000
0000
;

//--------------- dance-single - ----------------
#NOTES:
     dance-single:
     :
     Medium:
     6:
     0,0,0,0,0:
0000
0000
0000
0000
,
0000
0000
0000
0000
,
0000
0000
0000
0000
,
0000
0000
0000
0000
,
0000
0000
0000
0000
,
0000
0010
0000
1000
,
0000
0000
0001
0000
0000
0010
1000
0000
,
0000
0010
0000
1000
,
0000
0001
0000
0100
,
1000
0001
0010
0100
,
1000
0000
0001
0000
0010
1000
0001
0000
,
0100
0010
1000
0000
0001
0100
0010
0000
,
1000
0000
0000
0001
0000
0000
1000
0001
1000
0001
0000
0000
,
1001
0000
0010
0000
0100
0000
1000
0001
,
0100
0000
0001
0000
1000
0001
0100
0000
,
0010
0000
1000
0001
0100
0000
0010
0000
,
0100
1000
0001
0000
0100
0000
0010
0000
,
0110
0000
0001
1000
0001
0000
0100
0000
,
0010
1000
0001
0000
0100
0000
0010
0000
,
1000
0001
0100
0000
0010
0000
1000
0000
,
0001
0100
0000
1000
0001
0000
0100
0000
,
0001
0010
0100
0000
1000
0000
0001
0100
,
1000
0001
0010
0100
,
1000
0001
0000
0100
1000
0000
0001
1000
,
0001
0000
0100
0000
0010
1000
0001
0000
,
1000
0100
0001
0000
0100
0000
1000
0000
,
0001
0010
0100
1000
,
0001
0010
0100
1000
0001
0100
1000
0001
,
0100
1000
0001
0100
,
1001
0100
0010
1000
,
0001
0000
0010
0000
0100
1000
0001
0000
,
0100
0010
1000
0001
,
0010
0100
1000
0001
,
0100
1000
0001
0000
0100
1000
0001
0000
,
0010
0100
0001
0000
0100
0001
0010
0000
,
0100
0010
0100
0010
0100
0010
0100
0010
,
0100
0000
0000
0011
0000
0000
0100
0001
0010
1000
0000
0000
,
1001
0000
0100
1000
0001
0000
0100
0000
,
0010
1000
0001
0000
0100
0000
0010
1000
,
0001
0000
0010
0000
0100
1000
0001
0000
,
0010
0000
0100
0001
1000
0001
0100
1000
,
0001
0000
0010
0100
1000
0000
0001
0000
,
0010
0100
0001
0000
1000
0001
0100
0010
,
1000
0000
0001
0100
1000
0001
0100
0000
,
0010
0000
0100
0001
0100
0010
1000
0000
,
0001
0000
0100
0000
1000
0001
0100
0000
,
0010
0000
0100
0000
1000
0001
0100
1000
,
0001
0000
0010
0000
0100
0010
1000
0000
,
0001
0000
0010
0100
1000
0000
0001
0000
,
0010
0001
0010
0000
0100
0010
0100
0000
,
1000
0100
1000
0000
0010
0100
0010
0000
,
0001
0010
0001
0010
0100
0010
0100
1000
,
0001
0001
0100
1000
,
1001
0000
0000
0000
;

//--------------- dance-single - ----------------
#NOTES:
     dance-single:
     :
     Hard:
     13:
     0,0,0,0,0:
0000
0000
0000
0000
,
0000
0000
0000
0000
,
0000
0000
0000
0000
,
0000
0000
0000
0000
,
0000
0000
0000
0000
,
0000
0001
0000
1000
,
0000
0000
0001
0000
0000
0100
1000
0000
,
0000
0001
0000
1000
,
0000
0000
0001
0000
0000
0010
1000
0000
,
0001
0000
0000
0100
0000
0000
0010
0000
0000
1000
0000
0000
1001
0000
1000
0100
,
0010
0000
0000
0001
0000
0000
0100
0000
0000
0010
0000
0000
0110
0000
0001
0000
,
1000
0000
0000
0010
0000
0000
0100
0000
0000
0001
0000
0000
1001
0000
0000
0000
,
0010
0000
0010
0000
0010
0000
0100
0100
,
0010
0000
1001
0100
0001
0010
0100
0010
,
0100
0010
0001
0100
0010
1000
0010
1000
,
0010
0100
0001
0100
0010
1000
0001
0100
,
0010
0001
0100
0010
0001
0010
0001
0100
,
1002
0000
1003
0001
0010
0001
1000
0001
,
0100
0010
0100
0010
1000
0010
1000
0001
,
0100
0010
1000
0001
0100
0010
1000
0010
,
1000
0001
1000
0001
1000
0010
0100
1000
,
0001
0001
0001
0010
0100
0010
0100
1000
,
0001
0010
0001
1000
0010
1000
0100
0010
,
0001
0010
0001
0010
0100
1000
0010
0100
,
0001
1000
0100
1000
0010
0100
0001
0010
,
1000
1000
1000
0100
0010
1000
0001
1000
,
0010
0100
0001
0010
0001
0010
0100
0010
,
0001
1000
0010
0100
0001
0100
0001
0100
,
0010
0100
0100
0010
,
0110
0100
0010
1000
,
0020
0130
0002
0103
,
0020
0130
0002
0013
,
0200
0310
0200
1300
,
0001
0010
1000
0001
,
0010
0100
1000
0001
,
0010
1000
0001
0010
0100
0010
0100
0010
,
1000
1000
1000
1001
,
1001
0000
0001
1000
0100
1000
0100
0010
,
0001
0100
0010
1000
0100
0010
0100
0010
,
0100
1000
0010
1000
0001
0010
0100
1000
,
0010
0100
0010
0100
0010
1000
0001
0010
,
0100
0010
0100
1000
0010
0100
0010
1000
,
0010
1000
0100
0010
0100
0010
0100
1000
,
0010
1000
0001
0100
0010
0100
0010
0100
,
0001
0010
0100
1000
0100
0010
0001
1000
,
0010
0100
0010
1000
0001
1000
0100
0010
,
0001
0010
0001
0100
0010
0100
0010
1000
,
0001
1000
0001
0100
0001
0100
0010
1000
,
0001
1000
0001
0010
0100
0010
0100
0010
,
0001
1000
0001
0100
0001
1000
0100
1000
,
0100
0010
0001
0100
0001
1000
0100
1000
,
0001
1000
0100
0010
0100
1000
0001
0100
,
0010
0100
1000
0001
,
2002
0000
0000
0000
,
3003
0000
0000
0000
;
