#TITLE:Orange Lullaby;
#ARTIST:Yooh;
#GENRE:DIVING GHOST;
#MUSIC:Orange Lullaby.mp3;
#BANNER:Orange Lullaby.png;
#BACKGROUND:Fallback-bg.png;
#CDTITLE:./CDTitles/NAMCO MUSEUM ARCADE PAC.png;
#SAMPLESTART:34.132;
#SAMPLELENGTH:15.000;
#SELECTABLE:YES;
#OFFSET:-0.142;
#BPMS:0.000=120.000;
#STOPS:64.000=1.500;
#BGCHANGES:;
#FGCHANGES:;

//--------------- dance-single - ----------------
#NOTES:
     dance-single:
     :
     Beginner:
     2:
     0,0,0,0,0:
0000
0000
0000
0000
,
0000
0000
0000
0000
,
0000
0000
0000
0000
,
0000
0000
0000
0000
,
0000
0000
0000
0000
,
0001
0000
0000
0000
,
1000
0000
0000
0000
,
0010
0000
0000
0000
,
0100
0000
0000
0000
,
1000
0000
0001
0000
,
1000
0000
0001
0000
,
0010
0000
1000
0000
,
0001
0000
0100
0000
,
1000
0000
0001
0000
,
1000
0000
0001
0000
,
0001
1000
0001
1000
,
0001
1000
0000
0010
,
0000
0100
0000
1000
,
0000
0001
0000
0010
,
0000
1000
0000
0001
,
0000
0010
0000
1000
,
0000
0001
0000
0100
,
0000
1000
0000
0001
,
0000
0100
0000
0000
,
0000
1000
0000
0001
,
0000
0010
0000
1000
,
0000
0001
0000
0010
,
0000
1000
0000
0001
,
0000
0010
0000
0100
,
0000
1000
0000
0001
,
0000
0010
0000
1000
,
0000
0001
0000
0010
,
0000
1000
0000
0001
,
0000
1000
0000
0001
,
0000
0010
0000
0100
,
0000
0010
0000
0100
,
0000
0010
0000
0100
,
0000
0010
0100
0010
,
0100
1001
0000
0000
,
0000
0000
0000
0000
,
0000
1001
0000
0010
,
0000
1000
0000
0001
,
0000
0010
0000
1000
,
0000
0001
0000
0100
,
1000
0100
0000
0001
,
0000
0010
0000
0100
,
0000
1000
0000
0001
,
0000
1000
0000
0000
,
0000
0001
0000
0010
,
0000
0100
0000
1000
,
0000
0001
0000
0010
,
0000
0100
0000
1000
,
0000
0001
0000
1000
,
0000
0001
0000
1000
,
0000
0001
1000
0001
,
1000
0001
0000
0000
,
0000
0110
0000
0000
;

//--------------- dance-single - ----------------
#NOTES:
     dance-single:
     :
     Easy:
     4:
     0,0,0,0,0:
0000
0000
0000
0000
,
0000
0000
0000
0000
,
0000
0000
0000
0000
,
0000
0000
0000
0000
,
0000
0000
0000
0000
,
0001
0000
1000
0000
,
0001
0000
1000
0000
,
0001
0000
0010
0000
,
0100
0000
1000
0000
,
0001
0010
1000
0001
,
0100
0000
1000
0000
0001
0000
0010
1000
,
0001
0100
1000
0001
,
0010
0100
1000
0001
,
0010
1000
0001
0010
,
0100
1000
0001
0010
,
0100
0100
0100
0100
,
0101
1000
0001
0010
,
0100
1000
0001
0010
,
0100
0010
1000
0001
,
0010
1000
0001
0100
,
1000
0001
0010
1000
,
0001
0010
0100
0001
,
1000
0010
0100
1000
,
0001
0010
0000
0000
,
0000
1000
0001
0010
,
0100
1000
0001
0010
,
0100
1000
0001
0010
,
0100
1000
0001
0010
,
0100
1000
0001
0010
,
0100
1000
0001
0010
,
0100
1000
0001
0010
,
0100
1000
0000
0001
,
0000
1001
1000
1000
,
1000
0001
0001
0001
,
0001
1000
0001
0000
0001
0000
0001
0000
,
0001
1000
1000
1000
,
1000
0010
0100
1000
,
0001
0010
0100
1000
,
0001
1002
0000
2003
,
0000
3001
0010
0100
,
0000
1001
0010
0100
,
1000
0001
0010
0100
,
1000
0001
0010
0100
,
0010
1000
0001
0010
,
0100
0010
1000
0001
,
0010
0100
1000
0001
,
0010
0100
1000
0001
,
0100
0010
0000
1000
,
0000
0001
0100
1000
,
0001
0010
0100
1000
,
0001
0010
0100
1000
,
0001
0010
0100
1000
,
0001
0010
0100
1000
,
0001
0010
0100
1000
,
0001
0010
0100
0010
,
0100
0010
0000
1000
,
0001
1001
0000
0000
;

//--------------- dance-single - ----------------
#NOTES:
     dance-single:
     :
     Medium:
     6:
     0,0,0,0,0:
0000
0000
0000
0000
,
0000
0000
0000
0000
,
0000
0000
0000
0000
,
0000
0000
0000
0000
,
0000
0000
0000
0000
,
0010
1000
0001
0000
,
0010
0100
0010
0000
,
1000
0001
0010
0000
,
1000
0001
0010
0000
,
1001
1000
1000
1000
,
0001
0000
0001
0000
0001
0000
0001
0010
,
0100
1000
1000
1000
,
0001
0001
0001
0010
,
1000
0001
0010
0100
,
1000
0001
0010
1000
,
0001
0010
0100
1000
0001
0100
1000
0001
,
1000
1001
0010
0100
,
1000
0001
0010
1000
,
0001
0010
0100
0010
,
1000
0001
0010
0100
,
1000
0001
0010
0100
,
0010
1000
0001
0010
,
0100
0000
1000
0001
0100
1000
0001
0000
,
0010
0000
0100
1000
0001
0000
0010
0100
,
1000
0001
0010
0100
,
1000
0001
0010
0000
0100
0000
1000
0000
,
0001
0000
0010
1000
0001
0000
0100
0000
,
0010
1000
0001
0000
0010
0000
0100
0000
,
1000
0000
0001
0010
0100
0000
1000
0000
,
0001
0010
0100
0000
1000
0000
0001
0000
,
0010
0000
1000
0001
0010
0000
0100
0000
,
1000
0001
0100
0000
1000
0000
0001
0000
,
0010
1001
1000
1000
,
1000
0001
0001
0001
,
1000
0001
1000
0000
0001
0000
0001
0000
,
0001
0010
0010
0100
,
0100
0000
1000
0001
0100
0000
1000
0001
,
0100
0000
0010
1000
0001
0010
0100
1000
,
0001
0100
1002
0000
0000
0000
2003
0000
,
0000
0000
3001
0000
1000
0000
0001
0010
,
0100
0000
1001
0000
0010
0100
1000
0000
,
0001
0000
0010
0000
0100
1000
0001
0000
,
0010
0000
0100
0000
1000
0001
0100
0000
,
0010
0000
0100
0000
1000
0000
0001
0010
,
0001
0000
0010
0000
0100
0000
1000
0001
,
0100
0000
0010
0000
0100
0000
1000
0001
,
0010
0000
0100
0000
1000
0001
0100
0000
,
0010
1000
0001
0000
0010
0000
0010
0000
,
0010
0000
0110
0000
1000
0000
0001
0010
,
0100
0000
0001
0000
1000
0000
0001
0010
,
0100
0000
1000
0000
0001
0000
0010
0100
,
1000
0000
0001
0000
0010
0000
0100
1000
,
0001
0010
0110
1000
,
1001
0010
0110
0001
,
1001
0000
0010
0100
1000
0000
0001
0010
,
0100
2000
0000
0000
,
3000
1001
0000
0000
;

//--------------- dance-single - ----------------
#NOTES:
     dance-single:
     :
     Hard:
     11:
     0,0,0,0,0:
0000
0000
0000
0000
,
0000
0000
0000
0000
,
0000
0000
0000
0000
,
0000
0000
0000
0000
,
0000
0000
0000
0000
,
0001
0010
1000
0001
,
0010
0000
0100
0000
1000
0001
0100
1000
,
0001
0010
0100
1000
,
0001
0000
0010
0000
1000
0001
1000
0010
,
1001
0001
0010
0100
,
1000
0000
0000
0000
0001
0000
0000
0000
0010
0000
0000
0000
1000
0000
0001
0010
,
0100
1000
0001
0010
,
0100
0000
1000
0000
0001
0010
0100
1000
,
0001
0010
0100
1000
0001
0010
0100
1000
,
0001
0010
0100
1000
0001
0010
0100
1000
,
0002
1000
1000
1000
,
1003
0000
0001
0010
0100
0000
1000
0001
,
0100
0000
1000
0001
0100
0000
0010
0000
,
0010
0000
1000
0001
0100
0000
0001
0010
,
0100
0000
1000
0001
0100
0000
1000
0000
,
1000
0000
0001
0010
0100
0000
1000
0001
,
0100
0000
0010
0100
1000
0000
0001
0010
,
0100
0000
1000
0001
0010
0100
1000
0000
,
0001
0000
0000
0010
0000
0000
0100
0000
0000
1000
0000
0000
0001
0000
0000
0000
0000
0000
0010
0000
0001
0000
0010
0000
,
2000
0000
3001
0010
0100
1000
0001
0000
,
0010
0100
1000
0000
0001
0000
0010
0000
,
1000
0000
0001
0010
0100
1000
0001
0000
,
0010
0100
1000
0000
0001
0000
0010
0100
,
0001
1000
0001
0100
1000
0001
0100
0000
,
0010
1000
0001
0000
0010
0000
0100
1000
,
0001
0010
0100
1000
0001
0010
0100
0000
,
1000
0001
0010
0000
0100
0010
0001
0010
,
0100
1000
1001
0000
0010
0000
0010
0000
,
0010
1000
1000
1000
,
0001
0100
1000
0000
0001
0000
0010
0000
,
1000
0000
0001
0000
0010
0000
1000
0001
,
0010
0100
1000
0001
0010
0100
1000
0001
,
0010
0100
1000
0001
0010
0100
1000
0001
,
0010
0100
2000
0000
0000
0000
3002
0000
,
0000
0000
2003
0000
3002
0000
1003
0100
,
1000
0000
0001
0000
0110
0000
0000
0001
1000
0000
0010
0000
1000
0000
0100
0001
,
0000
0000
1000
0000
0001
0000
0000
0100
0000
0000
1000
0000
0001
0000
0100
1000
,
0000
0000
0001
0000
0100
0000
0000
1000
0000
0000
0001
0000
0010
0000
0100
1000
,
0000
0000
0001
0000
0010
0000
0000
0100
0000
0000
1000
0000
0001
0000
0010
0100
,
0000
0000
1000
0000
0001
0000
0000
0100
0000
0000
0010
0000
0100
0000
1000
0001
,
0000
0000
0100
0000
1000
0000
0000
1000
0000
0000
0001
0000
0010
0000
0100
1000
,
0000
0000
0001
0000
0100
0000
0000
1000
0000
0000
0001
0000
0010
0000
1000
0100
,
0010
0100
1000
0000
0100
0000
1000
0001
,
0100
0000
1000
0000
0001
0000
0000
0010
0000
0000
1000
0000
0001
0000
0100
1000
,
0000
0000
0001
0000
0010
0000
0000
0100
0000
0000
1000
0000
0001
0000
0010
0100
,
0000
0000
1000
0000
0001
0000
0000
0010
0000
0000
0100
0000
1000
0000
0001
0010
,
0000
0000
0100
0000
0010
0000
0000
0100
0000
0000
1000
0000
0001
0000
0010
0100
,
0000
1000
1001
0000
0110
0000
1001
0000
,
0110
1001
0110
1001
,
0110
0000
1000
0100
0010
0100
1000
0001
,
0010
0000
0000
0100
0000
0000
2000
0000
0000
0000
0000
0000
0000
0000
0000
0000
0000
0000
3001
0000
0010
0000
0001
0000
,
0010
2002
0000
0000
,
0000
0000
3003
0000
;
