#TITLE:オネガイ・ディスコ・ミュージク;
#ARTIST:星野奏子 Prod by.uno;
#TITLETRANSLIT:Onegai disco music;
#ARTISTTRANSLIT:Kanako Hoshino Prod by.uno;
#GENRE:CLASS;
#MUSIC:Onegai disco music.mp3;
#BANNER:Onegai disco music.png;
#BACKGROUND:Fallback-bg.png;
#CDTITLE:./CDTitles/NAMCO MUSEUM ARCADE PAC.png;
#SAMPLESTART:61.862;
#SAMPLELENGTH:15.000;
#SELECTABLE:YES;
#OFFSET:-0.179;
#BPMS:0.000=124.000;
#STOPS:;
#BGCHANGES:;
#FGCHANGES:;

//--------------- dance-single - ----------------
#NOTES:
     dance-single:
     :
     Beginner:
     2:
     0,0,0,0,0:
0000
0000
0000
0000
,
0000
0000
0000
0000
,
0000
0000
0000
0000
,
0000
0000
0000
0000
,
0000
0000
0000
0000
,
0001
0000
0000
0000
,
1000
0000
0000
0000
0000
0000
0000
0010
,
0000
0000
0000
0000
0000
0000
0000
1000
,
0000
0000
0001
0000
,
0010
0000
0000
0000
,
1000
0001
1000
0000
,
1001
0000
0010
0000
,
1000
0001
0010
0000
,
1000
0000
0001
0000
,
0010
0100
0010
0000
,
0001
1000
0001
0000
,
0010
0100
1000
0000
,
0001
1000
0001
0000
,
0010
0000
0100
0000
,
1000
0000
0001
0000
,
0010
0000
1000
0000
,
0001
0000
0010
0000
,
1000
0000
0001
0000
,
0010
0000
0100
0000
,
1000
0000
0001
0000
,
0010
0000
1000
0000
,
0001
0010
0100
0000
,
1000
0000
0001
0000
,
0010
0000
1000
0000
,
0001
0000
0010
0000
,
1000
0000
0000
0001
,
1000
0001
0000
0000
,
1001
0010
0100
0000
,
1000
0001
0010
0000
,
1000
0001
0010
0000
,
1000
0001
0010
0000
,
0100
1000
0100
0000
,
0001
1000
0001
0000
,
0010
1000
0001
0000
,
1000
0001
0010
0100
,
1000
0001
0100
0000
,
1000
0001
0010
0000
,
1000
0001
0010
0000
,
1000
0001
0010
0000
,
1000
0000
0001
0000
,
0010
0000
0000
0000
0001
0000
0000
1001
,
0000
0010
1000
0001
,
0000
1000
0001
0010
,
1000
0000
0001
0000
,
0010
0000
1000
0000
,
0001
0000
0010
0000
,
1000
0000
0001
0000
,
0010
0000
1000
0000
,
0010
0000
1000
0000
,
0001
0000
1000
0000
,
0010
0000
1000
0000
,
0001
0000
0000
0000
;

//--------------- dance-single - ----------------
#NOTES:
     dance-single:
     :
     Easy:
     4:
     0,0,0,0,0:
0000
0000
0000
0000
,
0000
0000
0000
0000
,
0000
0000
0000
0000
,
0000
0000
0000
0000
,
0000
0000
0000
0000
,
0001
0000
1000
0000
,
0001
0000
0000
1000
0000
0000
0000
0001
,
0000
0000
0000
0000
0000
0000
0000
1000
,
0000
0001
0010
1000
,
2002
0000
0000
3003
,
0000
0000
0000
0000
,
0001
1000
0001
0010
,
1000
0001
0100
1000
,
0001
0010
0100
1000
,
0001
0010
0100
1000
,
0001
0010
0100
1000
,
0001
0000
0010
0000
1000
0000
0001
1000
,
0000
0010
0100
1000
,
0001
0000
0100
0000
0000
1000
0001
0000
,
0010
0100
1000
0001
,
0010
0100
1000
0001
,
0010
1000
0001
0010
,
0100
1000
0001
0010
,
0100
1000
0001
0010
,
0100
1000
0001
0010
,
0100
1000
0001
0010
,
1000
0001
1001
0100
,
1000
0001
0010
0100
,
0010
0100
1000
0001
,
0010
1000
0001
1000
,
0001
0010
1000
0001
,
1000
0001
0000
1001
,
0110
1000
0001
0010
,
1000
0001
0010
1000
,
0001
0010
0100
1000
,
0001
1000
0001
0100
,
1000
0001
0100
1000
,
0001
0000
1000
0000
0001
0000
1000
1001
,
0000
1000
0001
0010
,
1000
0001
0010
0100
,
1000
0001
0010
0100
,
0010
1000
0001
0010
,
1000
0001
0010
0100
,
0010
1000
0001
0100
,
0010
1000
0001
0010
,
1000
0000
0001
0000
0010
0000
1000
0001
,
0000
0000
0100
0000
1000
0000
0001
0100
,
0000
1001
0001
0100
,
1001
0100
1000
0001
,
0010
0100
1000
0001
,
0010
0100
1000
0001
,
0010
0100
1000
0001
,
0010
0100
0100
0010
,
1000
0000
0001
0000
0100
0000
1000
0001
,
0000
0100
1000
0001
,
0100
0000
1000
0000
0000
0001
0100
0000
,
1001
0000
0000
0000
;

//--------------- dance-single - ----------------
#NOTES:
     dance-single:
     :
     Medium:
     7:
     0,0,0,0,0:
0000
0000
0000
0000
,
0000
0000
0000
0000
,
0000
0000
0000
0000
,
0000
0000
0000
0000
,
0000
0000
0000
0000
,
0001
0010
1000
0001
,
0010
0000
1000
0001
0000
0100
0000
1000
,
0000
0000
0001
0000
1000
0000
0001
0100
,
0000
0000
1000
0000
0001
0010
0000
0000
,
1000
0001
0010
1000
,
0002
0000
0000
1003
,
1001
0000
0100
0000
1000
0001
0100
0000
,
0010
0000
1000
0000
0001
0010
0100
0000
,
1000
0000
0001
0000
0010
0100
1000
0000
,
0100
0000
1000
0000
0001
0000
0010
1000
,
0001
0000
0100
0000
1000
0000
0001
0010
,
0000
0000
1000
0000
0001
0010
0100
1000
,
0000
0001
0010
1000
,
0001
0000
0100
0000
1000
0001
0100
0000
,
1000
0001
0010
0100
,
1000
0001
0010
0100
,
0010
1000
0001
0010
,
1000
0000
0001
0000
0010
0100
1000
0000
,
0001
0010
0100
0001
,
1000
0000
0001
0000
0010
1000
0001
0000
,
0100
0000
1000
0000
0001
0100
0000
0010
,
0000
1000
0001
0100
0000
0001
1000
0000
,
0001
0010
0100
1000
,
0100
1000
0001
0010
,
1000
0001
0010
1000
,
0002
0000
0000
1003
,
0010
0100
0000
1001
,
0110
1000
0001
0010
,
0100
0000
1000
0000
0001
0010
0100
0000
,
1000
0000
0001
0000
0010
0000
0100
1000
,
0000
0001
0010
0100
1000
0000
0001
0000
,
0010
0100
1000
0001
,
0010
0100
1000
0000
0001
0010
0000
1001
,
0000
0010
1000
0000
0001
0000
0010
1000
,
0000
0001
0010
0100
1000
0000
0001
0000
,
1001
0000
0010
0000
0100
1000
0001
0000
,
0010
0000
0100
0000
1000
0001
0100
0000
,
1000
0000
0001
0000
0010
0100
1000
0001
,
0000
0100
1000
0001
0100
0000
1000
0000
,
0001
0000
0010
0100
1000
0000
0001
0000
,
0010
0100
1000
0000
0001
0000
0000
1001
,
0000
0000
0010
0000
0100
0000
1000
0001
,
0000
0100
1000
0001
0100
1000
0001
0000
,
0010
1000
0001
0010
,
0100
0000
1000
0000
0001
0010
0100
1000
,
0001
0000
0010
0000
0100
1000
0001
0010
,
1000
0000
1000
0001
0000
0100
1000
0000
,
0001
0000
0010
0000
0100
1000
0001
0010
,
0000
0000
1000
0000
0001
0100
1000
0001
,
0000
0000
1000
0000
0001
0010
0100
1000
,
0100
0000
0001
0000
0000
1000
0001
0000
,
0110
0000
0000
0000
;

//--------------- dance-single - ----------------
#NOTES:
     dance-single:
     :
     Hard:
     11:
     0,0,0,0,0:
0000
0000
0000
0000
,
0000
0000
0000
0000
,
0000
0000
0000
0000
,
0000
0000
0000
0000
,
0000
0000
0000
0000
,
0001
0010
1000
0001
,
0010
1000
0001
0010
0100
1000
0000
1001
,
0000
0000
0001
0000
0010
0000
1000
1001
,
0000
0010
1000
0001
0010
0100
1000
0000
,
0002
0000
0000
0000
,
1000
1000
1000
1000
1003
0000
0010
0000
,
1001
0000
0010
1000
0001
0010
0100
1000
,
0001
0010
0100
1000
0001
0010
0100
0010
,
1000
0001
0010
0100
1000
0001
0010
0100
,
1000
0000
0001
0010
0100
0010
0100
1000
,
0001
0000
0010
0100
1000
0001
0010
0100
,
1000
0001
0010
0100
1000
0001
0010
1001
,
0000
0000
0000
0010
0000
0001
1000
0000
0000
0010
0000
0000
0010
0000
0000
0001
0000
0000
1000
0000
0000
0010
0000
0000
,
2000
0000
3001
0000
0100
1000
0010
0000
,
1000
0001
0020
0000
1030
0001
0020
0000
,
0130
1000
0001
0010
0100
1000
0002
0000
,
1003
0010
0001
0010
1000
0001
0100
2000
,
0000
3001
0100
1000
0001
0010
0100
1000
,
0001
0010
0100
1000
0001
0010
0100
1000
,
0002
0000
0000
2003
0000
0000
3001
0010
,
1000
0001
0010
0100
1000
0001
0000
0010
,
0000
1000
0001
0010
0100
0000
1000
0000
,
0001
0010
0100
0000
1000
0000
0001
0010
,
0100
0000
1000
0000
0001
0010
0100
0000
,
0001
0000
1000
0001
0000
0010
0000
1000
,
0020
0000
0000
0000
,
1030
0001
0000
0010
,
1001
0000
0010
0100
1000
0001
0010
0100
,
1000
0001
0010
0100
0010
0000
1000
0001
,
0010
0000
0100
1000
0001
0010
0100
2000
,
0000
3001
0010
0100
0001
0010
0100
1000
,
0001
0000
0010
0100
1000
0000
0001
0010
,
1000
0001
0010
0100
1000
0001
0000
1001
,
0000
0010
0100
1000
0001
0010
0100
1000
,
0000
0001
0010
0100
1000
0001
0010
0000
,
0100
0000
1000
0001
0010
0000
0100
1000
,
0001
0010
0100
1000
0001
0000
1000
0000
,
0001
0010
0100
1000
0001
0010
0100
1000
,
0000
0001
0010
0100
0010
0100
0100
0000
,
1000
0001
0010
0100
1000
0000
0001
0010
,
0100
1000
0001
0010
0100
0001
0000
0101
,
0000
0100
1000
0001
0010
0100
1000
0001
,
0000
0100
1000
0001
0010
0100
1000
0000
,
0001
0000
0010
0100
1000
1000
0001
0010
,
1000
0100
0001
1000
0001
0010
0100
1000
,
0001
0010
0100
1000
0001
0010
0100
1000
,
0000
0001
0000
1000
0001
0010
0100
0010
,
0100
0000
1000
0001
0010
0100
1000
0001
,
0010
0000
0100
1000
0001
0010
0100
1001
,
0000
0000
0010
1000
0001
0010
0100
0000
,
1100
0000
0101
0000
0000
1000
0001
0000
,
2002
0000
3003
0000
;
