#TITLE:Nocturnus;
#ARTIST:KAN TAKAHIKO;
#GENRE:CLASS;
#MUSIC:Nocturnus.mp3;
#BANNER:Nocturnus.png;
#BACKGROUND:Nocturnus-bg.png;
#CDTITLE:./CDTitles/NAMCO MUSEUM ARCADE PAC.png;
#SAMPLESTART:37.327;
#SAMPLELENGTH:15.000;
#SELECTABLE:YES;
#OFFSET:-0.691;
#BPMS:0.000=108.000;
#STOPS:;
#BGCHANGES:;
#FGCHANGES:;

//--------------- dance-single - ----------------
#NOTES:
     dance-single:
     :
     Beginner:
     3:
     0,0,0,0,0:
0000
0000
0000
0000
,
0000
0000
0000
0000
,
0000
0000
0000
0000
,
1000
0000
0000
0000
,
0010
0000
0000
0000
,
0001
0000
1000
0000
,
0010
0000
1000
0000
,
0010
0000
1000
0000
,
0010
0000
1000
0000
,
0001
0000
0100
0000
,
1000
0000
0001
0000
,
0010
0000
1000
0000
,
0010
0000
0000
0000
,
1000
0000
0001
0000
,
0010
0000
0100
0000
,
1000
0001
1000
0001
,
0010
0100
1000
0000
,
1002
0000
0000
0003
,
1000
0010
0100
0000
,
1000
0001
0010
0000
,
0001
1000
0001
0000
,
0001
0000
0000
0100
0000
0000
1000
0000
0000
0001
0000
0000
1000
0000
0000
0000
,
0010
0000
1000
0000
,
0001
0000
0010
0000
,
1000
0000
0001
0000
,
0001
0000
0000
0100
0000
0000
1000
0000
0000
0001
0000
0000
2002
0000
0000
0000
,
0000
0000
0000
0000
,
3003
0000
0000
0000
,
1000
0000
0001
0000
,
0010
0000
1000
0000
,
0010
0000
0001
0000
,
1000
0000
0001
0000
,
0010
0000
1000
0000
,
0001
0000
0010
0000
,
1000
0001
0010
1000
,
1001
0000
0000
0000
,
0010
0000
1000
0000
,
0001
0000
0010
0000
,
1000
0001
0010
1000
,
0001
1000
0001
0000
,
0020
0000
0000
0130
,
1000
0001
0010
1000
,
0001
0010
1000
0001
,
0010
1000
0001
0010
,
0001
0000
0000
0100
0000
0000
1000
0000
0000
0001
0000
0000
1000
0000
0000
0000
,
0010
1000
0001
0010
,
1000
0001
0010
0100
,
1000
0001
0010
1000
,
0001
0000
0000
0100
0000
0000
1000
0000
0000
0001
0000
0000
1001
0000
0000
0000
;

//--------------- dance-single - ----------------
#NOTES:
     dance-single:
     :
     Easy:
     6:
     0,0,0,0,0:
0000
0000
0000
0000
,
0000
0000
0000
0000
,
0000
0000
0000
0000
,
0100
1000
0001
1000
,
0010
1000
0010
0100
,
0110
1000
0100
0010
,
0001
1000
0001
1000
,
0010
0100
0010
0100
,
0010
1000
0100
1000
,
0001
0100
0001
0100
,
0010
1000
0001
0100
,
0001
0010
0001
1000
,
0020
0000
0000
0030
,
0001
0100
0001
0010
,
0100
0010
0001
1000
,
0010
1000
0100
1000
,
0100
1000
0010
0001
0100
0000
0010
0000
,
1001
1000
0100
0010
,
0110
0010
0001
0100
,
0001
1000
0100
1000
,
0100
1000
0001
0010
,
0001
0000
0000
0100
0000
0000
1000
0000
0000
0001
0000
0000
1000
0000
0000
0000
,
0100
0010
0100
1000
,
0001
1000
0010
1000
,
0100
0010
0001
0100
,
0001
0000
0000
0100
0000
0000
1000
0000
0000
0001
0000
0000
0220
0000
0000
0000
,
0000
0000
0000
0000
,
0000
0000
0000
0330
,
0010
1000
0100
1000
,
0010
1000
0100
0010
,
1001
0100
0010
0100
,
0001
0100
0010
1000
,
1001
0010
0001
0010
,
0100
1000
0100
0010
,
1001
0010
0100
0010
,
0100
0000
0000
0000
,
1001
0100
0010
0100
,
0010
1000
0100
1000
,
0100
1000
0010
0100
,
0010
1000
0100
0001
0010
0000
1000
0000
,
2000
0000
0000
0000
0000
0000
3010
0001
,
0010
0000
0100
0000
0001
0000
0100
1000
,
0001
0000
0010
0000
0100
0000
1000
0001
,
0100
0000
1000
0000
0010
0000
0100
1000
,
0001
0000
0000
0100
0000
0000
1000
0000
0000
0001
0000
0000
1000
0000
0000
0000
,
0010
0100
0010
0100
,
0010
1000
0100
0010
,
0001
0100
0001
1000
,
0001
0000
0000
0100
0000
0000
1000
0000
0000
0001
0000
0000
1000
0000
0000
0000
;

//--------------- dance-single - ----------------
#NOTES:
     dance-single:
     :
     Medium:
     9:
     0,0,0,0,0:
0000
0000
0000
0000
,
0000
0000
0000
0000
,
0000
0000
0000
0000
,
0001
0010
0100
0001
,
1000
0000
0001
0000
,
1001
0100
1000
0100
,
0001
0010
0001
0010
,
1001
0100
1000
0100
,
0010
0001
0010
0001
,
1001
0100
0010
0100
,
0010
0010
0010
0010
,
0110
1000
0100
1000
,
0002
0000
0000
0000
,
1003
0100
0010
1000
,
0001
0010
1000
0001
,
0010
0100
1000
0100
0001
1000
0010
0001
,
0001
1000
0001
0100
2000
0000
3000
0000
,
1001
0100
0010
0100
,
1001
0000
0100
0000
1000
0000
0001
1000
,
0010
0000
1000
0000
0001
0010
0100
0001
,
1000
0000
0001
1000
0010
0001
1000
0100
,
0001
0000
0000
0100
0000
0000
1000
0000
0000
0001
0000
0000
1000
0000
0000
0000
,
0010
0000
0100
0001
1000
0100
0001
0000
,
0010
0000
0100
0001
1000
0000
0001
1000
,
0010
0100
1000
0001
,
0010
0000
0000
1000
0000
0000
0001
0000
1000
0000
0000
0000
2002
0000
0000
0000
,
0000
0000
0000
0000
,
0000
0000
3003
0000
,
1000
0000
0001
0000
0010
0000
1000
0010
,
0001
0000
0010
0000
1000
0000
0001
1000
,
0010
0000
1001
0000
0100
0000
1000
0010
,
0001
0000
0010
0000
1000
0100
0001
0000
,
0010
1000
0100
0000
1000
0000
0001
0000
,
0010
0100
1000
0000
0001
0000
0010
1000
,
0100
0001
1000
0000
0001
0100
0010
0000
,
2000
0000
0000
0000
,
3001
0010
1000
0001
,
0010
1000
0001
0010
,
1000
0001
0100
1000
0001
0010
0100
1000
,
0001
0010
0100
1000
0002
0000
0003
0000
,
0220
0000
0000
0000
0030
0000
0310
0100
,
0010
0000
1000
0000
0001
0000
0100
0001
,
1000
0000
0100
1000
0001
0000
0100
1000
,
0001
0000
0010
0000
1000
0001
0100
1000
,
0001
0000
0000
0100
0000
0000
1000
0000
0000
0010
0000
0000
0100
0000
0000
0000
,
1000
0000
0001
0000
0010
1000
0001
0100
,
1000
0000
0001
0100
1000
0001
0010
0100
,
1000
0000
0001
0010
0100
1000
0001
0010
,
0001
0000
0000
0010
0000
0000
0100
0000
0000
1000
0000
0000
2002
0000
0000
0000
,
3003
0000
0000
0000
;

//--------------- dance-single - ----------------
#NOTES:
     dance-single:
     :
     Hard:
     12:
     0.395,0.462,0.168,0.159,0.243:
0000
0000
0000
0000
,
0000
0000
0000
0000
,
0000
0000
0000
0000
,
0002
0000
0000
0010
0000
0000
0010
0000
,
2003
0000
0000
0001
0000
0000
3001
0010
,
1001
0000
1000
0000
0000
0010
0000
0000
0100
0000
0000
0001
0000
0000
1000
0000
,
0001
0000
1000
0000
0000
0010
0000
0000
1000
0000
0000
0001
0000
0000
1000
0000
,
0010
0000
0001
0000
0000
1000
0000
0000
0001
0000
0000
1000
0000
0000
0001
0000
,
0100
0000
1000
0000
0000
0001
0000
0000
0010
0000
0000
0100
0000
0000
0001
0000
,
1000
0000
0100
0000
0000
0001
0000
0000
0010
0000
0000
1000
0000
0000
0010
0000
,
0001
0000
1000
0000
0000
0010
0000
0000
1000
0000
0000
0100
0000
0000
0001
0000
,
0010
0000
1000
0000
0000
0001
0000
0000
1000
0000
0000
0010
0000
0000
1000
0000
,
0002
0000
0000
1003
,
1000
0000
0001
0000
1000
0001
0100
0000
,
0010
0000
1000
0000
0001
1000
0010
0000
,
1000
0001
0100
1000
0001
0100
1000
0001
,
1000
0001
1000
0000
0001
1000
0001
0000
0020
0000
0000
0000
0000
0000
0030
0000
,
1001
0000
0000
1000
0000
0001
0000
0000
1000
0001
0000
0010
1000
0001
1000
0000
,
0002
0000
0103
1000
0000
0001
1000
0000
0001
0100
0000
0001
0100
1000
0200
0000
,
0310
0001
1000
0001
0100
0001
0010
0010
,
1000
0001
1000
0100
0001
0010
1000
0001
,
1100
0000
0000
0011
0000
0000
1001
0000
0000
0001
0000
0000
0020
0000
0000
0000
,
1030
0000
0001
0000
1000
0000
0100
0000
1000
0000
0010
0000
1000
0001
0010
0000
,
0100
0000
0010
0000
1000
0000
0001
0000
0010
0000
0100
0000
1000
0010
0001
0000
,
0010
0000
0001
0000
1000
0000
0001
0000
0100
0000
0010
0000
0100
1000
0001
0000
,
1100
0000
0000
0110
0000
0000
1001
0000
0001
0000
0010
0000
0100
0000
1000
0000
,
0220
0000
0000
0000
,
0000
0000
0000
0330
,
1001
0000
0100
0000
0000
0010
0000
0000
1000
0000
0000
0001
0000
0000
0010
0000
,
0100
0000
1000
0000
0000
0001
0000
0000
0100
0000
0000
1000
0000
0000
0001
0000
,
0100
0000
0010
0000
0000
1000
0000
0000
0001
0000
0000
0010
0000
0000
1000
0000
,
0001
0000
0100
0000
0000
1000
0000
0000
0001
0000
1000
0000
0010
0000
1000
0000
,
1001
0000
0010
0000
0000
1000
0000
0000
0001
0000
0000
0010
0000
0000
1000
0000
,
0001
0000
0010
0000
0000
0100
0000
0000
1000
0000
0000
0001
0000
0000
0100
0000
,
1000
0000
0001
0000
0000
0010
0000
0000
0100
0000
0000
1000
0000
0000
0001
0000
,
0020
0000
0000
1030
,
1001
0000
0001
0000
1000
0001
0100
0000
,
0010
0000
1000
0000
0001
1000
0010
0000
,
1000
0001
0100
1000
0001
0100
1000
0001
,
1000
0001
1000
0000
0001
1000
0001
0000
0020
0000
0000
0000
0000
0000
0030
0000
,
1002
0000
0000
0000
0000
0000
2003
3200
,
0302
0000
0103
1000
0000
0001
1000
0000
0001
0100
0000
0001
0100
1000
0200
0000
,
0310
0001
1000
0001
0100
0001
0010
0010
,
1000
0001
1000
0100
0001
0010
1000
0001
,
1100
0000
0000
0011
0000
0000
1001
0000
0000
0001
0000
0000
0020
0000
0000
0000
,
1030
0000
0001
0000
1000
0000
0100
0000
1000
0000
0010
0000
1000
0001
0010
0000
,
0100
0000
0010
0000
1000
0000
0001
0000
0010
0000
0100
0000
1000
0010
0001
0000
,
0010
0000
0001
0000
1000
0000
0001
0000
0100
0000
0010
0000
0100
1000
0001
0000
,
1100
0000
0000
0110
0000
0000
1001
0000
0001
0000
0010
0000
2002
0000
0000
0000
,
0000
0000
0000
0000
,
3003
0000
0000
0000
;
