#TITLE:My Time;
#ARTIST:RiraN;
#GENRE:FIVE PICE RECORDS;
#MUSIC:My Time.mp3;
#BANNER:My Time.png;
#BACKGROUND:Fallback-bg.png;
#CDTITLE:./CDTitles/NAMCO MUSEUM ARCADE PAC.png;
#SAMPLESTART:14.598;
#SAMPLELENGTH:15.000;
#SELECTABLE:YES;
#OFFSET:-0.238;
#BPMS:0.000=150.000;
#STOPS:;
#BGCHANGES:;
#FGCHANGES:;

//--------------- dance-single - ----------------
#NOTES:
     dance-single:
     :
     Beginner:
     4:
     0,0,0,0,0:
0000
0000
0000
0000
,
0000
0000
0000
0000
,
0000
0000
0000
0000
,
0000
0000
0000
0000
,
0000
0000
0000
0000
,
1000
0000
0010
0000
,
1000
0000
0001
0000
,
0110
0000
1001
0000
,
0010
0010
0010
0000
,
1001
0000
0010
0000
,
1000
0001
0010
0000
,
1000
0000
0001
0000
,
0010
1000
0001
0000
,
0010
0000
1000
0000
,
0010
1000
0001
0000
,
0010
0000
1000
0000
,
0001
0000
0010
0000
,
1001
0100
1000
0000
,
0010
1000
0001
0000
,
0010
0100
0010
0000
,
0001
1000
0001
0000
,
0010
0100
1000
0000
,
0010
0010
0100
0000
,
0001
1000
0001
0000
,
0010
0000
0100
0000
,
2002
0000
0000
0000
,
0000
0000
0000
0000
,
0000
0000
0000
0000
,
3003
0000
0000
0000
,
0010
0000
0000
0000
,
1000
0000
0000
0000
,
0001
0000
0000
0000
,
1000
0000
0000
0000
,
0010
0000
0000
0000
,
1000
0000
0000
0000
,
0010
0000
0000
0000
,
1000
0000
0000
0000
,
0010
0000
0100
0000
,
1000
0000
0001
0000
,
0010
0000
1000
0000
,
0001
0000
0010
0000
,
1000
0000
0001
0000
,
0010
0000
1000
0000
,
0010
0000
1000
0000
,
0001
0000
0010
0000
,
0010
0000
0100
0000
,
1000
0000
0001
0000
,
0010
0000
1000
0000
,
0001
0000
0010
0000
,
1000
0000
0001
0000
,
0010
0000
0100
0000
,
1001
0000
0110
0000
,
1000
1000
1000
0000
,
1001
0000
0010
0100
,
1000
0000
0001
0010
,
0100
0000
1000
0001
,
0010
0000
0100
0010
,
1000
0000
0001
0010
,
1000
0000
0001
0010
,
0100
0000
1000
0001
,
0100
0000
1000
0000
,
1001
0100
1000
0000
,
0001
0010
1000
0000
,
0001
0010
1000
0000
,
0001
1000
0001
0000
,
0010
0100
1000
0000
,
0001
1000
0001
0000
,
0010
0100
1000
0000
,
0001
0000
1000
0000
,
2002
0000
0000
0000
,
3003
0000
0000
0000
;

//--------------- dance-single - ----------------
#NOTES:
     dance-single:
     :
     Easy:
     6:
     0,0,0,0,0:
0000
0000
0000
0000
,
0000
0000
0000
0000
,
0000
0000
0000
0000
,
0000
0000
0000
0000
,
0000
0000
0000
0000
,
0010
0000
1000
0000
,
0001
0000
0010
0000
,
1001
0000
0110
0000
,
0010
0010
0010
0010
,
1001
0100
1000
0001
,
0010
1000
0001
0010
,
1000
0001
0010
1000
,
0001
0100
1000
0002
,
1003
0010
1000
0001
,
0010
0100
1000
0001
,
0010
0100
1000
0001
,
1000
1000
0001
0001
,
1001
0100
0010
0100
,
1000
0100
1000
0001
,
0100
1000
0001
0010
,
0100
1000
0001
0200
,
0310
1000
0001
0010
,
1000
0001
0010
1000
,
0001
0100
1000
0001
,
0001
0000
1000
0000
,
2002
0000
0000
0000
,
0000
0000
0000
0000
,
0000
0000
0000
0000
,
0000
3003
0000
0000
,
0010
0000
1000
0000
,
0001
0000
0010
0000
,
1000
0000
0001
0000
,
0010
0000
1000
0000
,
0001
0000
0010
0000
,
1000
0000
0001
0000
,
0010
0000
1000
0000
,
0001
0000
0010
0000
,
0001
1000
0001
0000
,
0010
0100
1000
0000
,
0001
1000
0001
0000
,
0010
0100
1000
0000
,
0001
0010
1000
0000
,
0100
1000
0100
0000
,
0010
0100
0010
0000
,
0001
1000
0001
0000
,
0010
0100
1000
0001
,
0010
1000
0100
0010
,
1000
0001
0010
0100
,
1000
1000
0001
0001
,
0010
0100
1000
0001
,
0010
1000
0001
0010
,
1001
0000
0110
0000
,
1001
1001
1001
0000
,
1001
0010
1000
0001
,
0010
0100
1000
0001
,
0010
1000
0001
0010
,
0100
1000
0001
0010
,
0100
1000
0001
0010
,
0100
1000
0001
0010
,
0100
0001
1000
0001
,
0100
0000
0001
0000
,
1001
0100
1000
0001
,
0010
1000
0001
0010
,
1000
0001
0010
0100
,
1000
0001
0100
0010
,
1000
0001
0010
0100
,
1000
0001
0100
0010
,
0100
1000
0001
0100
,
1000
0001
0100
1000
,
1001
0000
0000
0000
;

//--------------- dance-single - ----------------
#NOTES:
     dance-single:
     :
     Medium:
     8:
     0,0,0,0,0:
0000
0000
0000
0000
,
0000
0000
0000
0000
,
0000
0000
0000
0000
,
0000
0000
0000
0000
,
0000
0000
0000
0000
,
0010
1000
0001
0100
,
1000
0001
0010
0100
,
0110
0000
1001
0000
,
0110
1001
0110
1001
,
0010
0000
0100
0000
1000
0010
0001
0000
,
0100
0001
1000
0000
0001
0000
0010
1000
,
0001
0000
0100
0001
1000
0000
0001
1000
,
0010
0000
1000
0010
0001
0000
0020
0000
,
0130
0000
1000
0000
0001
1000
0010
0000
,
1000
0000
0001
0000
0010
0001
0100
0000
,
1000
0000
0001
1000
0010
0000
1000
0000
,
0001
0001
1000
1000
,
1001
0000
0010
0000
0100
0001
1000
0010
,
0001
0100
1000
0001
0010
0100
1000
0000
,
0001
0000
0100
0001
1000
0010
0001
0010
,
0100
0010
1000
0001
0100
0001
2000
0000
,
3001
0000
0010
0100
1000
0001
0100
0010
,
1000
0100
0001
0010
0100
1000
0001
0000
,
0010
0000
0100
1000
0001
1000
0010
0000
,
0100
0100
0010
0010
,
2002
0000
0000
0000
,
0000
0000
0000
0000
,
0000
0000
0000
0000
,
3003
0000
0000
0000
,
0020
0000
0031
0000
,
2000
0000
3100
0000
,
0020
0000
0130
0000
,
0020
0000
0031
0000
,
2000
0000
3001
0000
,
0020
0000
0130
0000
,
0002
0000
1003
0000
,
0002
0000
0013
0000
,
1001
0010
1000
0001
,
0010
0000
1000
0000
0001
0000
0010
0100
,
1000
0000
0001
0000
0010
0000
0100
0001
,
1000
0000
0001
0000
0010
0001
0100
0000
,
1000
0001
0010
0100
,
0001
0000
0010
1000
0100
0000
1000
0000
,
0001
0000
0010
1000
0100
0000
1000
0100
,
0001
0000
0010
0000
0100
0001
1000
0000
,
1001
0100
0010
1000
,
0001
0010
0100
1000
,
0001
0100
1000
0001
,
0010
0100
1000
0001
,
0010
0001
0100
1000
0010
0001
1000
0100
,
0001
1000
0010
0001
0100
0100
1000
0000
,
1001
0000
0110
0000
,
1001
1001
1001
1001
,
1001
0000
0100
0000
0010
0000
1000
0010
,
0001
0000
0010
0000
1000
0000
0001
1000
,
0100
0000
1000
0000
0001
1000
0010
0000
,
0100
0001
1000
0000
0001
0100
1000
0001
,
0010
0000
0100
0000
1000
0010
0001
0000
,
0010
0000
1000
0001
0100
1000
0001
0010
,
0100
0000
1000
0000
0001
1000
0100
0000
,
0010
0000
1000
0000
0100
0000
0010
0100
,
1001
0000
0100
0000
0010
1000
0001
0000
,
0010
0000
1000
0001
0010
0000
0100
1000
,
0001
0000
0010
0000
0100
1000
0001
0000
,
0010
0000
0010
0100
1000
0000
0001
0010
,
0100
0000
1000
0000
0001
0010
0100
0000
,
0001
0010
0100
0000
1000
0000
0001
0100
,
1000
0000
0001
0010
0100
0000
1000
0001
,
0010
0100
1000
0001
,
1001
0000
0000
0000
;

//--------------- dance-single - ----------------
#NOTES:
     dance-single:
     :
     Hard:
     13:
     0.44,0.543,0.333,0.222,0.004:
0000
0000
0000
0000
,
0000
0000
0000
0000
,
0000
0000
0000
0000
,
0000
0000
0000
0000
,
0000
0000
0000
0000
,
0001
0010
1000
0001
,
1000
0100
0010
1000
,
1001
0000
0110
0000
,
1001
0110
0110
0110
,
1001
0000
0100
0000
1000
0100
1000
0000
,
0100
0010
0100
0000
1000
0001
0010
0000
,
0100
1000
0001
0010
1000
0001
0100
0000
,
0010
1000
0100
1000
0001
0000
2000
0000
,
3001
0000
0010
0100
1000
0000
0001
0000
,
0010
0100
1000
0001
0100
0000
1000
0000
,
0001
0010
0100
0000
1000
0000
0001
0000
,
0010
0010
0010
0010
,
1001
0000
1000
0100
1000
0100
1000
0100
,
1000
0100
1000
0100
1000
0100
2000
0000
,
3010
0001
0010
0001
0010
0001
0010
0001
,
0010
0001
0010
0001
0010
0001
0020
0000
,
0130
1000
0100
1000
0100
1000
0100
1000
,
0100
1000
0100
1000
0100
1000
0200
0000
,
0310
0001
0010
0001
0010
0001
0010
0001
,
1001
0100
1000
0001
,
2002
0000
0000
0000
,
3003
0000
0000
0000
,
0020
0000
0030
0000
,
0200
0000
0300
0000
,
0020
0030
2000
3000
,
0002
0003
0020
0030
,
2000
3000
0002
0003
,
0020
0030
2000
3000
,
0200
0300
0002
0003
,
2000
3000
0200
0300
,
0020
0030
2000
3000
,
0002
0003
0020
0030
,
1000
0001
0010
1000
,
0001
0100
0010
1000
,
0001
0010
0100
1000
,
0001
0010
0100
1000
,
0001
0010
0100
1000
,
0001
0100
0010
0100
,
1000
0001
0010
0100
,
1000
0001
0100
0010
,
1001
0100
0010
1000
,
0001
0010
0100
1000
,
0001
0010
0100
1000
,
0001
0100
0010
1000
,
0001
0010
0100
1000
0001
0010
0100
1000
,
0001
0010
0100
0010
1000
0001
0010
0000
,
0110
0000
1001
0000
,
0110
0110
0110
0110
,
1001
1100
0011
0110
,
1100
0110
1100
0110
,
0110
0011
0110
1100
,
0110
0000
1100
0000
0110
0000
0100
0010
,
1000
0011
0110
1100
,
0110
0110
1100
1100
,
1010
0000
0000
0000
1010
0000
0000
0000
0100
0000
0000
0001
0000
0000
0100
0000
,
1000
0001
1000
0001
,
0001
0100
0001
0100
0010
1000
0001
0100
,
0010
1000
0001
0100
0010
1000
0001
1000
,
0100
1000
0001
0100
0001
0010
0100
0010
,
0001
1000
0001
0100
0010
1000
0010
0100
,
0001
0010
0001
0010
0100
0010
0100
1000
,
0010
0100
0001
1000
0001
0100
0010
0100
,
0001
1000
0010
0100
0001
0100
0010
0100
,
0001
0000
1000
0001
,
2002
0000
0000
0000
,
0000
0000
0000
3003
;
