#TITLE:Meltdown;
#ARTIST:G Blazen;
#GENRE:SUPER THUNDER;
#BANNER:Meltdown.png;
#BACKGROUND:Fallback-bg.png;
#CDTITLE:./CDTitles/NAMCO MUSEUM ARCADE PAC.png;
#MUSIC:Meltdown.mp3;
#OFFSET:-0.248;
#SAMPLESTART:33.960;
#SAMPLELENGTH:15.000;
#SELECTABLE:YES;
#BPMS:0.000=128.000;
#STOPS:;
#BGCHANGES:;

//---------------dance-single - ----------------
#NOTES:
     dance-single:
     :
     Beginner:
     2:
     0.147,0.256,0.024,0.024,0.000:
0000
0000
0000
0000
,
0000
0000
0000
0000
,
0000
0000
0000
0000
,
0000
0000
0000
0000
,
0000
0000
0000
0000
,
0000
0000
0000
0000
,
0010
0000
1000
0000
,
0010
0000
0100
0000
,
0001
0000
0100
0000
,
1000
0000
0010
0000
,
0010
0000
0000
0000
,
1000
0000
0000
0000
,
0001
0000
0000
0000
,
0010
0000
0000
0000
,
1000
0000
0010
0000
,
1000
0000
0001
0000
,
0010
0100
0010
0100
,
0010
0000
0000
0000
,
1001
0100
0000
1000
,
0000
0001
0000
0010
,
0000
1000
0000
0001
,
0000
0010
0000
1000
,
1001
0000
0100
0000
,
1000
0000
0001
0000
,
0010
0000
0100
0000
,
1000
0001
1000
0001
,
0100
1000
0000
0100
,
0000
0010
0000
0001
,
0000
1000
0000
0010
,
0000
1000
0000
0001
,
1000
0001
0000
0010
,
0000
0100
0000
1000
,
0010
0000
0100
0000
,
1000
0000
0001
0000
,
0020
0000
0000
0000
,
0000
0000
0000
0000
,
0130
0000
0000
0000
,
1000
0000
0000
0000
,
0001
0000
0000
0000
,
0010
0000
0000
0000
,
1000
0000
0000
0000
,
0010
0000
0000
0000
,
0001
0000
1000
0000
,
0010
0000
1000
0000
,
0001
1000
0001
1000
,
0001
0000
0000
0000
,
0020
0130
1000
0001
,
0010
1000
0001
0010
,
1000
0000
0001
0000
,
0100
0000
1000
0001
,
0010
1000
0000
0001
,
0000
0010
0000
1000
,
0010
0000
0010
0000
,
1000
0001
1000
0001
,
1001
0000
0100
0000
,
1000
0000
0010
0100
,
1000
0000
0001
0000
,
0010
0000
1000
0001
,
0020
0130
1000
0000
,
0010
0000
1000
0000
,
0001
0000
0010
0000
,
1000
0001
0100
1000
,
0001
0000
0000
0000
,
0100
0000
0000
0000
;

//---------------dance-single - ----------------
#NOTES:
     dance-single:
     :
     Easy:
     4:
     0.264,0.332,0.065,0.057,0.000: // measure 1
0000
0000
0000
0000
,  // measure 2
0000
0000
0000
0000
,  // measure 3
0000
0000
0000
0000
,  // measure 4
0000
0000
0000
0000
,  // measure 5
0000
0000
0000
0000
,  // measure 6
0000
0000
0000
0000
,  // measure 7
0010
0000
1000
0000
,  // measure 8
0001
0000
0010
0000
,  // measure 9
1000
0000
0010
0000
,  // measure 10
1000
0000
0010
0000
,  // measure 11
0001
0000
0010
0000
,  // measure 12
1000
0000
0001
0000
,  // measure 13
1000
0000
0100
0000
,  // measure 14
0010
0000
1000
0000
,  // measure 15
0010
0000
1000
0000
,  // measure 16
0001
0000
0010
0000
,  // measure 17
1000
0001
0010
1000
,  // measure 18
0001
1000
0000
0010
0000
1000
0000
0001
,  // measure 19
2000
3010
1000
0001
,  // measure 20
0010
0001
1000
0000
0001
0000
0010
0001
,  // measure 21
0200
1300
0001
0010
,  // measure 22
0100
0000
1000
1000
0001
0000
0010
0000
,  // measure 23
1002
0103
1000
0001
,  // measure 24
0010
0001
0100
0000
1000
0100
0001
0000
,  // measure 25
0100
0000
0010
0000
,  // measure 26
1000
0001
1000
0001
,  // measure 27
1001
0000
0100
0000
1000
0000
0001
1000
,  // measure 28
0010
0000
1000
0000
0001
0000
0010
0001
,  // measure 29
1000
0001
0010
0100
,  // measure 30
1000
0000
0001
1000
0010
0000
1000
0000
,  // measure 31
0001
0010
1000
0001
,  // measure 32
0100
0001
0010
0000
1000
0000
0001
1000
,  // measure 33
0010
0100
1000
0001
,  // measure 34
0010
1000
0001
0010
,  // measure 35
0100
0000
0000
0000
,  // measure 36
0010
0000
0001
1000
,  // measure 37
0100
0000
0100
0000
,  // measure 38
1000
0000
0001
0010
,  // measure 39
1000
0000
0010
0001
,  // measure 40
0100
0000
1000
0100
,  // measure 41
0010
0000
1000
0001
,  // measure 42
0010
0000
0001
0100
,  // measure 43
1000
0100
0010
1000
,  // measure 44
0001
0010
0100
1000
,  // measure 45
0001
0100
1000
0000
0001
0100
1000
0000
,  // measure 46
0001
1000
0000
0100
0000
1000
0000
0001
,  // measure 47
2000
3001
0100
1000
,  // measure 48
0001
1000
0010
0000
1000
0000
0001
1000
,  // measure 49
0020
0130
1000
0001
,  // measure 50
0010
0001
0100
0000
1000
0000
0001
1000
,  // measure 51
0010
1000
0001
0010
,  // measure 52
0100
1000
0001
0000
1000
0100
0001
0000
,  // measure 53
0110
0000
0110
0000
,  // measure 54
1100
0011
1100
0011
,  // measure 55
0002
1003
0010
0100
,  // measure 56
1000
0001
0100
1000
,  // measure 57
0001
0010
0100
1000
,  // measure 58
0001
0010
1000
0001
,  // measure 59
0020
0130
1000
0001
,  // measure 60
0010
1000
0001
0010
,  // measure 61
0100
1000
0001
0010
,  // measure 62
1000
0000
0001
0000
0010
0100
1000
0001
,  // measure 63
0100
0000
0000
0000
,  // measure 64
0010
0000
0000
0000
;

//---------------dance-single - ----------------
#NOTES:
     dance-single:
     :
     Medium:
     8:
     0.369,0.428,0.081,0.130,0.000:
0000
0000
0000
0000
,
0000
0000
0000
0000
,
0000
0000
0000
0000
,
0000
0000
0000
0000
,
0000
0000
0000
0000
,
0000
0000
0000
0000
,
0001
1000
0010
0100
,
0001
1000
0010
1000
,
0001
0010
0001
1000
,
0100
1000
0100
1000
,
0001
0010
0001
0010
,
0100
0010
0100
1000
,
0010
1000
0100
1000
,
0001
0010
0001
0020
,
0031
1000
0100
0010
,
0100
0010
0001
1000
,
0100
1000
0010
0100
0001
1000
0100
0001
,
0010
1000
0000
0001
0000
0010
0000
1000
,
0020
0000
1030
0010
0001
1000
0100
0001
,
0010
1000
0100
0010
0001
1000
0200
0000
,
0301
0000
0010
1000
0001
0100
1000
0001
,
0100
0000
0010
0001
0100
1000
0010
0000
,
0002
0000
0013
0000
0100
0001
1000
0100
,
0001
0100
1000
0010
0001
1000
0010
0001
,
0110
1010
0011
1100
,
0001
0000
0010
0000
0100
0001
0010
1000
,
0200
0000
0310
0001
0001
0000
1000
0001
,
0100
0000
1000
0001
0010
0100
1000
0010
,
0001
0000
0010
1000
0001
0000
0100
0001
,
0010
0000
0100
0000
0010
0100
1000
0001
,
0100
0000
0010
0000
0001
0000
0100
1000
,
0010
0000
1000
0000
0010
0001
1000
0010
,
0001
0000
1000
0000
0001
0010
0100
0000
,
0001
1000
0100
0000
0010
0000
1000
0100
,
0001
0200
0000
1300
,
0001
1000
0100
0010
,
0001
0200
0000
0310
,
0010
1000
0100
0010
,
0001
1000
0020
0000
0031
0000
0010
0000
,
0200
1300
0100
0010
,
0002
0103
0010
0100
,
0010
1000
0001
0100
,
0001
0100
0001
1000
,
0100
0010
0001
1000
,
0010
0001
0100
1000
0001
0100
1000
0010
,
0001
0100
0000
1000
0000
0001
0000
1000
,
0002
0000
0013
1000
0100
0000
1000
0000
,
0100
0001
0010
0000
0001
0000
1000
0100
,
0020
0000
0130
0000
0001
0000
1000
0100
,
0010
0000
1000
0000
0001
1000
0100
0000
,
0002
0000
0013
0000
0001
0100
1000
0000
,
0100
0000
0010
1000
0001
0000
0101
0000
,
0011
0110
1001
0110
,
0100
0001
1000
0000
0001
0100
1000
0000
,
0002
0000
1003
0000
0100
0000
0010
1000
,
0001
0000
1000
0001
0100
0000
0010
1000
,
0200
0000
0310
0000
0001
0100
1000
0000
,
0010
0001
0100
0000
0001
1000
0100
0000
,
0020
0000
1030
0000
0100
0001
1000
0000
,
0010
0001
1000
0000
0010
1000
0100
0000
,
0010
1000
0100
0000
0001
1000
0100
0000
,
0001
0010
1000
0100
0001
0010
0100
1000
,
1001
0000
0000
0000
;

//---------------dance-single - ----------------
#NOTES:
     dance-single:
     :
     Hard:
     11:
     0.456,0.571,0.195,0.219,0.045:
0000
0000
0000
0000
,
0000
0000
0000
0000
,
0000
0000
0000
0000
,
0000
0000
0000
0000
,
0000
0000
0000
0000
,
0000
0000
0000
0000
,
0020
0001
0100
0130
,
0200
1000
0010
0310
,
0020
0130
0200
0310
,
0020
0031
0200
1300
,
1001
0000
0110
0000
0001
0010
0100
0000
,
0100
0000
0010
0000
0001
0010
0100
0000
,
1000
0100
0010
0100
,
0010
0001
1001
0002
,
0013
0100
1000
0001
0100
1000
0010
0100
,
1000
0001
0100
1000
0100
0001
0010
0100
,
1000
0001
1000
0000
0001
1000
0001
0000
1000
0001
1000
0000
0001
1000
0001
0000
,
0000
1001
0000
1100
0000
0110
0000
0110
,
1002
0000
0013
1000
0100
0010
0100
0010
,
0100
1000
0001
0100
0010
1000
0010
1000
,
0002
0000
1003
0001
0000
1000
0010
0001
,
0100
0000
1000
0100
0001
0000
0100
1000
,
0120
0000
0130
0010
0100
1000
0010
0100
,
0001
0100
0001
1000
0100
1000
0010
0100
,
0002
0000
2003
0000
,
3001
0000
0011
0000
0011
1000
0001
0100
,
2000
0000
3001
0001
0010
0001
0010
0100
,
0010
0100
1000
0010
0100
0010
1000
0100
,
1001
0000
0010
1000
0000
0001
0000
0100
,
1000
0000
0001
0100
0000
1000
0000
0001
,
0200
0000
1300
0001
0010
0001
1000
0010
,
1000
0010
1000
0001
0100
0010
1000
0100
,
1001
0000
0010
1000
0000
0001
0000
0100
,
1000
0000
0001
0100
0000
1000
0000
0001
,
0210
0000
0000
0000
,
0320
0000
0130
1000
,
1001
0000
0100
0000
,
0020
0000
0000
0000
,
1030
0010
1000
0001
,
0010
1000
0001
0010
,
1000
0001
0010
0100
,
1000
0001
0010
0110
,
0010
0100
1000
0001
0100
1000
0010
0100
,
1000
0001
0100
1000
0100
0001
0010
0100
,
1000
0001
1000
0000
0001
1000
0001
0000
1000
0001
1000
0000
0001
1000
0001
0000
,
0000
1001
0000
1010
0000
0110
0000
0110
,
0002
0000
0013
1000
0100
0010
0100
0010
,
0100
1000
0001
0100
0010
1000
0010
1000
,
0012
0000
1003
0001
0100
1000
0010
0001
,
0100
0001
1000
0100
0001
0010
0100
1000
,
0020
0000
0130
0010
0100
1000
0010
0100
,
0001
0100
0001
1000
0100
1000
0010
0100
,
1002
0000
2003
3000
,
0001
0010
0100
0000
0001
1000
0001
0000
0001
0000
1000
0100
0001
0000
0100
0000
,
2001
0000
3001
0001
0010
0001
0010
0100
,
0010
0100
1000
0010
0100
0010
1000
0100
,
1002
0000
0013
1000
0100
0001
1000
0100
,
1000
0100
0001
0100
0010
1000
0100
0001
,
0200
0000
1300
0001
0010
0001
1000
0010
,
1000
0010
1000
0001
0100
0010
1000
0100
,
0001
1000
0010
1000
0100
0001
0010
0100
,
1000
0100
0001
0100
0010
1000
0100
0001
,
0200
0000
0000
0000
,
0320
0000
0000
0000
,
0030
0000
0000
0000
;
