#TITLE:MUTSUKI;
#ARTIST:KO3;
#GENRE:FIVE PICE RECORDS;
#MUSIC:MUTSUKI.ogg;
#BANNER:MUTSUKI.png;
#BACKGROUND:MUTSUKI-bg.png;
#CDTITLE:./CDTitles/NAMCO MUSEUM ARCADE PAC.png;
#SAMPLESTART:44.762;
#SAMPLELENGTH:15.000;
#SELECTABLE:YES;
#OFFSET:-1.285;
#BPMS:0.000=138.000;
#STOPS:;
#BGCHANGES:;
#FGCHANGES:;

//--------------- dance-single - ----------------
#NOTES:
     dance-single:
     :
     Beginner:
     2:
     0,0,0,0,0:
0000
0000
0000
0000
,
0000
0000
0000
0000
,
0000
0000
0000
0000
,
0000
0000
0000
0000
,
0000
0000
0000
0000
,
0100
0000
0000
0000
,
0100
0000
0000
0000
,
0010
0000
0000
0000
,
0010
0000
0000
0000
,
1000
0000
0000
0000
,
1000
0000
0000
0000
,
0001
0000
0000
0000
,
0001
0000
0000
0000
,
0100
0000
0000
0000
,
0010
0000
0000
0000
,
0100
0000
0000
0000
,
1001
0000
0000
0000
,
0010
0000
0000
0000
,
0010
0000
0000
0000
,
0100
0000
0000
0000
,
1000
0000
0000
0000
,
0001
0000
1000
0000
,
0001
0000
1000
0000
,
0001
0010
0100
1000
,
1001
0000
0000
0000
,
1001
0000
0000
0000
,
0001
0000
0000
0000
,
1000
0000
0000
0000
,
0001
0000
0000
0000
,
0010
0000
0000
0000
,
0100
0000
0000
0000
,
1000
0000
0000
0000
,
2002
0000
3003
0000
,
0100
0000
0000
0000
,
0010
0000
0000
0000
,
0001
0000
0000
0000
,
0001
0000
1000
0000
,
0001
0000
0000
0000
,
0100
0000
0000
0000
,
0010
0000
0000
0000
,
0001
0000
0000
0000
,
1000
0000
0000
0000
,
1000
0000
0000
0000
,
0001
0000
0000
0000
,
0001
0000
0000
0000
,
0100
0000
0000
0000
,
0010
0000
0000
0000
,
0100
0000
0010
0000
,
0100
0000
0000
0000
,
0001
0000
0000
0000
,
1000
0000
0000
0000
,
0001
0000
0000
0000
,
1000
0000
0000
0000
,
0010
0000
0000
0000
,
0100
0000
0000
0000
,
0001
0000
0000
0000
,
2002
0000
3003
0000
,
0010
0000
0000
0000
,
0100
0000
0000
0000
,
1000
0000
0000
0000
,
0001
0000
0000
0000
,
0100
0000
0000
0000
,
0010
0000
0000
0000
,
1000
0000
0000
0000
,
0001
0000
0000
0000
,
1001
0000
0000
0000
;

//--------------- dance-single - ----------------
#NOTES:
     dance-single:
     :
     Easy:
     4:
     0,0,0,0,0:
0000
0000
0000
0000
,
0000
0000
0000
0000
,
0000
0000
0000
0000
,
0000
0000
0000
0000
,
0000
0000
0000
0000
,
0001
0000
1000
0000
,
0001
0000
0100
0000
,
0010
0000
1000
0000
,
0002
0000
0000
1003
,
0100
0000
0010
0000
,
0100
0000
1000
0000
,
0001
0000
0000
0000
,
0100
0000
0010
0000
,
1000
0000
0000
0000
,
0010
0000
0000
0000
,
0100
0000
0000
0000
,
0110
0000
0000
0000
,
0001
0000
1000
0000
,
0001
0000
1000
0000
,
0100
0000
0010
0000
,
0100
0000
0001
0000
,
1000
0001
1000
0000
,
1000
0001
1000
0000
,
0100
0010
0100
0010
,
0110
0000
0000
0000
,
1001
0000
0100
1000
,
0001
0000
0100
0010
,
1000
0000
0001
1000
,
0001
0000
0100
0010
,
1000
0000
0001
1000
,
0001
0000
0100
1000
,
0001
0000
0100
0010
,
2002
0000
3003
0000
,
0100
0000
1000
0000
,
0100
0000
0010
0001
,
0010
0000
0100
0000
,
1000
0000
0001
0000
,
1000
0000
0100
0000
,
0010
0000
0001
0000
,
1000
0000
0001
0000
,
0100
0000
0000
0110
,
1000
0000
0000
0000
,
0001
0000
0000
0000
,
0010
0000
0000
0000
,
0100
0000
0000
0000
,
1000
0001
1000
0000
,
0100
0010
0100
0000
,
0001
0010
0100
0000
,
1001
0000
0000
0000
,
1000
0100
0010
0000
,
0001
0010
0100
0000
,
1000
0100
0010
0000
,
0001
0100
0010
0000
,
1000
0001
0100
0000
,
1000
0100
0010
0000
,
0001
0010
0100
0000
,
0220
0000
0330
0000
,
1001
0100
0010
0000
,
0001
0010
0100
0000
,
1000
0100
1000
0000
,
0001
1000
0001
0000
,
0100
0010
0001
0000
,
1000
0001
0100
0000
,
0001
0010
0100
1000
,
0001
1000
0001
1000
,
1001
0000
0000
0000
;

//--------------- dance-single - ----------------
#NOTES:
     dance-single:
     :
     Medium:
     10:
     0,0,0,0,0:
0000
0000
0000
0000
,
0000
0000
0000
0000
,
0000
0000
0000
0000
,
0000
0000
0000
0000
,
0000
0000
0000
0000
,
0100
0100
0010
1000
,
0001
0010
0100
0001
,
1000
0001
0100
0010
,
1001
0000
0000
0000
,
0101
1000
0001
0100
,
0010
0100
1000
0001
,
0100
0010
0001
1000
,
0001
0100
0010
0001
,
2000
0100
0010
3001
,
0002
0010
0100
1003
,
0100
0010
1000
0001
,
0110
0000
0000
1001
,
0110
0000
1000
0000
0100
0000
0010
0001
,
0100
0000
1000
0000
0001
0000
0100
0010
,
1000
0001
0100
0010
,
0001
1000
0001
0000
0100
0000
0010
0000
,
1000
0001
0100
0010
0100
0000
1001
0000
,
0100
0010
1000
0001
0010
0000
0101
0000
,
2000
3100
0002
0103
2000
3010
0002
0103
,
1001
0000
0000
0000
,
1001
0100
1000
0001
,
0100
0010
0001
0010
,
0100
1000
0001
0100
,
0010
0000
1000
0000
0001
1000
0001
0000
,
0110
0001
0010
0100
,
1000
0000
0001
0000
0010
0000
0100
0000
1000
0000
0001
0000
0010
0000
0000
1000
0000
0000
0001
0000
0000
0100
0000
0000
,
0010
1000
0001
0000
0100
0010
1000
0000
,
2002
0000
0000
3003
1001
0000
0110
0000
,
1000
0001
0100
0010
0100
0000
1000
0000
,
0001
0010
0100
1000
0001
0000
0100
0000
,
0001
0010
0100
0001
1000
0000
0001
0000
,
1000
0001
0100
0000
0010
1000
0001
0000
,
1001
0000
0010
0001
0010
0100
1000
0001
,
0100
0000
0010
0000
0010
0000
0001
0000
0100
0000
0100
0000
1000
0000
0000
0001
0000
0000
0100
0000
0000
1000
0000
0000
,
0001
0000
0100
0010
1000
0001
0100
0000
,
0001
0010
0100
1000
0100
0010
0001
0000
0000
0110
0000
0000
,
2000
0100
0010
0001
,
0010
0100
3001
0001
,
0002
0100
1000
0100
,
0010
1000
1003
0110
,
1000
0001
0100
0000
0010
1000
0001
0000
,
0100
0010
0001
0000
0010
0100
1000
0000
,
1001
0110
1001
0110
,
2002
0000
3003
0101
,
0100
0000
1000
0001
0100
0010
0001
0000
,
0010
0100
1000
0001
0100
0000
0010
0000
,
0100
1000
0001
0100
,
0010
1000
0001
0100
0010
0000
0001
0000
,
1000
0000
0001
0100
0010
0100
1000
0000
,
0001
1000
0001
0100
0010
0000
0100
0000
,
1000
0000
0001
0000
0100
0010
0001
0000
,
2002
0000
0000
3003
1001
0000
0110
0000
,
1001
0000
1000
0001
0100
0010
0001
0000
,
0010
0100
1000
0000
,
0001
1000
0001
0000
,
0100
0010
0001
0110
,
0001
1000
0001
0100
,
1000
0001
0100
0000
,
0001
0010
0100
1000
,
0220
0000
0000
0330
,
1001
0000
0000
0000
;

//--------------- dance-single - ----------------
#NOTES:
     dance-single:
     :
     Hard:
     12:
     0.875828,1.053153,0.20156,0.15117,1.158972,730,706,24,18,0,0,0.875828,1.053153,0.20156,0.15117,1.158972,730,706,24,18,0,0:
0000
0000
0000
0000
,
0000
0000
0000
0000
,
0000
0000
0000
0000
,
0000
0000
0000
0000
,
0000
0000
0000
0000
,
1001
0100
1000
0001
,
0010
0100
1000
0001
,
0010
1000
0001
0010
,
0100
0000
1000
0000
,
1001
0100
1000
0001
,
0010
0100
1000
0001
,
0010
0100
1000
0001
,
0001
0010
0100
1000
,
1001
0100
0010
0100
,
1000
1000
0001
0001
,
0010
0100
1000
0001
,
2000
0000
3002
1003
,
1001
0010
0001
0010
,
1000
0000
0000
0000
0001
0000
0000
0000
0010
0000
0000
1000
0000
0000
0001
0000
,
1000
0100
0010
0100
0001
0100
0010
1000
,
0010
1000
0001
1000
0001
0010
0001
0100
,
0001
1000
0001
0000
1000
0001
1000
0000
1000
0001
1000
0000
0001
0000
0001
0000
,
0001
1000
0001
0000
1000
0001
1000
0000
0001
1000
0001
0000
0100
0000
0000
0000
,
0010
1010
0010
0011
,
0010
0001
0010
0001
0010
0001
0010
0000
0000
1000
0000
0000
,
1001
0000
0100
0010
0100
1000
0100
1000
,
0010
1000
0010
0100
0010
0100
0001
0100
,
0001
0010
0001
0010
0100
1000
0001
1000
,
0100
0010
0100
0010
0001
0010
0002
0000
,
1003
0000
1001
0000
0001
0010
0100
0001
,
1000
0000
0000
0000
1000
0000
0001
0000
0000
0000
0001
0000
0001
0000
0000
0010
0000
0000
0100
0000
0000
0010
0000
0000
,
0100
1000
0001
0010
0001
1000
0100
1000
,
2002
0000
3003
0010
,
1001
0000
0100
0010
0001
0010
0001
1000
,
0001
1000
0010
0100
0001
0010
0100
0000
,
0100
1000
0001
0010
0001
1000
0100
1000
,
0010
1000
0010
0100
0001
0100
0010
0100
,
0002
0000
1003
0000
0010
1000
0100
0010
,
1000
0000
0010
0001
0000
0100
1000
0000
0000
1001
0000
0000
,
0010
1000
0100
1000
0100
1000
0010
0100
,
1000
0000
1000
0001
0000
0001
1000
0000
0000
1001
0000
0000
,
0010
0100
0010
1000
,
0010
1000
0100
1000
,
0010
0100
0001
0100
,
0010
0100
0010
1000
,
0100
1000
0001
0010
,
0001
1000
0001
0010
,
0100
1000
0010
0000
0001
0010
1000
0000
,
1001
0010
1000
0001
,
1001
0000
0100
0010
0001
0010
0001
0010
,
0100
1000
0100
1000
0001
0010
0001
0100
,
0001
1000
0010
1000
0001
0100
0001
1000
,
0100
1000
0100
1000
0010
0100
0002
0000
,
0103
0010
0001
1000
0010
0100
0010
0100
,
0010
1000
0001
0010
0001
1000
0001
1000
,
0010
0100
0001
1000
0001
0010
0100
1000
,
1001
0000
0000
0000
0001
0000
1000
0100
,
0020
0000
0130
1000
0010
0100
0010
1000
,
0001
0100
0010
0100
0001
1000
0001
1000
,
0010
0100
0010
1000
0001
0010
0001
1000
,
0100
0010
0100
0010
0001
0010
0100
1000
,
0100
0010
0100
1000
0010
0100
0010
1000
,
0100
0010
0001
1000
0100
1000
0010
1000
,
0010
0100
0001
0100
0001
0100
0010
1000
,
0002
0000
0000
0003
,
2002
0000
0000
0000
,
3003
0000
0000
0000
;
