#TITLE:HoneyComb;
#ARTIST:Hylen;
#GENRE:CLASS;
#MUSIC:HoneyComb.mp3;
#BANNER:HoneyComb.png;
#BACKGROUND:Fallback-bg.png;
#CDTITLE:./CDTitles/NAMCO MUSEUM ARCADE PAC.png;
#SAMPLESTART:27.343;
#SAMPLELENGTH:15.000;
#SELECTABLE:YES;
#OFFSET:-0.183;
#BPMS:0.000=150.000;
#STOPS:;
#BGCHANGES:;
#FGCHANGES:;

//--------------- dance-single - ----------------
#NOTES:
     dance-single:
     :
     Beginner:
     3:
     0,0,0,0,0:
0000
0000
0000
0000
,
0000
0000
0000
0000
,
0000
0000
0000
0000
,
0000
0000
0000
0000
,
0000
0000
0000
0000
,
0001
0000
0000
0000
,
0100
0000
0000
0000
,
1000
0000
0000
0000
,
0001
0000
0000
0000
,
0010
0000
0100
0000
,
1000
0000
0001
0000
,
0010
0000
1000
0000
,
0001
0000
0010
0000
,
1000
0001
0100
1000
,
0001
0100
1000
0001
,
0010
0010
0010
0010
,
0100
0000
0010
0000
,
1001
0100
1000
0000
,
0001
0100
1000
0000
,
0010
0000
1000
0000
,
0001
0010
0100
0000
,
1000
0000
0001
0000
,
0010
1000
0001
0000
,
0010
0000
0100
0000
,
1000
0001
0010
0000
,
1000
0000
0001
0000
,
0010
1000
0001
0000
,
0010
0100
1000
0000
,
0001
0010
0100
0000
,
1000
0000
0001
0000
,
0010
0000
1000
0000
,
0001
0000
0010
0000
,
1000
0001
0100
0000
,
1000
0000
0000
0000
,
0001
0000
0000
0000
,
0010
0000
1000
0000
,
0001
0000
0010
0000
,
0100
0000
1000
0000
,
0001
0000
0010
0000
,
1000
0000
0001
0000
,
0010
0100
1000
0001
,
1001
0100
1000
0001
,
0010
0100
1000
0001
,
0010
0100
1000
0001
,
0010
0100
1000
0001
,
0001
0001
0001
0001
,
1000
1000
1000
1000
,
0001
1000
0001
1000
,
0001
0000
0010
0000
,
1001
0000
0100
0000
,
1000
0001
0100
0000
,
1000
0000
0010
0000
,
1000
0000
0010
0000
,
1000
0001
0100
0000
,
1000
0001
0100
0000
,
1000
0000
0001
0000
,
0010
0100
1000
0000
,
0001
0000
0010
0000
,
0100
0000
1000
0000
,
0001
0000
0010
0000
,
0100
0000
1000
0000
,
0001
0010
0100
0000
,
1000
0100
0010
0000
,
0001
0001
0001
0001
,
1000
1000
1000
1000
;

//--------------- dance-single - ----------------
#NOTES:
     dance-single:
     :
     Easy:
     5:
     0,0,0,0,0:
0000
0000
0000
0000
,
0000
0000
0000
0000
,
0000
0000
0000
0000
,
0000
0000
0000
0000
,
0000
0000
0000
0000
,
0001
0000
0001
0000
,
0010
0000
1000
0000
,
0001
0000
0001
0000
,
0001
0000
0010
0000
,
0100
1000
0001
1000
,
0001
0010
0100
1000
,
0010
1000
0010
0100
,
0010
1000
0100
2000
,
3100
0010
0100
0010
,
0001
0010
0100
1000
,
0010
1000
0010
0100
,
0010
1000
0001
1000
,
0101
1000
0100
0010
,
0001
1000
0002
0000
,
0013
1000
0200
0000
,
0310
0100
0001
0100
,
0010
1000
0100
1000
,
0100
0010
0200
0000
,
0301
1000
0200
0000
,
0310
0100
0010
1000
,
0100
0010
0001
0010
,
0001
0100
0002
0000
,
0103
0010
0200
0000
,
0301
0100
0010
0100
,
0010
1000
0001
1000
,
0001
0010
0001
0100
,
0010
0100
0200
0000
,
0301
1000
0100
1000
,
0010
0000
0010
0000
,
0010
0000
1000
0000
,
0100
0000
0100
0000
,
0001
0000
0100
0000
,
0100
0000
0010
0000
,
0010
0000
0001
0000
,
0001
0000
0100
0000
,
0100
0000
0010
0000
,
0010
0100
0010
1000
,
0001
1000
0100
0010
,
0100
0010
0100
1000
,
0001
0100
0010
0100
,
0010
1000
0100
0010
,
0100
0010
0100
1000
,
0010
1000
0010
1000
,
1001
0110
0110
1001
,
0100
2000
0000
3200
,
0000
0320
0000
0032
,
0103
0010
0001
1000
,
0001
0100
0010
0100
,
0010
1000
0100
1000
,
0100
1000
0010
0100
,
0010
1000
0001
1000
,
0100
0010
0100
2000
,
3010
1000
0001
0100
,
0001
0100
0001
2000
,
3010
1000
0100
1000
,
0010
0100
0010
0100
,
0010
1000
0100
1000
,
0010
1000
0001
0010
,
0100
0010
0100
1000
,
0100
1000
0010
1000
;

//--------------- dance-single - ----------------
#NOTES:
     dance-single:
     :
     Medium:
     7:
     0,0,0,0,0:
0000
0000
0000
0000
,
0000
0000
0000
0000
,
0000
0000
0000
0000
,
0000
0000
0000
0000
,
0000
0000
0000
0000
,
0001
0010
0001
0000
,
0010
1000
0001
0000
,
0001
0100
0010
0000
,
0010
1000
0010
0000
,
0001
0100
0010
0100
,
0010
1000
0001
1000
,
0100
1000
0100
0010
,
0100
0010
0001
0020
,
0130
1000
0100
1000
,
0001
1000
0010
0100
,
0010
1000
0100
0000
0001
1000
0100
0000
,
0001
0010
0100
0010
,
0110
0010
0002
1003
,
0001
0010
0002
0010
,
0103
0010
0200
0001
,
0301
0000
0000
2000
0000
0000
0000
0000
3002
0000
0000
0000
0023
0000
0000
0000
,
0130
0010
0002
1003
,
0010
1000
0200
0001
,
0301
0010
0002
0010
,
0103
0010
0001
0200
,
0301
1000
0100
1000
,
0100
2000
0001
0010
,
3001
1000
0002
0010
,
0103
1000
0010
0200
,
0310
0100
0010
1000
,
0001
0100
0001
0100
,
0010
0100
2000
0100
,
3010
0100
0001
1000
,
0010
0100
0001
0100
,
0010
0100
0010
1000
,
0010
1000
0001
0010
,
0001
0100
0010
0100
,
0001
1000
0010
1000
,
0001
1000
0001
0100
,
0010
0100
0010
1000
,
0001
0010
0001
0010
,
0100
0010
0100
1000
,
0010
0100
0001
0100
,
0001
0010
0100
0010
,
0100
0010
0001
1000
,
0010
1000
0100
0000
0001
0000
0100
0000
,
0001
1000
0010
0000
0001
0000
0010
0000
,
0100
0001
1000
0000
0100
0001
1000
0000
,
0101
0110
1001
0110
,
0001
0200
0320
0230
,
0320
0230
0302
2003
,
3100
0010
0100
0010
,
0100
1000
0010
0100
,
0010
0100
0010
1000
,
0001
1000
0001
1000
,
0010
0100
0010
1000
,
0010
2000
3200
0320
,
0031
1000
0100
1000
,
0010
1000
0010
0100
,
0010
0100
0001
0010
,
0001
0010
0100
2000
,
3100
1000
0001
1000
,
0001
0010
0001
0010
,
0100
0010
0001
0100
,
0010
0100
0010
1001
;

//--------------- dance-single - ----------------
#NOTES:
     dance-single:
     :
     Hard:
     12:
     0,0,0,0,0:
0000
0000
0000
0000
,
0000
0000
0000
0000
,
0000
0000
0000
0000
,
0000
0000
0000
0000
,
0000
0000
0000
0000
,
0002
0000
2003
0000
,
3200
0000
0320
0000
,
0032
0000
0023
0000
,
0230
0000
0320
0000
,
0130
1000
0100
0010
,
0100
0010
0001
1000
,
0010
0100
0001
1000
,
0001
0100
0010
0200
,
0310
0100
1000
0001
0100
0010
1000
0010
,
0001
0100
1000
0100
0010
0001
0100
1000
,
0001
1000
0001
0000
1000
0001
1000
0000
0001
1000
0001
0000
1000
0001
1000
0000
,
1001
0110
1001
0110
,
2001
3002
0023
0230
,
0320
0000
0000
0032
0000
0000
0000
0000
0023
0000
0000
0000
0000
0000
0000
0000
,
1030
0000
0100
1000
0200
0000
0320
0000
,
0032
0000
0000
2003
0000
0000
0000
0000
3020
0000
0000
0000
0032
0000
0000
0000
,
0203
2300
3200
0320
,
0230
0000
0000
2300
0000
0000
0000
0000
3002
0000
0000
0000
0000
0000
0000
0000
,
0103
0000
1000
0100
0002
0000
0203
0000
,
2300
0000
0000
0000
0000
0000
0000
0000
0002
3000
0000
0000
0000
0000
0000
0000
0000
0000
0000
0000
0000
0000
0000
0000
0203
0000
0000
0000
0000
0000
0000
0000
0000
0000
0000
0000
0320
0000
0000
0000
0000
0000
0000
0000
0000
0000
0000
0000
,
2030
3200
0320
2030
,
3020
0000
0000
0032
0000
0000
0000
0000
0203
0000
0000
0000
0000
0000
0000
0000
,
0310
0000
1000
0100
0020
0000
0230
0000
,
0320
0230
0320
2030
,
3020
0032
0023
0230
,
0320
0000
0000
0032
0000
0000
0000
0000
0023
0000
0000
0000
0230
0000
0000
0000
,
1300
0000
0100
1000
0200
0000
0320
0000
,
0032
0000
0000
0003
2000
0000
0000
0000
3020
0000
0000
0000
0032
0000
0000
0000
,
0103
0010
0100
0010
,
0100
1000
0010
1000
,
0010
0100
0010
1000
,
0001
0100
0001
1000
,
0010
0100
0001
0100
,
0001
1000
0001
0100
,
0010
0100
0010
1000
,
0001
0100
0010
1000
,
1001
0100
0010
0100
,
1000
0010
1000
0001
,
1000
0001
0010
0100
,
0010
0000
0001
0000
0010
0000
0200
0300
,
0100
0010
0100
0010
0001
0100
0001
0100
,
0010
1000
0100
1000
0001
0100
0001
0100
,
0001
1000
0001
0000
1000
0001
1000
0000
0001
1000
0001
0000
1000
0001
1000
0000
,
0010
0011
0110
1100
,
1001
0020
0230
0320
,
0230
0320
0230
2300
,
3001
1001
0100
1001
,
0010
0110
1000
1001
,
0100
1100
0001
0011
,
0100
0110
1000
1100
,
0010
1010
0100
0101
,
0100
1010
0010
0200
,
0302
0203
2300
3002
,
0203
2300
3002
0203
,
0310
0000
0010
1000
0100
0000
0001
0010
,
1000
0000
0100
0001
1000
0000
0100
0001
,
0010
0000
0100
0001
1000
0000
0010
1000
,
0100
0000
0001
1000
0010
0000
0001
1000
,
0100
0000
0001
1000
0100
0000
0010
0001
,
1000
0000
0100
0001
0010
0000
1001
0010
;
