#TITLE:Honey Bounce;
#ARTIST:nora2r;
#GENRE:DIVING GHOST;
#MUSIC:Honey Bounce.mp3;
#BANNER:Honey Bounce.png;
#BACKGROUND:Fallback-bg.png;
#CDTITLE:./CDTitles/NAMCO MUSEUM ARCADE PAC.png;
#SAMPLESTART:16.985;
#SAMPLELENGTH:15.000;
#SELECTABLE:YES;
#OFFSET:-0.139;
#BPMS:0.000=128.000;
#STOPS:;
#BGCHANGES:;
#FGCHANGES:;

//--------------- dance-single - ----------------
#NOTES:
     dance-single:
     :
     Beginner:
     2:
     0,0,0,0,0:
0000
0000
0000
0000
,
0000
0000
0000
0000
,
0000
0000
0000
0000
,
0000
0000
0000
0000
,
0000
0000
0000
0000
,
0010
0000
0000
0000
,
1000
0000
0000
0000
,
0001
0000
0010
0000
,
1000
1000
1001
0000
,
0010
0000
1000
0000
,
0001
0000
0010
0000
,
1000
0000
0001
0000
,
0010
0000
1000
0000
,
0010
0000
0001
0000
,
1000
0000
0010
0000
,
1000
0000
0001
0000
,
0010
0000
0010
0000
,
1000
0000
0001
0000
,
1000
0000
0001
0100
,
0010
0000
1000
0000
,
0010
0000
0100
0000
,
0001
0000
1000
0000
,
0001
0000
0010
0000
,
1000
0000
1000
0000
,
0010
0000
0000
0000
,
0020
0000
0000
0000
,
0000
0000
0000
0030
,
1001
0000
0000
0000
,
0010
0000
0000
0000
,
1000
0000
0000
0000
,
0010
0000
0000
0000
,
0001
0000
0000
0000
,
0010
0000
0000
0000
,
1000
0000
0000
0000
,
0010
0000
0000
0000
,
0010
0000
0000
0000
1000
0000
0001
0100
,
1000
0000
0001
2000
,
3010
0001
0100
1000
,
0010
0010
0110
0000
,
1001
0010
0100
0000
,
0010
0100
1000
0000
,
0010
1000
0001
0100
,
0010
1000
0001
0100
,
0010
1000
0001
0100
,
0010
1000
0001
0100
,
0010
0001
1000
0100
,
0010
0010
1000
0001
,
1000
1000
1010
0000
0010
0000
0100
0000
,
0010
0100
1000
0001
,
0010
1000
0010
1000
,
0010
0000
0000
0000
1000
0000
0000
0000
0001
0000
0000
1000
0001
0000
0010
0000
,
1001
0010
0100
1000
,
0010
1000
0001
0010
,
0100
0000
0000
0000
;

//--------------- dance-single - ----------------
#NOTES:
     dance-single:
     :
     Easy:
     3:
     0,0,0,0,0:
0000
0000
0000
0000
,
0000
0000
0000
0000
,
0000
0000
0000
0000
,
0000
0000
0000
0000
,
0000
0000
0000
0000
,
0100
1000
0001
1000
,
0100
1000
0100
0010
,
0100
0001
1000
0000
0001
1000
0100
0000
,
1001
0110
1001
0100
,
1001
1000
0100
0010
,
0001
0010
0100
0010
,
0001
0100
0010
1000
,
0010
1000
0010
0100
,
0001
1000
0001
0100
,
0010
0100
0010
1000
,
0010
0100
0001
1000
,
0001
0100
0010
1000
,
0001
0000
1000
0000
,
0001
0000
0000
0000
0100
0000
0200
0300
,
0001
0100
0001
0100
,
0010
0100
0001
1000
,
0100
1000
0100
1000
,
0010
0100
0001
0010
,
0100
0010
0001
0100
,
0010
0010
0010
0010
,
0020
0000
0000
0000
,
0000
0000
0000
0030
,
1000
0001
0000
0010
,
0100
1000
0000
0001
,
0010
1000
0000
0001
,
0010
0100
0000
0100
,
0010
1000
0001
0000
,
0010
1000
0001
0000
,
0010
0001
0100
0000
,
1000
0001
0010
0000
,
1001
0000
0100
0000
1000
0000
0001
1000
,
0010
0100
1000
0002
,
0103
0010
0100
0010
,
1001
0110
1001
0110
,
1001
0010
0100
0010
,
0020
0130
1000
0001
,
0020
0130
1000
0100
,
0020
0031
1000
0010
,
0200
0301
1000
0001
,
0020
0031
0010
1000
,
0020
1030
0010
0100
,
0020
0130
1000
0010
,
1000
1000
1010
0000
0100
0000
0010
0000
,
0020
1030
0100
0010
,
0020
0130
0020
0031
,
0020
0000
0000
0000
0031
0000
0000
0000
0100
0000
0000
0001
1000
0000
0010
0000
,
0200
0301
1000
0100
,
0020
0130
1000
0010
,
0020
0000
0000
0000
,
0000
0000
0030
0000
;

//--------------- dance-single - ----------------
#NOTES:
     dance-single:
     :
     Medium:
     7:
     0,0,0,0,0:
0000
0000
0000
0000
,
0000
0000
0000
0000
,
0000
0000
0000
0000
,
0000
0000
0000
0000
,
0000
0000
0000
0000
,
0010
0100
0010
1000
,
0100
0010
0001
0010
,
0000
0001
1000
0100
0001
1000
0100
0010
,
1001
0110
1001
0100
,
0100
0010
0100
0010
,
0100
0001
1000
0000
0010
0000
0100
0000
,
0001
0100
1000
0000
0010
0001
0100
0000
,
0010
0001
1000
0000
0010
1000
0100
0000
,
0001
0000
0100
0000
0010
1000
0100
0010
,
0001
0000
1000
0000
0010
0001
1000
0010
,
0001
0000
1000
0001
0100
0000
0010
0000
,
0001
1000
0100
0000
0010
0001
0100
0000
,
1001
0100
0010
1000
,
0010
0000
1000
0000
0100
0000
0200
0300
,
0110
0000
0100
0000
0010
0001
0100
0000
,
0001
0000
0100
1000
0001
0000
1000
0000
,
0001
0000
1000
0001
0100
0000
1000
0000
,
0001
1000
0010
0000
0100
0000
1000
0000
,
0001
1000
0010
0000
0100
0001
0010
0000
,
0010
0010
0010
0010
,
0020
0000
0000
0000
,
0000
0000
0000
0030
,
0010
0100
0010
1000
,
0100
0010
0100
0010
,
0001
1000
0010
1000
,
0001
1000
0010
0100
,
0010
0100
0001
0010
,
0100
0010
0100
1000
,
0001
0010
0001
0010
,
0001
0100
0010
0100
,
0010
0000
0100
0000
0001
0000
0010
1000
,
0001
0010
0100
2000
,
3001
0010
0100
0000
0001
0100
1000
0000
,
1001
0110
1001
0110
,
0200
0000
0310
0000
0010
0000
0100
1000
,
0020
0000
1030
0000
0100
0000
1000
0001
,
0020
0000
0130
1000
0001
0000
0010
0100
,
0020
0130
0001
0010
,
0200
0000
1300
0000
0100
0000
0010
1000
,
0020
0000
0130
0000
0010
0000
1000
0001
,
0020
1030
0001
1000
,
0020
0130
0001
0010
,
0100
1000
0110
0000
0100
0000
1000
0100
,
0020
0000
0130
0000
0010
0000
1000
0100
,
0020
0130
0020
0031
,
0020
0000
0000
0000
0031
0000
0000
0000
0100
0000
0000
0001
1000
0000
0010
0000
,
0200
0000
0301
0000
1000
0000
0100
0001
,
0020
0000
0130
0000
1000
0000
0010
1000
,
0020
0000
0000
0000
,
0000
0000
0030
0000
;

//--------------- dance-single - ----------------
#NOTES:
     dance-single:
     :
     Hard:
     11:
     0,0,0,0,0:
0000
0000
0000
0000
,
0000
0000
0000
0000
,
0000
0000
0000
0000
,
0000
0000
0000
0000
,
0000
0000
0000
0000
,
0001
0010
1000
0001
,
0010
0100
1000
0001
,
0010
0100
1000
0001
0010
0100
1000
0000
,
1001
0110
1001
0110
,
1001
0100
0100
1000
0010
0100
0001
0100
,
0001
0100
0010
1000
0100
1000
0010
0100
,
0010
1000
0010
0100
0001
0010
0001
0010
,
0001
0100
0010
0100
0001
0010
0001
0100
,
0001
0100
0010
0100
0010
1000
0010
1000
,
0100
0010
0001
0100
0001
1000
0100
1000
,
0100
0010
0100
0010
0001
0100
0001
0010
,
0100
1000
0001
0010
,
1001
0100
0010
0001
,
1000
0000
0010
0000
0100
0000
0200
0300
,
1001
0010
0100
0001
0100
0001
0100
0010
,
1000
0010
1000
0010
0100
0001
0010
0001
,
1000
0001
1000
0100
1000
0100
0010
0100
,
1000
0001
1000
0010
0100
0001
0010
0100
,
0010
0001
0010
0100
1000
0001
0010
0001
,
1000
0100
1000
0001
,
0020
0000
0000
0000
,
0000
0000
0000
0030
,
0001
0010
1000
0001
,
0010
0000
1000
0000
0001
0000
0010
1000
,
0001
0100
1000
0001
,
0010
0000
0100
0000
0010
0000
1000
0001
,
0010
0100
1000
0001
,
0010
0100
1000
0001
,
0010
0100
1000
0001
,
0010
0000
0100
0000
1000
0001
0100
1000
,
0001
0000
0000
0000
0100
0000
0000
0000
0010
0000
0000
0000
1000
0000
0001
0010
,
0001
0010
1000
0002
,
1003
0100
1000
0001
0100
1000
0001
0100
,
1001
0110
1001
0110
,
1002
0000
0013
1000
0001
0010
0100
0001
,
0020
0000
0130
1000
0100
0010
1000
0100
,
0020
0000
0130
1000
0010
0100
1000
0001
,
0200
0000
1300
0001
0100
1000
0010
1000
,
0200
0000
0301
0010
0100
1000
0001
0100
,
0020
0000
0031
0100
1000
0010
0100
1000
,
0020
0000
0130
1000
0001
0100
0010
0100
,
0200
0000
0301
0100
1000
0001
0100
0000
,
1000
1000
1001
0100
0010
0100
1000
0001
,
0020
0000
0031
0100
1000
0001
0010
0100
,
0020
0000
0130
0001
0020
0000
0130
1000
,
0020
0000
0000
0000
0130
0000
0001
0000
0010
0000
0000
0001
1000
0000
0010
0000
,
0200
0000
0310
0001
0010
0100
1000
0001
,
0020
0000
0130
1000
0001
0010
0100
1000
,
0020
0000
0000
0000
,
0000
0000
0030
0000
;
