#TITLE:エコ爺;
#ARTIST:Y&Co.;
#TITLETRANSLIT:Eco jii;
#GENRE:beatmania IIDX;
#MUSIC:Eco jii.mp3;
#BANNER:Eco jii.png;
#BACKGROUND:Fallback-bg.png;
#CDTITLE:./CDTitles/beatmania IIDX.png;
#SAMPLESTART:50.079;
#SAMPLELENGTH:15.000;
#SELECTABLE:YES;
#OFFSET:-0.179;
#BPMS:0.000=125.000;
#STOPS:;
#BGCHANGES:;
#FGCHANGES:;

//--------------- dance-single - ----------------
#NOTES:
     dance-single:
     :
     Beginner:
     2:
     0,0,0,0,0:
0000
0000
0000
0000
,
0000
0000
0000
0000
,
0000
0000
0000
0000
,
0000
0000
0000
0000
,
0000
0000
0000
0000
,
1000
0000
0000
0000
,
0001
0000
0000
0000
,
0010
0000
0000
0000
,
1000
0000
0000
0000
,
0002
0000
0000
0003
,
0010
0000
0000
0000
,
1000
0000
0000
0000
,
0001
0000
0000
0000
,
0100
0000
0000
0000
,
0010
0000
0000
0000
,
1000
0000
0000
0001
,
0000
0010
0000
1000
,
0000
0001
1000
0001
,
0010
0000
1000
0000
,
0010
0000
0000
0000
0000
1001
0000
0000
,
0000
0010
0000
1000
,
0000
0001
0000
0010
,
0000
1000
0000
0001
,
0000
0010
0000
0100
,
0010
0000
0100
0000
,
0020
0000
0000
0030
,
1001
0000
0010
0000
,
1000
0001
0010
0000
,
1000
0000
0001
0000
,
0100
0000
0000
0000
0000
0002
0000
0003
,
1000
0000
0010
0000
,
1000
0000
0001
0000
,
0010
0000
0100
0000
,
1000
0001
1000
0000
,
1001
0000
0000
0000
,
0010
0000
0000
0000
,
0001
0000
0000
0000
,
1000
0000
0000
0200
,
0310
0001
1000
0000
,
1000
0001
1000
0000
,
1000
0001
1000
0000
,
0001
1000
0001
0000
,
0010
0100
0010
0000
,
1000
0001
1000
0000
,
0010
0100
0010
0000
,
0001
0000
1000
0000
,
1001
0110
1001
0000
,
0010
0000
1000
0000
,
0001
0000
1000
0000
,
0001
0000
0000
0000
0000
0002
0000
0003
,
1000
0000
0010
0000
,
0010
0000
0100
0000
,
1000
0000
0001
0000
,
0010
0100
0010
0000
,
2002
0000
0000
0000
,
0000
0000
0000
0000
,
0000
0000
3003
0000
,
0010
0000
0100
0000
,
1000
0000
0000
0000
,
0001
0000
0000
0000
,
0010
0000
0000
0000
,
0100
0000
0010
0100
,
1001
0000
0000
0000
;

//--------------- dance-single - ----------------
#NOTES:
     dance-single:
     :
     Easy:
     4:
     0,0,0,0,0:
0000
0000
0000
0000
,
0000
0000
0000
0000
,
0000
0000
0000
0000
,
0000
0000
0000
0000
,
0000
0000
0000
0000
,
0010
1000
0001
0000
,
0010
0100
1000
0000
,
0001
1000
0001
0000
,
0010
0100
1000
0000
,
0001
0000
1000
0000
,
1001
0000
0010
0000
,
0100
1000
0001
0000
,
0010
0000
0100
0010
,
1000
0000
0001
0000
,
0001
0100
1000
0000
,
0010
0100
1000
0000
,
0001
0001
0001
0000
,
1000
0001
1000
0000
,
1001
0010
0100
0000
,
1000
0000
0010
0000
0100
2000
0000
0000
,
3010
0000
1000
0000
,
0001
0010
1200
0000
,
1300
0000
0001
0000
,
0010
0100
1000
0000
,
0002
0003
0010
0100
,
0020
0000
0000
0030
,
0110
1001
0110
0000
,
1000
0001
0010
1000
,
0000
0001
0010
1000
,
0001
0000
0010
0000
1000
0002
0000
0003
,
1000
0001
0010
0100
,
1000
0001
0010
0100
,
0000
1000
0001
0010
,
1000
0001
0010
0100
,
1001
0010
0100
0000
,
0001
1000
0001
0000
,
0010
0100
0010
0000
,
0010
0010
0100
0200
,
0301
1000
0001
0001
,
1000
0001
1000
0001
,
0001
0001
1000
0001
,
0010
0100
0100
1000
,
1001
0010
0100
0000
,
0001
1000
0001
0000
,
0001
0010
0100
1000
,
0001
1000
0001
0001
,
0010
0100
1001
0000
,
0010
1000
0001
0000
,
0010
0100
1000
0001
,
1000
0000
0001
0000
0000
2000
0000
3000
,
0010
0100
1001
0000
,
0010
0100
1000
0000
,
0010
0100
1000
0000
,
0001
1000
0001
0010
,
0002
1000
0100
0000
,
1000
0100
1000
0000
,
0010
0100
1003
0000
,
0010
0100
1000
0000
,
0010
0100
0001
0000
,
1000
0001
0010
0000
,
0010
0100
1000
0000
,
0001
0010
0100
0000
,
1001
0000
0000
0000
;

//--------------- dance-single - ----------------
#NOTES:
     dance-single:
     :
     Medium:
     8:
     0,0,0,0,0:
0000
0000
0000
0000
,
0000
0000
0000
0000
,
0000
0000
0000
0000
,
0000
0000
0000
0000
,
0000
0000
0000
0000
,
0001
1000
0010
1000
,
0010
1000
0100
0010
,
0100
0010
0100
1000
,
0001
1000
0010
1000
,
0001
0100
0010
0100
,
0010
0100
0001
1000
,
0001
0100
0001
1000
,
0010
1000
0010
1000
,
0100
0010
0001
0010
,
0001
0010
0100
1000
,
0010
1000
0001
1000
,
0010
0100
0010
0100
,
0010
1000
0001
1000
,
0001
1000
0100
0010
,
0100
0000
0010
0000
0100
0020
0000
1030
,
0001
1000
0100
1000
,
0100
0010
0201
0001
,
0301
1000
0001
1000
,
0010
0100
0010
1000
,
0020
1030
0100
1000
,
2000
0010
0001
0010
,
3001
0100
0010
0100
,
0010
0000
1000
0000
0100
0000
1000
0002
,
0100
0003
1000
0000
0001
0000
0010
0000
,
0100
0000
0010
1000
0100
0002
0010
0003
,
0001
1000
0001
1000
,
0100
0000
1000
0000
0100
0000
0010
2000
,
0001
3000
0010
0000
0001
0000
0010
0000
,
0100
1000
0100
0010
,
2001
0010
0001
0100
,
3001
0100
0010
0100
,
0010
0100
0001
1000
,
0001
1000
0001
0200
,
0310
1000
0100
0010
,
0001
1000
0001
0100
,
0010
1000
0010
1000
,
0010
0100
0001
0100
,
0010
0100
0001
1000
,
0100
0010
0100
0010
,
0001
0010
0001
1000
,
0001
0000
1000
0000
0010
0001
1000
0100
,
0010
0100
0010
0100
,
0001
0100
0001
0010
,
0001
0010
0100
0010
,
0001
0100
0001
0100
,
0010
0100
0010
1000
,
0100
1000
0100
1000
,
0010
0100
0010
1000
,
0001
0000
1000
0000
0100
0000
1000
2000
,
0010
0100
0010
0100
,
0001
0100
0001
0010
,
0001
3001
0010
1000
,
0010
0100
0010
0100
,
0001
0100
0001
0010
,
0001
0010
0100
0010
,
0100
1000
0100
1000
,
0010
1000
0010
0100
,
1001
0000
0000
0000
;

//--------------- dance-single - ----------------
#NOTES:
     dance-single:
     :
     Hard:
     10:
     0,0,0,0,0:
0000
0000
0000
0000
,
0000
0000
0000
0000
,
0000
0000
0000
0000
,
0000
0000
0000
0000
,
0000
0000
0000
0000
,
0001
0000
1000
0001
0100
0000
0000
1000
,
0000
0001
0100
1000
0001
0000
0100
0001
,
0000
0100
1000
0001
1000
0000
0010
1000
,
0000
0001
0010
0100
1000
0010
0001
0100
,
1000
0001
0001
0001
,
1001
0100
1000
0001
,
0010
0100
2000
0001
0100
0000
3001
0000
,
1000
0010
0100
1000
,
0001
0010
0100
0002
0000
0000
1003
0000
,
0100
0000
1000
0001
0100
0000
1000
0000
,
0001
0000
0010
0200
0000
0300
0001
0100
,
1000
0000
0001
0000
0010
0100
1000
0000
,
0001
0000
0010
0100
0001
1000
0001
0100
,
1000
0000
0001
0100
1000
0000
0010
0000
,
0100
1000
0001
0010
0000
2002
0000
3003
,
0000
0001
0000
0100
1000
0000
0001
0000
,
0100
1000
0001
0000
0200
0000
0020
0000
,
0330
0000
1000
0001
0100
0000
0100
1000
,
0001
0010
0100
2000
,
3002
0000
0003
0010
0100
1000
0001
0200
,
0000
0001
0001
0301
,
1001
0000
0100
0010
0100
0000
1000
0000
,
0001
0100
0001
1000
0001
0100
0100
2000
,
0000
3000
0001
0100
1000
0000
0001
0000
,
0100
1000
0001
0010
0000
0020
0000
0030
,
1000
0000
0001
0010
0100
0000
1000
0001
,
0000
0100
1000
0001
0010
0100
1000
0002
,
0000
0003
0010
1000
0001
0000
0100
0000
,
1000
0001
0010
0000
0100
1000
0000
0001
,
0000
1000
0001
0010
,
1000
0001
0010
0100
,
1000
0001
0010
0100
,
1000
0000
0001
0000
0100
1000
0200
0000
,
0320
0032
2003
3200
,
0301
0010
0001
0010
1000
0100
1001
0000
,
0020
0000
0230
0000
1300
0001
0100
0000
,
1000
0001
0100
0000
1000
0000
0001
0100
,
1000
0001
0010
0100
,
1000
0001
0100
0010
0000
0000
1000
0000
,
0011
0010
0100
1000
,
0001
0100
1000
0001
0100
1000
0001
0010
,
0100
0000
1000
0001
0100
0000
1000
0000
,
0001
0000
0100
1000
0001
0010
0100
1000
,
0000
0001
0010
0100
0001
1000
0001
0000
,
0100
1000
0001
0100
0000
0200
0000
0300
,
0001
0000
0010
0100
1000
0000
0001
0010
,
0000
0100
1000
0001
0010
0100
0010
0100
,
0000
1000
0001
0100
,
1000
0001
0010
0000
0100
1000
0000
0001
,
0100
1000
0001
0100
1000
0000
0010
1000
,
0000
0001
0010
0100
1000
0000
0001
0010
,
0000
0100
1000
0001
0100
0000
0000
0010
,
0000
0100
1000
0001
0010
0000
0100
1000
,
0001
0000
0001
0010
0100
0000
0000
1000
,
0000
0001
0100
1000
0001
0000
0010
0100
,
1000
0000
0001
0100
0010
0000
0000
1000
,
0000
0001
0010
0100
1000
0001
0100
1000
;
