#TITLE:Don't Speak;
#ARTIST:PRIDASK;
#GENRE:DIVING GHOST;
#MUSIC:Don't Speak.mp3;
#BANNER:Don't Speak.png;
#BACKGROUND:Fallback-bg.png;
#CDTITLE:./CDTitles/NAMCO MUSEUM ARCADE PAC.png;
#SAMPLESTART:44.269;
#SAMPLELENGTH:15.000;
#SELECTABLE:YES;
#OFFSET:-1.154;
#BPMS:0.000=128.000;
#STOPS:;
#BGCHANGES:;
#FGCHANGES:;

//--------------- dance-single - ----------------
#NOTES:
     dance-single:
     :
     Beginner:
     2:
     0,0,0,0,0:
0000
0000
0000
0000
,
0000
0000
0000
0000
,
0000
0000
0000
0000
,
0010
0000
0000
0000
,
1000
0000
0000
0000
,
0001
0000
0000
0000
,
0100
0000
0000
0000
,
1000
0000
0000
0000
,
0010
0000
0000
0000
,
1000
0000
0001
0000
,
0110
0000
0000
0000
,
1001
0000
0001
0000
,
0010
0000
0110
1001
,
0010
0000
1000
0000
,
0001
0000
0010
1001
,
0010
0000
1000
0000
,
0001
0000
0010
0110
,
1000
0000
0010
0000
,
1000
0000
0110
1001
,
0010
0000
0100
0000
,
0010
0000
0100
0000
,
0010
0100
0010
0100
,
0010
0000
0110
1001
,
1001
0010
0100
0000
,
1000
0000
0001
0000
,
0010
0000
0100
0000
,
1000
0000
0001
0000
,
0010
0000
1000
0000
,
0010
0000
0100
0000
,
1000
0000
0001
0000
,
1000
0000
0110
1001
,
0010
0000
1000
0000
,
0010
0000
0100
1000
,
0100
0000
1000
0000
,
0001
0000
0010
0110
,
0001
0000
1000
0000
,
1000
0000
0001
0110
,
0100
0000
1000
0000
,
0001
0000
0010
0000
,
1001
0000
0010
0000
,
1000
0000
0001
1000
,
0001
0000
0100
0000
,
1000
0000
0010
0110
,
1000
0000
0001
0000
,
1000
0000
0001
1000
,
0001
0000
0100
0000
,
0001
0000
0100
1001
,
0010
0000
0010
0000
,
0100
0000
0010
0000
,
0010
0100
0010
0100
,
0001
0000
1001
0110
,
1001
0010
1000
0000
,
0001
0000
0010
0000
,
1000
0000
1000
0000
,
0001
0000
0010
0000
,
1001
0010
1000
0000
,
0010
1000
0001
0000
,
0010
0100
1000
0000
,
0001
1000
0000
1001
,
0110
0000
0000
0000
;

//--------------- dance-single - ----------------
#NOTES:
     dance-single:
     :
     Easy:
     4:
     0,0,0,0,0:
0000
0000
0000
0000
,
0000
0000
0000
0000
,
0000
0000
0000
0000
,
0100
1000
0001
0010
,
0100
1000
0010
0100
,
0010
1000
0001
0100
,
0010
0100
0010
1000
,
0001
1000
0010
1000
,
0010
0100
0001
0010
,
0100
0010
0001
0010
,
0200
0000
0000
0000
,
0301
0010
0001
1000
,
0100
0010
1001
0110
,
0001
0010
0100
1000
,
0001
0010
0110
1001
,
0010
1000
0010
0100
,
0001
0010
0110
1001
,
0001
1000
0100
1000
,
0100
0010
0110
1001
,
0001
1000
0001
0100
,
0001
0100
0010
0100
,
0001
0010
1000
0000
0010
0001
0100
0000
,
0001
1000
0110
0110
,
1001
0010
0100
0010
,
0001
1000
0010
0200
,
0301
0100
0010
1000
,
0100
1000
0010
2000
,
3010
0100
0010
0100
,
0001
1000
0010
1000
,
0001
1000
0010
0100
,
0001
1000
1001
0110
,
1001
1000
0001
1000
,
0001
0010
0100
0020
,
0130
0010
0001
0100
,
0001
0010
0100
2000
,
3010
0100
0001
0100
,
0001
0100
0010
2000
,
3001
0100
0001
0010
,
0100
1000
0002
0000
,
0103
0010
0100
0010
,
0001
0100
0110
1001
,
0100
0010
0100
0010
,
0001
0100
0110
1001
,
0200
0310
0001
1000
,
0010
0100
0001
1000
,
0001
0010
0001
0100
,
0010
0100
0101
1100
,
0000
1000
0010
1000
,
0100
0010
0100
0010
,
0001
1000
0010
0000
0001
1000
0100
0000
,
0010
0100
0001
1001
,
0100
0010
0100
1000
,
0010
0100
0001
1000
,
0010
0100
0010
1000
,
0010
1000
0200
0310
,
0100
0010
0001
0100
,
0001
0010
0001
0100
,
0010
0100
0001
0010
,
0001
0100
0001
0010
,
1001
0000
0000
0000
;

//--------------- dance-single - ----------------
#NOTES:
     dance-single:
     :
     Medium:
     7:
     0,0,0,0,0:
0000
0000
0000
0000
,
0000
0000
0000
0000
,
0000
0000
0000
0000
,
0010
0100
0010
0001
,
1000
0001
0100
1000
,
0010
0010
0010
0010
,
0100
0100
0100
0100
,
0020
0001
0100
0100
,
0230
1000
0010
0010
,
0320
0031
0200
1300
,
1001
0000
0000
0000
,
1000
0001
1001
1001
,
0010
0100
1001
1001
,
0020
0230
0320
0130
,
0200
0310
0200
0310
,
0200
1300
0020
0031
,
0100
0010
1001
1001
,
0200
1300
0020
0031
,
0100
0000
0010
0000
2002
3003
1001
0000
,
0002
0010
0023
0100
,
2030
0100
3200
0010
,
0302
0013
0200
0310
,
2002
3003
0202
0303
0110
0000
1001
0000
,
1000
0100
1000
0000
0100
1000
0100
0000
,
1000
0100
1000
0100
2000
0000
3100
0000
,
0001
0010
0001
0000
0001
0010
0001
0000
,
0001
0010
0001
0010
0002
0000
0013
0000
,
0010
0100
0001
0000
0001
0010
1000
0000
,
0002
0013
2000
3100
0200
0000
0320
0000
,
0230
1300
0020
0031
,
1001
0000
0110
0000
0220
0330
0110
0000
,
0010
0001
0010
0001
0010
0001
0010
0001
,
0002
0010
0010
0010
,
1003
0100
1000
0100
1000
0100
1000
0100
,
2000
0100
0100
0100
,
3200
0301
0020
0130
,
0200
0000
0320
0000
0230
0000
0320
0030
,
0001
0010
1000
0100
,
0002
0013
2000
3100
2002
3003
0000
0000
,
0001
0010
0001
0010
0001
0010
1000
0100
,
0001
0010
0001
0010
0001
0000
0010
0000
,
1000
0100
1000
0100
1000
0100
0001
0010
,
1000
0100
1000
0100
1000
0000
0100
0000
,
0021
0031
0200
0301
,
0100
0000
0010
0000
2002
3003
1001
0000
,
0010
0010
1000
0100
,
2002
3003
0000
0000
0220
0330
1001
0000
,
0002
0010
0023
0100
,
2030
0100
3200
0010
,
0302
0013
0200
0310
,
2002
3003
0202
0303
0110
0000
1001
0000
,
1000
0100
1000
0000
0100
1000
0100
0000
,
1000
0100
1000
0100
2000
0000
3100
0000
,
0001
0010
0001
0000
0001
0010
0001
0000
,
0001
0010
0001
0010
0002
0000
0013
0000
,
0010
0100
0001
0000
0001
0010
1000
0000
,
0002
0013
2000
3100
0200
0000
0320
0000
,
0230
1300
0020
0031
,
2002
3003
0000
0000
0110
0000
0220
0000
,
0330
0000
0000
0000
;

//--------------- dance-single - ----------------
#NOTES:
     dance-single:
     :
     Hard:
     12:
     0,0,0,0,0:
0000
0000
0000
0000
,
0000
0000
0000
0000
,
0000
0000
0000
0000
,
1001
0000
0020
0030
2000
3000
0002
0003
,
0020
0030
2000
3000
0002
0003
0020
0030
,
2000
3000
0002
0003
0020
0030
2000
3000
,
0001
0010
0100
1000
0001
1000
0010
0001
,
2000
3000
0002
0003
0020
0030
0200
0300
,
2000
3000
0002
0003
0020
0030
2000
3000
,
0002
0003
0020
0030
2000
3000
0002
0003
,
0020
0000
0000
0030
,
1001
0000
0000
0001
0000
0000
1000
0000
0000
0001
0000
0000
0010
0000
1000
0000
,
0001
0000
0000
1000
0000
0000
0001
0000
0200
0000
0000
0000
0302
0000
0000
0000
,
0103
0000
0000
0001
0000
0000
1000
0000
0001
0000
0000
0100
0000
0000
1000
0000
,
0001
0000
0000
0100
0000
0000
1000
0000
0002
0000
0000
0000
0203
0000
0000
0000
,
1300
0000
0000
0001
0000
0000
0010
0000
0000
0100
0000
0000
1000
0000
0001
0000
,
0100
0000
0000
1000
0000
0000
0001
0000
0200
0000
0000
0000
2300
0000
0000
0000
,
3010
0000
0000
0010
0000
0000
1000
0000
0000
0001
0000
0000
0100
0000
1000
0000
,
0001
0000
0000
0100
0000
0000
1000
0000
0002
0000
0000
0000
0203
0000
0000
0000
,
2300
3000
0002
0003
0200
0300
2000
3000
,
0002
0003
0020
0030
2000
3000
0002
0003
,
0010
0100
0001
1000
0001
1000
0001
0100
,
1000
0100
0001
0100
2000
0000
3001
0000
,
1001
0000
0000
0010
0000
0000
1000
0000
0001
0000
0000
0010
0000
0000
1000
0000
,
0001
0000
0000
0100
0000
0000
1000
0000
0002
0000
0000
0000
1003
0000
0000
0000
,
0001
0000
0000
0010
0000
0000
0100
0000
1000
0000
0000
0001
0000
0000
0100
0000
,
1000
0000
0000
0001
0000
0000
0010
0000
0200
0000
0000
0000
1300
0000
0000
0000
,
0001
0000
0000
0010
0000
0000
0100
0000
1000
0000
0000
0001
0000
0000
0010
0000
,
0100
0000
0000
1000
0000
0000
0001
0000
0200
0000
0000
0000
0310
0000
0000
0000
,
0100
0000
0000
1000
0000
0000
0001
0000
0100
0000
0000
1000
0000
0000
0001
0000
,
0010
0000
0000
0100
0000
0000
1000
0000
2002
0000
3003
0000
0220
0000
0330
0000
,
1001
0000
0000
0010
0000
0000
1000
0000
0001
0000
0000
0010
0000
0000
1000
0000
,
0001
0000
0000
0100
0000
0000
1000
0000
0002
0000
0000
0000
1003
0000
0000
0000
,
0001
0000
0000
0010
0000
0000
0100
0000
1000
0000
0000
0001
0000
0000
0100
0000
,
1000
0000
0000
0001
0000
0000
0010
0000
0200
0000
0000
0000
1300
0000
0000
0000
,
0001
0000
0000
0010
0000
0000
0100
0000
1000
0000
0000
0001
0000
0000
0010
0000
,
0100
0000
0000
1000
0000
0000
0001
0000
0200
0000
0000
0000
0320
0000
0000
0000
,
0130
0000
0000
1000
0000
0000
0001
0000
0100
0000
0000
1000
0000
0000
0001
0000
,
0010
0000
0000
0100
0000
0000
1000
0000
2002
0000
3003
0000
0220
0000
0330
0000
,
1001
0000
0000
0010
0000
0000
1000
0000
0001
0000
0000
0010
0000
0000
1000
0000
,
0001
0000
0000
0100
0000
0000
1000
0000
0002
0000
0000
0000
2003
0000
0000
0000
,
3001
0000
0000
0010
0000
0000
0100
0000
1000
0000
0000
0001
0000
0000
0100
0000
,
1000
0000
0000
0001
0000
0000
0010
0000
0200
0000
0000
0000
1300
0000
0000
0000
,
0002
0000
0000
0000
0013
0000
0100
0000
1000
0000
0000
0001
0000
0000
0010
0000
,
0100
0000
0000
1000
0000
0000
0001
0000
0200
0000
0000
0000
0320
0000
0000
0000
,
0130
0000
0000
1000
0000
0000
0001
0000
0100
0000
0000
1000
0000
0000
0001
0000
,
0010
0000
0000
0100
0000
0000
1000
0000
2002
0000
3003
0000
0220
0000
0330
0000
,
2001
3000
0002
0003
0020
0030
2000
3000
,
0002
0003
0020
0030
0200
0300
2000
3000
,
0001
0010
1000
0001
0100
0010
0100
1000
,
0001
0010
0100
1000
0002
0000
2003
3000
,
1001
0000
0000
0010
0000
0000
1000
0000
0001
0000
0000
0010
0000
0000
1000
0000
,
0001
0000
0000
0100
0000
0000
1000
0000
0002
0000
0000
0000
1003
0000
0000
0000
,
0001
0000
0000
0010
0000
0000
0100
0000
1000
0000
0000
0001
0000
0000
0100
0000
,
1000
0000
0000
0001
0000
0000
0010
0000
0200
0000
0000
0000
1300
0000
0000
0000
,
0001
0000
0000
0010
0000
0000
0100
0000
1000
0000
0000
0001
0000
0000
0010
0000
,
0100
0000
0000
1000
0000
0000
0001
0000
0200
0000
0000
0000
0310
0000
0000
0000
,
0100
0000
0000
1000
0000
0000
0001
0000
0100
0000
0000
1000
0000
0000
0001
0000
,
0010
0000
0000
0100
0000
0000
1000
0000
1001
0000
0000
0000
0110
0000
0000
0000
,
2002
0000
0000
0000
,
3003
0000
0000
0000
;
