#TITLE:DO YOU WANNA PARTY!!(DJ KEN-BOW MIX);
#ARTIST:HiBiKi;
#GENRE:TROP;
#MUSIC:DO YOU WANNA PARTY!!(DJ KEN-BOW MIX).mp3;
#BANNER:DO YOU WANNA PARTY!!(DJ KEN-BOW MIX).png;
#BACKGROUND:Fallback-bg.png;
#CDTITLE:./CDTitles/NAMCO MUSEUM ARCADE PAC.png;
#SAMPLESTART:16.775;
#SAMPLELENGTH:15.000;
#SELECTABLE:YES;
#OFFSET:-0.179;
#BPMS:0.000=130.000;
#STOPS:;
#BGCHANGES:;
#FGCHANGES:;

//--------------- dance-single - ----------------
#NOTES:
     dance-single:
     :
     Beginner:
     3:
     0,0,0,0,0:
0000
0000
0000
0000
,
0000
0000
0000
0000
,
0001
0000
0010
0000
,
0100
0000
0100
0000
,
1000
0000
0010
0000
,
0100
0000
0100
0000
,
0001
0001
0001
0000
,
0010
0000
0100
0000
,
1000
1000
1000
0000
,
1001
0000
0000
0000
,
1000
0000
0100
0000
,
0010
0000
0010
0000
,
0001
0000
0100
0000
,
0010
0000
0010
0000
,
1000
0000
0100
0000
,
0001
0000
0100
0000
,
1000
0000
0001
0000
,
1000
0000
0000
0000
,
0001
0000
0100
0000
,
0010
0010
0010
0000
,
1000
0000
0100
0000
,
0010
0010
0010
0000
,
0001
0000
0100
0000
,
1000
0000
0100
0000
,
0001
0000
1000
0000
,
1001
0000
0000
0000
,
0010
0010
0010
0000
,
1000
0000
0001
0000
,
0100
0100
0100
0000
,
0001
0000
1000
0000
,
2000
0000
3000
0000
,
0200
0000
0300
0000
,
0020
0000
0030
0000
,
0001
0010
0001
0000
,
0002
0000
0003
0000
,
0200
0000
0300
0000
,
0020
0000
0030
0000
,
1001
0000
0000
0000
,
1000
0001
1000
0000
,
0010
0000
0100
0000
,
0010
0000
1000
0000
,
0001
0000
0000
0000
,
0001
1000
0001
0000
,
0010
0000
0100
0000
,
0010
0000
0001
0000
,
1000
0000
0000
0000
,
0001
0100
0001
0000
,
0010
0000
0100
0000
,
1000
0000
0010
0000
,
1000
0000
0000
0000
,
1001
0000
0000
0000
;

//--------------- dance-single - ----------------
#NOTES:
     dance-single:
     :
     Easy:
     6:
     0,0,0,0,0:
0000
0000
0000
0000
,
0000
0000
0000
0000
,
0001
0010
0100
0100
,
1000
0010
0100
0100
,
0001
0010
0100
0100
,
1000
0001
1000
0000
,
1000
0100
1000
0000
0100
0000
0010
0000
,
0001
1000
0001
0000
0100
0000
0010
0000
,
1000
0100
1000
0000
0001
0000
1000
0000
,
2002
0000
0000
3003
,
0010
0010
1000
1000
,
0100
0001
0100
0000
,
0010
0010
0001
0001
,
0100
1000
0100
0000
,
0010
1000
0010
1000
,
0001
0100
0001
0000
,
0010
0001
0010
0001
,
1000
0100
1000
0000
,
0010
1000
0010
0100
,
0010
0000
1000
0000
0010
0100
0010
0000
,
0100
0001
0100
0010
,
0100
0000
0001
0000
1000
0001
1000
0000
,
0001
0010
0100
1000
,
0100
0000
0010
0000
0001
1000
0001
0000
,
1000
0100
0010
0001
,
2002
0000
0000
3003
,
0001
1000
0010
0100
,
0001
1000
0100
0010
,
0001
1000
0010
0100
,
0001
1000
0100
0100
,
0002
0000
1003
0000
,
2000
0000
3001
0000
,
0020
0000
0130
0000
,
0200
0000
0310
0000
,
0010
1000
0100
0000
,
0010
0001
0100
0000
,
0100
0001
0010
0000
,
2002
0000
0000
3003
,
0100
0010
0100
0000
0001
0000
1000
0000
,
0100
0010
0001
0000
,
1000
0001
1000
0000
0010
0000
0100
0000
,
0010
1000
0001
0000
,
0010
0010
0100
0100
,
1000
0001
1000
0000
,
0010
1000
0010
0000
1000
0000
0001
0000
,
0100
0010
0100
0000
,
1000
0100
0010
0010
,
0001
1000
0001
0000
1000
0000
0000
0000
,
0001
0100
0010
0010
,
2000
0000
0000
3000
,
1001
0000
0000
0000
;

//--------------- dance-single - ----------------
#NOTES:
     dance-single:
     :
     Medium:
     9:
     0,0,0,0,0:
0000
0000
0000
0000
,
0000
0000
0000
0000
,
0001
1000
0001
0000
0010
0100
0010
0000
,
0001
1000
0001
0000
0100
0010
0100
0000
,
0001
1000
0001
0000
0010
0100
0010
0000
,
0001
1000
0001
1001
,
0010
0001
0010
0000
0100
1000
0100
0000
,
1000
0010
1000
0000
0001
0100
0001
0000
,
1000
0001
1000
0001
0100
0010
0100
0000
,
0220
0000
0000
0330
,
0000
0001
0010
0000
0001
0000
1001
0000
,
0100
0010
0100
2000
0000
0000
3001
0000
,
0000
1000
0010
0000
1000
0000
1001
0000
,
0100
0010
0100
0002
0100
0000
1003
0000
,
2000
0000
3020
0000
0130
0001
1000
0000
,
0100
0010
0100
0020
0000
0000
0030
0000
,
0001
1000
0001
0000
2000
0000
3020
0000
,
0130
0001
0010
0002
0000
0000
1003
0000
,
0001
0000
0100
0000
1000
0100
0001
0000
,
1000
0000
0100
0000
0001
0100
1000
0000
,
0001
0000
0010
0000
1000
0010
0001
0000
,
1000
0000
0010
0000
0001
0010
1000
0000
,
0001
0001
0011
0011
,
1000
1000
1010
1010
,
0001
0100
0001
0000
1000
0100
1000
0000
,
2002
0000
0000
3003
,
1000
0100
0010
0000
0001
0000
1000
0000
,
0001
0100
0010
0000
1000
0000
0001
0000
,
1000
0010
0100
0000
0001
0000
1000
0000
,
0001
0010
0100
0000
1000
0000
0001
0000
,
0100
0001
1000
0001
0100
0000
0100
0000
,
0010
1000
0001
1000
0010
0000
0010
0000
,
1000
0100
0010
0001
0010
0000
0010
0000
,
0001
0100
0010
1000
0010
0000
1001
0000
,
0010
1000
0001
1000
0010
0000
0010
0000
,
0100
0001
1000
0001
0100
0000
0100
0000
,
0001
0010
0100
1000
0100
0010
0100
0000
,
2002
0000
0000
3003
,
0000
1000
0100
1000
0100
0000
1001
0000
,
0010
0100
0010
0002
0000
0000
1003
0000
,
0000
0001
0100
0001
0100
0000
1001
0000
,
0010
0100
0010
2000
0010
0000
3001
0000
,
0002
0000
0203
0000
0310
1000
0001
0000
,
0010
0100
0010
0200
0000
0000
0300
0000
,
1000
0001
1000
0000
0002
0000
0203
0000
,
0310
1000
0100
2000
0000
0000
3001
0000
,
1000
1000
1100
1100
,
0001
0001
0101
0101
,
1000
0010
1000
0010
0100
0001
0100
0000
,
2002
0000
0000
3003
,
0110
0000
0000
0000
;

//--------------- dance-single - ----------------
#NOTES:
     dance-single:
     :
     Hard:
     13:
     0,0,0,0,0:
0000
0000
0000
0000
,
0000
0000
0000
0000
,
0001
0000
1000
0000
0001
0000
0100
0010
0000
0010
0100
0000
0010
0000
0100
0000
,
0001
0000
1000
0000
0100
0010
0000
0010
0000
0010
0100
0000
0010
0100
0010
0000
,
0001
0000
1000
0000
0010
0000
0100
0010
0000
0010
0100
0000
0001
0000
1000
0000
,
0100
0100
0100
0001
,
0001
0010
0100
0000
0001
0000
0100
1000
,
0001
0010
1000
0000
0100
0001
0010
1000
,
0010
0100
0001
1000
0001
1000
0100
1000
,
2002
0000
0000
3003
,
1000
0010
0010
0001
1000
0010
0100
0010
,
0100
0100
0001
0200
1000
0000
0301
0000
,
0010
1000
0001
0100
1000
0001
0100
0001
,
0100
1000
0001
0200
1000
0000
0301
0000
,
0011
0000
0101
0000
0010
1000
0100
0010
,
0001
0001
0100
2000
0010
0000
3100
0000
,
0010
0100
0100
0000
1100
0000
1010
0010
,
0001
0010
2000
0002
0000
0000
3003
0000
,
0020
0000
1030
0100
0001
0100
1000
0100
,
1010
0001
0100
0001
1000
0001
1001
0000
,
1100
0010
0001
0010
1100
0010
0001
0010
,
0101
0010
1000
0020
0001
0000
1030
0000
,
1010
0000
0101
0000
0010
0001
0101
0000
,
0011
0010
1100
0100
1000
0010
0100
0000
,
0001
0100
0001
0000
1000
0100
1000
0000
0001
0010
0001
0000
1000
0010
1000
0000
,
2002
0000
0000
3003
,
0001
0000
1000
0000
0001
0000
0100
0010
0000
0010
0100
0000
0010
0000
0100
0000
,
0001
0000
1000
0000
0100
0010
0000
0010
0000
0010
0100
0000
0010
0100
0010
0000
,
0001
0000
1000
0000
0010
0000
0100
0010
0000
0010
0100
0000
0001
0000
1000
0000
,
0100
0100
0100
0001
,
0010
1000
0100
1000
,
0001
0010
0001
1000
,
0100
1000
0010
1000
,
0100
0010
0001
0010
,
1010
0000
0101
0000
0010
0001
0101
0000
,
0011
0010
1100
0100
1000
0010
0100
0000
,
0001
0100
0001
0000
1000
0100
1000
0000
0001
0010
0001
0000
1000
0010
1000
0000
,
2002
0000
0000
3003
,
0011
0000
0101
0000
0010
1000
0100
0010
,
0001
0001
0100
2000
0010
0000
3100
0000
,
0010
0100
0100
0000
1100
0000
1010
0010
,
0001
0010
2000
0002
0000
0000
3003
0000
,
0020
0000
1030
0100
0001
0100
1000
0100
,
1010
0001
0100
0001
1000
0001
1001
0000
,
1100
0010
0001
0010
1100
0010
0001
0010
,
0101
0010
1000
0020
0001
0000
1030
0000
,
1010
0000
0101
0000
0010
0001
0101
0000
,
0011
0010
1100
0100
1000
0010
0100
0000
,
0001
0100
0001
0000
1000
0100
1000
0000
0001
0010
0001
0000
1000
0010
1000
0000
,
2002
0000
0000
3003
,
1001
0000
0000
0000
;
