#TITLE:Bounce To This;
#ARTIST:android52;
#GENRE:CLASS;
#MUSIC:Bounce To This.mp3;
#BANNER:Bounce To This.png;
#BACKGROUND:Fallback-bg.png;
#CDTITLE:./CDTitles/NAMCO MUSEUM ARCADE PAC.png;
#SAMPLESTART:26.404;
#SAMPLELENGTH:15.000;
#SELECTABLE:YES;
#OFFSET:-0.174;
#BPMS:0.000=128.000;
#STOPS:;
#BGCHANGES:;
#FGCHANGES:;

//--------------- dance-single - ----------------
#NOTES:
     dance-single:
     :
     Beginner:
     3:
     0,0,0,0,0:
0000
0000
0000
0000
,
0000
0000
0000
0000
,
0000
0000
0000
0000
,
0000
0000
0000
0000
,
0000
0000
0000
0000
,
1000
0000
0000
0000
,
0010
0000
0000
0000
,
0001
0000
1000
0000
,
0001
0000
0100
0000
,
0001
0000
0010
0000
,
1000
0000
0010
0000
,
0001
0100
1000
0010
,
0001
0001
0001
0000
,
1001
0000
0010
0000
,
1000
0000
0001
0000
,
0010
0000
1000
0000
,
0001
0000
1000
0000
,
0100
0000
0010
0000
,
1000
0000
0001
0000
,
0010
0000
0100
0000
,
1000
0000
0001
0000
,
0010
0100
1000
0000
,
0010
0000
0100
0000
,
0001
0000
1000
0000
,
0010
0000
0100
0000
,
0001
0001
0001
0000
,
1001
0000
0010
0000
,
0100
0000
1000
0000
,
0001
0000
0010
0000
,
1000
0000
0000
0000
,
0001
0000
0000
0000
,
0010
0000
0000
0000
,
1000
0000
0000
0000
,
0001
0000
0000
0000
,
0010
0000
0000
0000
,
1000
0000
0000
0000
,
0001
0000
0010
0000
,
1000
0000
0000
0000
,
0010
0000
0000
0000
,
1000
0000
0001
0000
,
0010
0010
0010
0000
,
1001
0000
0010
0000
,
1001
0000
0100
0000
,
1000
0000
0001
0000
,
0010
0000
1000
0000
,
0001
0000
0010
0000
,
1000
0000
1000
0000
,
0001
0000
0001
0000
,
0010
0000
0100
0000
,
1000
0000
0001
0000
,
0010
0000
0100
0000
,
1000
0000
0001
0000
,
0010
0000
0100
0000
,
1000
0000
0000
0000
;

//--------------- dance-single - ----------------
#NOTES:
     dance-single:
     :
     Easy:
     5:
     0,0,0,0,0:
0000
0000
0000
0000
,
0000
0000
0000
0000
,
0000
0000
0000
0000
,
0000
0000
0000
0000
,
0000
0000
0000
0000
,
0100
1000
0010
2000
,
3100
0010
0100
0002
,
0103
1000
0001
2000
,
3001
0010
0001
0020
,
0130
0000
1000
0000
0100
0000
1000
0001
,
0100
0010
0001
0100
,
0001
0100
0001
0010
,
0100
0001
0010
1000
0001
0000
0010
0000
,
0100
0100
0100
0100
,
1001
0100
0001
0010
,
0100
1000
0010
1000
,
0100
0010
0001
0100
,
0010
1000
0010
0100
,
0010
0100
0001
0100
,
0001
1000
0001
0100
,
0010
0100
0001
1000
,
0010
0100
0002
0000
,
0013
1000
0010
0100
,
0001
1000
0001
0100
,
0001
0100
0010
1000
,
0010
1000
0010
0100
,
0001
1000
0100
0010
,
0001
0010
0100
0010
,
0100
1000
0100
1000
,
0010
1000
0100
0010
,
0001
0010
0100
0010
,
0001
0100
0010
0100
,
0001
1000
0010
0100
,
0001
1000
0010
0100
,
0010
0100
0010
1000
,
0100
1000
0100
1000
,
0010
0100
0001
0010
,
0100
0000
1000
0000
0001
0000
0100
1000
,
0001
1000
0001
0020
,
0100
0030
0000
0000
0000
0000
0000
0000
0000
0000
0000
0000
0000
0000
0000
0000
0000
0000
0000
0000
0000
0000
0000
0000
0000
0000
0000
0000
0000
0000
0000
0000
0000
0000
0000
0000
0000
0000
0000
0000
0000
0000
0000
0000
0000
0000
0000
0000
1000
0000
0000
0000
0000
0000
0000
0000
0000
0000
0000
0000
0000
0000
0000
0000
0000
0000
0000
0000
0000
0000
0000
0000
0000
0000
0000
0000
0000
0000
0000
0000
0000
0000
0000
0000
0000
0000
0000
0000
0000
0000
0000
0000
0000
0000
0000
0000
0100
0000
0000
0000
0000
0000
0000
0000
0000
0000
0000
0000
0000
0000
0000
0000
0000
0000
0000
0000
0000
0000
0000
0000
0000
0000
0000
0000
0000
0000
0000
0000
0000
0000
0000
0000
0000
0000
0000
0000
0000
0000
0000
0000
0000
0000
0000
0000
0010
0000
0000
0000
0000
0000
0000
0000
0000
0000
0000
0000
0000
0000
0000
0000
0000
0000
0000
0000
0000
0000
0000
0000
0000
0000
0000
0000
0000
0000
0000
0000
0000
0000
0000
0000
0000
0000
0000
0000
0000
0000
0000
0000
0000
0000
0000
0000
,
0100
0001
0010
1000
0001
0000
1000
0000
,
0010
1000
0100
0010
,
0110
1000
0010
1000
,
0001
0100
0010
1000
,
0010
1000
0001
0010
,
0001
1000
0001
0010
,
0100
1000
0010
1000
,
0010
0100
0010
1000
,
0100
0010
0100
1000
,
0100
0100
0100
0100
,
0100
0010
0100
0010
,
0001
1000
0100
1000
,
0100
1000
0001
0020
,
0000
0000
0000
0000
,
0030
0000
0000
0000
;

//--------------- dance-single - ----------------
#NOTES:
     dance-single:
     :
     Medium:
     8:
     0,0,0,0,0:
0000
0000
0000
0000
,
0000
0000
0000
0000
,
0000
0000
0000
0000
,
0000
0000
0000
0000
,
0000
0000
0000
0000
,
0010
0100
0001
0200
,
0301
0100
0010
2000
,
3001
0010
0001
0200
,
0310
1000
0001
0020
,
0031
0000
0010
0000
0001
0000
0100
1000
,
0010
0000
0100
0000
0010
0000
1000
0100
,
0001
1000
0010
0100
,
0010
0001
0100
0010
0001
1000
0100
0001
,
0020
2030
3020
2030
,
3001
0000
0100
0001
0010
0000
1000
0000
,
0001
1000
0010
0000
0100
0000
0010
0000
,
0001
0100
1000
0000
0100
0001
0010
0000
,
0002
0103
0020
0130
,
0010
0000
1000
0000
0001
0000
0100
1000
,
0010
0000
0100
0000
0001
1000
0010
0000
,
0001
0000
0010
0000
0001
1000
0100
0000
,
0020
0000
2030
0000
3100
0001
2000
0000
,
3100
0000
0010
0000
0001
0000
0100
1000
,
0010
0000
1000
0000
0010
0000
0100
0001
,
0010
0000
1000
0000
0001
0100
1000
0001
,
0200
1300
0200
0310
,
0100
0000
1001
0000
0010
0000
1000
0001
,
0010
0000
0100
0000
0001
1000
0010
0000
,
0100
0000
0010
1000
0001
0100
1000
0000
,
0010
0000
1000
0000
0100
0000
0010
1000
,
0001
0010
0001
0010
,
0100
1000
0100
0010
,
0100
0010
0001
0010
,
0100
1000
0001
0010
,
0001
1000
0001
0010
,
0100
1000
0001
0100
,
0010
1000
0100
0010
,
1001
0000
1000
0000
0010
0000
1000
0100
,
0001
1000
0100
0020
,
0130
0010
0001
1000
,
0010
0001
1000
0100
0010
0001
1000
0000
,
0200
0320
0032
0013
,
1001
0000
0010
0000
0100
0001
1000
0001
,
0100
0000
0010
0000
0001
0100
1000
0010
,
0010
0000
0100
0000
0001
0100
1000
0010
,
0001
0010
0001
1000
,
0010
0001
1000
0000
0001
0000
1000
0000
,
0100
0001
0010
0000
0100
0000
0010
0000
,
0001
1000
0010
0000
0100
0001
1000
0000
,
0020
0130
0002
0013
,
1001
1000
0100
0010
,
0001
1000
0100
1000
,
0100
0010
0100
2000
,
0000
0000
0000
0000
,
3000
0000
0000
0000
;

//--------------- dance-single - ----------------
#NOTES:
     dance-single:
     :
     Hard:
     14:
     0,0,0,0,0:
0000
0000
0000
0000
,
0000
0000
0000
0000
,
0000
0000
0000
0000
,
0000
0000
0000
0000
,
0000
0000
0000
0000
,
0001
0010
1000
0002
,
0013
0100
1000
0002
,
0013
1000
0001
0020
,
0130
1000
0001
0020
,
1030
0000
0000
0000
0001
0000
0000
0000
1000
0000
0000
0000
0001
0010
0001
0010
,
0001
0000
0010
0000
1000
0000
0001
0001
,
0001
0010
1000
0001
,
0010
0100
1000
0001
0100
0000
0010
0000
,
2002
3003
0220
0330
2002
3003
0220
0330
,
0010
0100
0001
0100
0001
0100
0010
1000
,
0100
0010
0100
1000
0010
1000
0100
0010
,
0100
1000
0001
0010
0100
1000
0100
0010
,
0220
0330
2002
3003
0220
0330
2002
3003
,
0001
0010
0001
0100
0001
0100
0010
0100
,
0010
1000
0001
0100
0001
0100
0001
0010
,
0100
1000
0100
1000
0001
1000
0100
0010
,
0022
0033
0220
0330
2200
3300
0220
0330
,
2002
3003
0010
0100
1000
0001
0100
1000
,
0001
0010
0100
1000
0001
0010
0100
0001
,
1000
0001
0100
1000
0010
0100
1000
0010
,
0220
0330
2002
3003
0220
0330
2002
3003
,
0100
1000
0100
1000
0010
1000
0001
0100
,
0001
1000
0100
1000
0100
0010
0100
0010
,
0001
1000
0010
1000
0001
1000
0010
0100
,
1000
0000
0000
0001
0000
0000
0010
0000
0000
0100
0000
0000
1000
0001
2000
0000
,
3001
0010
0100
0010
0100
1000
0001
0010
,
0001
0100
0010
1000
0010
1000
0100
0010
,
0100
0010
0100
1000
0001
0100
0010
1000
,
0010
0100
0001
1000
0010
1000
0100
0010
,
0001
0100
0010
0100
0001
0100
0010
1000
,
0001
0100
0001
1000
0001
0010
0100
1000
,
0010
0100
0001
0100
0001
1000
0010
0000
,
0100
0000
0000
0000
1000
0000
0000
0000
0001
0000
0000
0000
0100
0010
0100
0010
,
0100
1000
0001
0010
,
1000
0001
0100
1000
0001
0010
0100
1000
,
0001
0010
0100
1000
0001
0010
0100
0000
,
2002
3003
0220
0330
2002
3003
0220
0330
,
0010
0100
0001
0100
0001
0100
0010
1000
,
0100
0010
0100
1000
0010
1000
0100
0010
,
0100
1000
0001
0010
0100
1000
0100
0010
,
1000
0000
0000
0000
0000
0000
0000
0000
0000
0000
0001
0000
0000
0000
0000
0000
0000
0000
0010
0000
0000
0000
0000
0000
0000
0000
0000
0100
0000
0000
0000
0000
0000
0000
0000
0000
1000
0000
0000
0000
0000
0000
0000
0000
0000
0000
0000
0000
,
0000
0010
0001
0100
0001
0100
0010
0100
,
0010
1000
0001
0100
0001
0100
0001
0010
,
0100
1000
0100
1000
0001
1000
0100
0010
,
0022
0033
0220
0330
2200
3300
0220
0330
,
2002
3003
0010
0100
1000
0001
0100
1000
,
0001
0010
0100
1000
0001
0010
0100
0001
,
1000
0000
0000
0000
0000
0000
0000
0000
0000
0000
0001
0000
0000
0000
0000
0000
0000
0000
1000
0000
0000
0000
0000
0000
0000
0000
0000
0100
0000
0000
0000
0000
0000
0000
0000
0000
0002
0000
0000
0000
0000
0000
0000
0000
0000
0000
0000
0000
,
0000
0000
0000
0000
,
0003
0000
0000
0000
;
