#TITLE:wish;
#SUBTITLE:;
#ARTIST:DJ YOSHITAKA feat. 杉村ことみ;
#TITLETRANSLIT:;
#SUBTITLETRANSLIT:;
#ARTISTTRANSLIT:DJ YOSHITAKA feat. Kotomi Sugimura;
#GENRE:;
#CREDIT:;
#MENUCOLOR:;
#NEWMETERSYSTEM:NO;
#BANNER:wish-bn.png;
#BACKGROUND:wish-bg.png;
#LYRICSPATH:;
#CDTITLE:MixMania 4 CD Title.png;
#MUSIC:wish.mp3;
#OFFSET:-0.440;
#SAMPLESTART:58.320;
#SAMPLELENGTH:12.000;
#SELECTABLE:YES;
#LISTSORT:;
#BPMS:0.000=115.000;
#STOPS:;
#BGCHANGES:;
#ATTACKS:;

//---------------dance-single - ----------------
#NOTES:
     dance-single:
     :
     Easy:
     2:
     0.146,0.183,0.009,0.105,0.000: // measure 1
0000
0000
0000
0000
,  // measure 2
0000
0000
0000
0000
,  // measure 3
0000
0000
0000
0000
,  // measure 4
0010
0010
0020
0030
,  // measure 5
0100
0000
0100
0000
,  // measure 6
0001
0000
2000
3000
,  // measure 7
0100
0000
1000
0000
,  // measure 8
0010
0000
0100
0000
,  // measure 9
0010
0000
1000
0000
,  // measure 10
0001
0000
0020
0030
,  // measure 11
0001
0000
0100
0000
,  // measure 12
1000
0000
0100
0000
,  // measure 13
0000
0000
0010
0010
,  // measure 14
0010
0000
0001
0000
,  // measure 15
1000
0000
0001
0000
,  // measure 16
0100
0100
0200
0300
,  // measure 17
0010
0000
1000
0000
,  // measure 18
0001
0000
0100
0100
,  // measure 19
0000
0010
0000
1000
,  // measure 20
0000
0000
1000
1000
,  // measure 21
2000
0000
3100
0000
,  // measure 22
0020
0000
0130
0000
,  // measure 23
0200
0000
0310
0000
,  // measure 24
0002
0000
1003
0000
,  // measure 25
0010
0000
0001
0000
,  // measure 26
0100
0000
0010
0000
,  // measure 27
1000
0000
0100
0000
,  // measure 28
0100
0100
0200
0300
,  // measure 29
1001
0000
0010
0000
,  // measure 30
0001
0000
1000
0000
,  // measure 31
0001
0000
0100
0000
,  // measure 32
0010
0010
0010
0010
,  // measure 33
0010
0000
1000
0000
,  // measure 34
0100
0000
0010
0000
,  // measure 35
0001
0000
0100
0000
,  // measure 36
0002
0000
0003
0000
,  // measure 37
0100
0000
0100
0000
,  // measure 38
0010
0000
1000
0000
,  // measure 39
0001
0000
0001
0000
,  // measure 40
1000
0000
1000
0000
,  // measure 41
0100
0000
0010
0000
,  // measure 42
0100
0000
0010
0000
,  // measure 43
0001
0000
0010
0000
,  // measure 44
0001
0000
2000
3000
,  // measure 45
0100
0000
0000
0000
,  // measure 46
0010
0000
0000
0000
,  // measure 47
0100
0000
0000
0000
,  // measure 48
0100
0100
0100
0100
,  // measure 49
0010
0000
0001
0000
,  // measure 50
1000
0000
0001
0000
,  // measure 51
0100
0000
1000
0000
,  // measure 52
0100
0000
0001
0000
,  // measure 53
1000
0200
0300
0000
;

//---------------dance-single - Copied from----------------
#NOTES:
     dance-single:
     Copied from:
     Beginner:
     1:
     0.078,0.113,0.000,0.026,0.000: // measure 1
0000
0000
0000
0000
,  // measure 2
0000
0000
0000
0000
,  // measure 3
0000
0000
0000
0000
,  // measure 4
0020
0000
0030
0000
,  // measure 5
0100
0000
0000
0000
,  // measure 6
0100
0000
0000
0000
,  // measure 7
0001
0000
0000
0000
,  // measure 8
1000
0000
1000
0000
,  // measure 9
0100
0000
0000
0000
,  // measure 10
0010
0000
0000
0000
,  // measure 11
0100
0000
0000
0000
,  // measure 12
1000
0000
0000
0000
,  // measure 13
0001
0000
0000
0000
,  // measure 14
0010
0000
0010
0000
,  // measure 15
0000
0000
0100
0000
,  // measure 16
0001
0000
1000
0000
,  // measure 17
0100
0000
0000
0000
,  // measure 18
0100
0000
0000
0000
,  // measure 19
0010
0000
1000
0000
,  // measure 20
1000
0000
0000
0000
,  // measure 21
0200
0000
0000
0000
,  // measure 22
0300
0000
0000
0000
,  // measure 23
0020
0000
0000
0000
,  // measure 24
0030
0000
0000
0000
,  // measure 25
1000
0000
0000
0000
,  // measure 26
0001
0000
0000
0000
,  // measure 27
0100
0000
0000
0000
,  // measure 28
0010
0000
0010
0000
,  // measure 29
0010
0000
0000
0000
,  // measure 30
1000
0000
0000
0000
,  // measure 31
0100
0000
0000
0000
,  // measure 32
1000
0000
0001
0000
,  // measure 33
0001
0000
0000
0000
,  // measure 34
0100
0000
0000
0000
,  // measure 35
1000
0000
0000
0000
,  // measure 36
0010
0000
0100
0100
,  // measure 37
0100
0000
0000
0000
,  // measure 38
0001
0000
0000
0000
,  // measure 39
0001
0000
0000
0000
,  // measure 40
1000
0000
1000
0000
,  // measure 41
1000
0000
0000
0000
,  // measure 42
0100
0000
0000
0000
,  // measure 43
0010
0000
0000
0000
,  // measure 44
0100
0000
0100
0000
,  // measure 45
1000
0000
0000
0000
,  // measure 46
0001
0000
0000
0000
,  // measure 47
0010
0000
0000
0000
,  // measure 48
0100
0000
1000
0000
,  // measure 49
1000
0000
0000
0000
,  // measure 50
0010
0000
0000
0000
,  // measure 51
0100
0000
0000
0000
,  // measure 52
0001
0000
0001
0000
,  // measure 53
0010
0000
0000
0000
;

//---------------dance-single - Copied from----------------
#NOTES:
     dance-single:
     Copied from:
     Medium:
     5:
     0.362,0.343,0.078,0.139,0.022: // measure 1
0000
0000
0000
0000
,  // measure 2
0000
0000
0000
0000
,  // measure 3
0000
0000
0000
0000
,  // measure 4
1001
0000
1001
0000
0010
0010
1001
0000
,  // measure 5
0100
0001
1000
0000
0100
1000
0010
0000
,  // measure 6
0100
0001
1000
0001
0200
0000
0310
0000
,  // measure 7
1000
0100
0010
0000
0001
0010
0100
0000
,  // measure 8
0001
1000
0100
2000
0000
3010
0100
0001
,  // measure 9
0100
0010
1000
0000
1000
0100
0010
0000
,  // measure 10
0001
1000
0001
0100
0002
0000
0103
0000
,  // measure 11
0010
0100
0010
0000
1000
0001
1000
0000
,  // measure 12
0001
0010
0100
2000
0000
3100
0010
0200
,  // measure 13
0000
0301
1000
0000
0001
1000
0100
0000
,  // measure 14
0010
0000
0000
0010
0000
0000
1000
0000
0100
0000
0000
0000
0010
0000
0000
0000
,  // measure 15
0100
0000
0010
0001
0001
0100
0001
0000
,  // measure 16
0010
0000
0010
0100
0010
0100
0010
0100
,  // measure 17
0010
0000
0001
0100
1000
0000
0100
0000
,  // measure 18
0010
0000
0000
0001
0000
0000
1000
0000
0001
0000
0000
0000
0100
0000
0200
0000
,  // measure 19
0000
0000
0301
0002
0000
0000
1003
2000
,  // measure 20
0000
3010
0110
1001
,  // measure 21
0001
0000
0100
0000
0010
1000
0100
0010
,  // measure 22
0100
0000
0010
0000
0001
1000
0001
0000
,  // measure 23
0001
0000
1000
0000
0100
1000
0010
0100
,  // measure 24
0001
0000
1000
0000
0100
0000
1000
1000
,  // measure 25
0100
0000
0010
0000
0100
0010
0001
0010
,  // measure 26
0010
0000
0100
0000
0010
1000
0001
0100
,  // measure 27
1000
0100
0100
0000
1000
0100
0010
0000
,  // measure 28
0110
0000
1001
0000
0110
0000
1000
0100
,  // measure 29
0001
0000
0001
0000
0001
0100
1000
0000
,  // measure 30
0001
0000
0100
0000
0010
1000
0100
0000
,  // measure 31
0001
0000
1000
0000
0010
0001
0100
0000
,  // measure 32
0002
0203
2300
3200
,  // measure 33
0310
0000
1000
0000
0100
1000
0100
0000
,  // measure 34
0010
0000
1000
0000
0100
0010
0001
0000
,  // measure 35
0100
0000
0001
0000
1000
0001
1000
0000
,  // measure 36
0010
0000
1000
0000
0100
1000
0001
0000
,  // measure 37
0101
1000
0001
0100
,  // measure 38
0010
1000
0001
1000
,  // measure 39
0100
1000
0010
0100
,  // measure 40
0001
1000
0001
1000
0001
1000
0000
0100
,  // measure 41
0100
0000
0010
0000
0001
0000
0100
0001
,  // measure 42
1000
0000
0100
0000
0010
0100
0020
0000
,  // measure 43
1030
0000
0100
0000
0010
0001
1000
0001
,  // measure 44
0100
0001
0100
0001
0100
0001
2000
0000
,  // measure 45
3100
0000
0010
0000
0100
0010
0001
0000
,  // measure 46
1000
0000
0001
0000
0100
0001
1000
0000
,  // measure 47
0010
0000
0100
0000
0010
1000
0001
0000
,  // measure 48
0100
0001
1000
0200
0000
0310
0100
0000
,  // measure 49
0010
0000
0000
1000
0000
0000
0100
0000
0000
0000
0100
0000
0010
0000
0000
0000
,  // measure 50
0001
0000
0000
0100
0000
0000
0001
0000
0000
0000
1000
0000
1000
0000
0000
0000
,  // measure 51
0001
0000
0000
1000
0000
0000
0001
0000
0000
0000
0001
0000
0100
0000
0000
0000
,  // measure 52
1000
0100
0001
0000
0001
0000
0001
1000
,  // measure 53
0000
1000
0020
0000
0030
0000
0000
0000
;

//---------------dance-single - Copied from----------------
#NOTES:
     dance-single:
     Copied from:
     Hard:
     6:
     0.392,0.391,0.105,0.174,0.113: // measure 1
0000
0000
0000
0000
,  // measure 2
0000
0000
0000
0000
,  // measure 3
0000
0000
0000
0000
,  // measure 4
0011
0000
1100
0000
0011
0001
1001
0000
,  // measure 5
0100
0010
1000
0001
0100
0001
0001
0000
,  // measure 6
0100
0001
1000
0010
0210
0000
0310
0000
,  // measure 7
1000
0100
0010
0100
1000
0001
0100
0000
,  // measure 8
0001
1000
0001
0200
0000
0010
0010
0310
,  // measure 9
1001
0100
0001
0100
1000
0010
0010
0000
,  // measure 10
0100
0001
1000
0100
0200
0000
2300
0000
,  // measure 11
3100
0010
0100
0010
0001
1000
0001
0000
,  // measure 12
0100
0001
1000
0010
0000
0010
0100
0001
,  // measure 13
0000
1000
0001
0100
0001
0001
1000
0001
,  // measure 14
0101
0000
0000
1000
0000
0000
0100
0000
0010
0000
0000
0000
0010
0000
0000
0000
,  // measure 15
1001
0000
0001
1000
0001
0100
0001
0010
,  // measure 16
0100
0000
0100
0010
0100
1000
0100
0010
,  // measure 17
0001
0000
0000
0001
0000
0000
0100
0000
1000
0000
0000
0000
0100
0000
0000
0000
,  // measure 18
0010
0000
0000
0100
0000
0000
0010
0000
1000
0000
0100
0000
0100
0000
0020
0000
,  // measure 19
0000
0000
0031
0200
0000
0000
0310
2000
,  // measure 20
0100
0000
3100
0000
0100
0010
2001
0000
,  // measure 21
3020
0000
1000
0000
0001
0000
0100
0100
,  // measure 22
0230
0000
0001
0000
1000
0000
0001
0001
,  // measure 23
0320
0000
0001
0000
1000
0000
0100
0100
,  // measure 24
2030
0000
0100
0000
0010
0000
0001
0001
,  // measure 25
3002
0000
0100
0000
0010
0000
1000
1000
,  // measure 26
0203
0000
0010
0000
1000
0000
0010
0010
,  // measure 27
0320
0000
1000
0000
0100
0000
0001
0001
,  // measure 28
0031
0000
1000
0000
0001
0000
0100
0001
,  // measure 29
1001
0000
0000
1000
0000
0000
0100
0000
0000
0000
0010
0000
0001
0000
0000
0000
,  // measure 30
0100
0000
0000
0001
0000
0000
0001
0000
0000
0000
0010
0000
0001
0000
0000
0000
,  // measure 31
0100
0000
0000
0010
0000
0000
1000
0000
0000
0000
0001
0000
0001
0000
0000
0000
,  // measure 32
0100
0001
0010
0200
0000
1300
1000
0100
,  // measure 33
1100
0000
0000
0010
0000
0000
0100
0000
0000
0000
0001
0000
0100
0000
0000
0000
,  // measure 34
0001
0000
0000
0001
0000
0000
1000
0000
0000
0000
0100
0000
1000
0000
0000
0000
,  // measure 35
0010
0000
0000
0100
0000
0000
0001
0000
0000
0000
1000
0000
0100
0000
0000
0000
,  // measure 36
0010
0001
1000
0002
0000
0103
0010
0010
,  // measure 37
0000
0000
1000
0000
0100
0000
0000
0000
0010
0000
0000
0001
0000
0000
0100
0000
,  // measure 38
0000
0000
0001
0000
0000
1000
0000
0000
0001
0000
0000
0100
0000
0000
0100
0000
,  // measure 39
0000
0000
0010
0000
0000
1000
0000
0000
0100
0000
0000
0010
0000
0000
0001
0000
,  // measure 40
0100
0001
0100
0001
1000
0001
0000
1000
,  // measure 41
0100
0000
0010
0000
0000
0100
0000
0000
0010
0000
0000
0001
0000
0000
0100
0000
,  // measure 42
0000
0000
0010
0000
0000
0010
0000
0000
1000
0000
0000
0100
0000
0000
1000
0000
,  // measure 43
0000
0000
0010
0000
0000
0100
0000
0000
0001
0000
0000
1000
0000
0000
0100
0000
,  // measure 44
0010
0001
0010
0001
0100
0001
0100
0001
,  // measure 45
1000
0000
0000
0001
0000
0000
0100
0000
0000
0000
0010
0000
0010
0000
0000
0000
,  // measure 46
0100
0000
0000
0001
0000
0000
1000
0000
0000
0000
0100
0000
0010
0000
0000
0000
,  // measure 47
0100
0000
0000
0010
0000
0000
0001
0000
0000
0000
0100
0000
0001
0000
0000
0000
,  // measure 48
1000
0100
0010
0200
0000
1300
1000
0100
,  // measure 49
1001
0000
0000
0010
0000
0000
0100
0000
0000
0000
0010
0000
0001
0000
0000
0000
,  // measure 50
0100
0000
0000
0001
0000
0000
0001
0000
0000
0000
1000
0000
0100
0000
0000
0000
,  // measure 51
1000
0000
0000
0010
0000
0000
0010
0000
0000
0000
0100
0000
0001
0000
0000
0000
,  // measure 52
0100
1000
0001
0200
0000
0301
1000
0100
,  // measure 53
0100
0010
0200
0000
0000
0000
0300
0000
;

//---------------dance-single - Copied from----------------
#NOTES:
     dance-single:
     Copied from:
     Challenge:
     8:
     0.483,0.506,0.183,0.035,0.240: // measure 1
0000
0000
0000
0000
,  // measure 2
0000
0000
0000
0000
,  // measure 3
0000
0000
0000
0000
,  // measure 4
0010
0000
0100
0000
0010
0000
0100
0000
0001
0100
0000
0100
0010
0000
1000
0000
,  // measure 5
0100
0010
0100
0000
0010
0000
0100
0001
0010
0000
0100
0000
1000
0000
0000
0000
,  // measure 6
1000
0100
0010
0000
0100
0000
0001
0000
1001
0000
1000
0000
0100
0000
0010
0000
,  // measure 7
0001
1000
0100
0000
0100
0000
0010
0001
1000
0000
0100
0000
0110
0000
0000
0000
,  // measure 8
0001
1000
0100
0110
0000
0001
0001
0010
,  // measure 9
0001
1000
0001
0000
0100
0000
0001
1000
0001
0000
1000
0000
1000
0000
0000
0000
,  // measure 10
0100
0010
0001
0000
1000
0000
0001
0000
0001
0000
0100
0000
0010
0000
0000
0000
,  // measure 11
0100
0010
1000
0000
0001
0000
0010
0001
0100
0000
0010
0000
0010
0000
0000
0000
,  // measure 12
0001
0010
1000
0110
0100
0010
1000
0101
,  // measure 13
0010
0001
1001
0100
0010
0100
0010
0100
,  // measure 14
0011
0000
0000
0001
0000
0000
0100
0000
0010
0000
1000
0000
0001
0000
0100
0000
,  // measure 15
0001
0000
0000
0001
0000
0000
0100
0000
0010
0000
1000
0000
0100
0000
1000
0000
,  // measure 16
1100
0000
1100
0010
1100
0010
1100
0010
,  // measure 17
1001
0000
0000
0100
0000
0000
1000
0000
0010
0000
0100
0000
0001
0000
0010
0000
,  // measure 18
0001
0000
0000
0001
0000
0000
1000
0000
0100
0000
1000
0000
0010
0000
0100
0000
,  // measure 19
0010
0010
1000
0100
0100
0010
0001
0001
,  // measure 20
0100
0000
0001
0000
0100
0000
0001
0000
0100
0010
0000
1000
0100
0000
0100
0000
,  // measure 21
1001
0100
0010
0001
1000
0001
0100
0010
,  // measure 22
1000
0100
0010
0100
0020
0000
0100
0000
,  // measure 23
0031
1000
0100
1000
0010
0100
0001
0010
,  // measure 24
0001
0100
1000
0010
0200
0000
1000
0000
,  // measure 25
1300
0010
0100
0001
1000
0100
0010
0001
,  // measure 26
1000
0001
0100
0001
0020
0000
0001
0000
,  // measure 27
0130
0010
1000
0100
0010
0001
0100
0001
,  // measure 28
1001
0000
0010
0000
1001
0000
0100
0000
0001
1000
0000
0100
1000
0010
1000
0010
,  // measure 29
0100
0000
0000
0100
0000
0000
0001
0000
1000
0000
1000
0000
0100
0000
0000
0000
,  // measure 30
0010
0000
0000
1000
0000
0000
0001
0000
0100
0000
0001
0000
0001
0000
0000
0000
,  // measure 31
1001
0000
0000
1000
0000
0000
0100
0000
0010
0000
0100
0000
1000
0000
0000
0000
,  // measure 32
0001
0001
0100
0010
0010
1000
0100
0010
,  // measure 33
1001
0000
0000
0001
0000
0000
0100
0000
1000
0000
0100
0000
0001
0000
0000
0000
,  // measure 34
0010
0000
0000
1000
0000
0000
0100
0000
1000
0000
0010
0000
0100
0000
0000
0000
,  // measure 35
1100
0000
0000
1000
0000
0000
0100
0000
0010
0000
0001
0000
0100
0000
0000
0000
,  // measure 36
0001
0000
0001
0000
0010
0000
0100
0000
1000
0100
0000
0100
0010
0000
0001
0000
,  // measure 37
0001
0000
0100
0000
0000
0100
0000
0000
0001
0000
0000
0100
0000
0000
1000
0000
,  // measure 38
0100
0000
0010
0000
0000
1000
0000
0000
0100
0000
0000
0010
0000
0000
0100
0000
,  // measure 39
0010
0000
0001
0000
0000
1000
0000
0000
0001
0000
0000
0100
0000
0000
0001
0000
,  // measure 40
0010
0000
0100
0000
0010
0000
0100
0000
0010
0000
0100
0000
0000
0000
1000
0001
,  // measure 41
1000
0000
0100
0000
0000
0010
0000
0000
0100
0000
0000
0001
0000
0000
0100
0001
,  // measure 42
0100
0000
0010
0000
1000
0000
0001
0000
1000
0000
0100
0000
1000
0010
1000
0010
,  // measure 43
1000
0000
0100
0000
0000
1000
0000
0000
0010
0000
0000
0100
0000
0001
0000
0000
,  // measure 44
0010
0000
0001
0000
0100
0000
0010
0000
1000
0000
0100
0000
0010
0100
0010
0100
,  // measure 45
0010
0000
0000
0100
0000
0000
0100
0000
0000
0000
1000
0000
0100
0000
0000
0000
,  // measure 46
0010
0000
0000
0100
0000
0000
0010
0000
0000
0000
0001
0000
0101
0000
0000
0000
,  // measure 47
0001
0000
0000
1000
0000
0000
0100
0000
0000
0000
1000
0000
1000
0000
0000
0000
,  // measure 48
0010
0000
1000
0000
0100
0000
0010
0000
0001
0100
0000
0100
0010
0000
1000
0000
,  // measure 49
1100
0000
0000
0100
0000
0000
0010
0000
0100
0000
0010
0000
0001
0000
0000
0000
,  // measure 50
0001
0000
0000
0001
0000
0000
0100
0000
0010
0000
1000
0000
0100
0000
0000
0000
,  // measure 51
0110
0000
0000
0010
0000
0000
1000
0000
0001
0000
0001
0000
0100
0000
0000
0000
,  // measure 52
0100
1000
1000
0100
0100
0010
0001
1000
,  // measure 53
1000
0010
0002
0000
0000
0000
0003
0000
;
