#TITLE:the keel (Nu-Style Gabba mix);
#SUBTITLE:;
#ARTIST:teranoid;
#TITLETRANSLIT:;
#SUBTITLETRANSLIT:;
#ARTISTTRANSLIT:;
#GENRE:;
#CREDIT:;
#MENUCOLOR:#990066;
#NEWMETERSYSTEM:NO;
#BANNER:the keel (Nu-Style Gabba mix)-bn.png;
#BACKGROUND:the keel (Nu-Style Gabba mix)-bg.png;
#LYRICSPATH:;
#CDTITLE:MixMania 4 CD Title.png;
#MUSIC:the keel (Nu-Style Gabba mix).mp3;
#OFFSET:-1.100;
#SAMPLESTART:12.160;
#SAMPLELENGTH:12.000;
#SELECTABLE:YES;
#LISTSORT:;
#BPMS:0.000=173.000;
#STOPS:;
#BGCHANGES:;
#ATTACKS:;

//---------------dance-single - ----------------
#NOTES:
     dance-single:
     :
     Easy:
     5:
     0.413,0.516,0.493,0.156,0.000:
0000
0000
0000
0000
,
0000
0000
0000
0000
,
1000
0000
1000
0000
,
0001
0000
0000
0000
,
0011
0000
0001
0000
,
1000
0000
0100
0000
,
0110
0000
0110
0000
,
2002
0000
3003
0110
,
0010
0100
0001
0010
,
0100
1000
0001
0100
,
0001
1000
0100
1000
,
0010
0100
0001
1000
,
0100
0010
0100
0010
,
0001
1000
0001
0100
,
0010
0010
1000
0001
,
0100
0001
0010
0001
,
0101
0101
1010
0100
,
1100
0010
1000
0001
,
0110
0110
0011
0001
,
1100
0010
0100
0001
,
1010
1010
0110
0001
,
1001
0010
0100
0001
,
0022
0033
2200
3300
,
2002
0000
3003
0110
,
0001
0001
1000
1000
,
0010
0010
0100
0100
,
0001
0010
0100
1000
,
0200
0000
0000
0300
,
0010
0100
1000
0100
,
0010
0001
0100
0010
,
1000
1000
0001
0001
,
0100
0010
0100
0010
,
0110
0110
1010
0100
,
0011
1000
0001
0010
,
0101
0101
1010
0100
,
1001
0100
0010
1000
,
0011
0011
0110
1000
,
1010
0100
0001
0010
,
0100
1000
0100
1000
,
0001
0010
0200
0300
,
0110
0000
1000
0000
,
0001
0100
0001
0000
,
0010
0000
0100
0000
,
1000
0010
1000
0000
,
0010
0000
0100
0000
,
0001
0010
0001
0000
,
1000
0000
0001
0000
,
0020
0000
0130
0000
,
1001
0000
0010
0100
,
0010
1000
0000
0001
,
0011
0000
0001
0000
,
0000
1000
0000
0100
,
0020
0000
2030
0000
,
3002
0100
2003
0000
,
3020
0000
1000
0000
,
0100
0130
2002
3003
,
1000
0100
0001
0100
,
1000
0100
0001
0100
,
1000
0010
0100
1001
,
1000
0010
0100
1001
,
0001
0010
1000
0010
,
0001
0010
1000
0010
,
0001
0100
0010
1000
,
0001
0100
0010
1000
,
1001
0100
0010
1000
,
0001
0100
0001
0010
,
0100
1000
0010
0100
,
0001
1000
0100
1000
,
0001
0010
0100
0010
,
1000
0001
0100
0001
,
0010
0001
1000
0010
,
0100
0100
0010
1000
,
0101
0101
0011
1000
,
0100
1000
0010
0100
,
1001
1001
0110
1000
,
0001
0010
0100
0010
,
1001
1001
1010
0100
,
0010
1000
0001
0100
,
0001
1000
0100
1000
,
0010
0100
0001
0000
,
0011
1100
0011
0000
,
1010
0101
1010
0000
,
0011
1100
0011
0000
,
1010
0101
1010
0000
,
1000
0100
0010
0001
,
0100
0010
1000
0001
,
2002
0000
0000
0000
0000
0000
0000
3003
,
0000
0000
0000
0000
,
0110
0000
0000
0000
;

//---------------dance-single - Copied from----------------
#NOTES:
     dance-single:
     Copied from:
     Beginner:
     3:
     0.193,0.241,0.055,0.086,0.000:
0000
0000
0000
0000
,
0000
0000
0000
0000
,
0001
0000
0001
0000
,
1000
0000
0000
0000
,
1001
0000
0000
0000
,
0000
0000
0000
0000
,
0100
0000
0100
0000
,
0220
0000
0330
0000
,
0001
0000
0001
0000
,
0100
0000
0010
0000
,
1000
0000
1000
0000
,
0100
0000
0000
0000
,
1000
0000
0010
0000
,
0100
0000
0100
0000
,
0001
0000
0010
0000
,
0001
0000
0010
0000
,
0200
0000
0300
0000
,
2000
0000
3000
0000
,
0002
0000
0003
0000
,
0200
0000
0300
0000
,
0020
0000
0030
0000
,
0200
0000
0300
0000
,
0001
0000
1000
0000
,
1001
0000
0000
0000
,
0010
0000
0010
0000
,
0100
0000
0100
0000
,
0001
0000
0001
0000
,
2000
0000
3000
0000
,
0100
0000
0100
0000
,
1000
0000
1000
0000
,
0001
0000
0001
0000
,
1000
0000
1000
0000
,
0100
0000
0010
0000
,
0001
0000
1000
0000
,
0001
0000
0100
0000
,
0010
0000
0100
0000
,
0010
0000
0010
0000
,
1000
0000
0100
0000
,
1000
0000
0001
0000
,
0200
0000
0300
0000
,
0110
0000
0000
0000
,
0000
0000
0000
0000
,
0001
0000
0001
0000
,
0000
1000
1000
0000
,
0100
0000
0010
0000
,
0000
0100
0100
0000
,
1000
0000
0010
0000
,
0100
0000
0000
0000
,
1001
0000
0000
0000
,
0000
0001
0000
0010
,
0010
0000
0000
0000
,
0000
0001
0000
1000
,
1000
0000
0100
0000
,
0010
0010
0010
0000
,
0002
0000
0003
0000
,
0100
0000
0000
0000
,
1000
0000
1000
0000
,
0100
0000
0100
0000
,
0010
0000
0010
0000
,
0001
0000
0001
0000
,
0001
0000
0001
0000
,
0010
0000
0010
0000
,
0100
0000
0100
0000
,
1000
0000
1000
0000
,
1001
0000
0100
0000
,
0010
0000
1000
0000
,
0001
0000
0001
0000
,
1000
0000
0010
0000
,
0001
0000
0010
0000
,
1000
0000
0100
0000
,
0010
0000
0100
0000
,
1000
0000
0100
0000
,
0001
0000
0001
0000
,
1000
0000
0010
0000
,
1000
0000
1000
0000
,
0100
0000
0010
0000
,
0100
0000
0100
0000
,
0001
0000
1000
0000
,
0010
0000
0010
0000
,
0100
0000
0001
0000
,
1000
1000
1000
0000
,
0010
0010
0010
0000
,
0100
0100
0100
0000
,
0010
0010
0010
0000
,
1000
0000
0100
0000
,
0010
0000
0001
0000
,
1000
0000
0000
0000
,
0001
0001
0001
0000
,
0110
0000
0000
0000
;

//---------------dance-single - Copied from----------------
#NOTES:
     dance-single:
     Copied from:
     Medium:
     7:
     0.494,0.585,0.414,0.141,0.270:
0000
0000
0000
0000
,
0000
0000
0000
0000
0000
0000
0000
0001
,
0000
0000
0000
1000
0000
0000
0000
0100
,
0000
0000
0000
0010
,
0110
1000
0001
0100
,
0001
0010
0100
1000
,
0011
0000
1100
0000
,
2002
0000
3003
0110
,
0001
0100
0001
0010
,
0100
0001
0100
1000
,
0010
0000
0000
0100
0000
0000
0001
0000
0010
0001
0000
1000
,
0001
0000
0000
0100
0000
0000
0001
0000
0001
0010
0000
0010
,
0100
1000
0010
0100
,
0001
0000
0000
1000
0000
0000
0100
0000
0100
1000
0000
1000
,
0010
0100
0010
1000
,
0001
0101
1100
0101
,
1000
0000
0000
0100
0000
0000
0100
0000
0000
1000
0000
0010
,
1000
0100
0100
0010
,
0011
0000
0000
0001
0000
0000
0100
0000
0000
0001
0000
0010
,
0100
0010
0001
1000
,
1001
0000
0000
1000
0000
0000
0100
0000
0000
0100
0000
1000
,
0010
0100
0001
0010
,
0220
0330
0022
0033
,
2100
0001
3100
0101
,
1001
0100
0100
0010
,
0100
1000
1000
0100
,
1000
0001
0100
0001
,
0022
0030
0200
0303
,
1001
0001
0010
0001
,
1000
0100
0001
0100
,
1000
0010
0100
0010
,
1000
0000
0000
0100
0000
0000
0010
0000
0000
0001
0000
1000
,
0001
0000
0000
0100
0000
0000
0100
0000
0000
0010
0000
1000
,
0010
0100
0001
0011
,
1001
0000
0000
0100
0000
0000
0010
0000
0000
0100
0000
1000
,
0010
0100
0010
1001
,
1100
0000
0000
0010
0000
0000
0100
0000
0000
1000
0000
0001
,
0010
0001
0100
0010
,
2000
0100
0010
3001
,
0001
0000
0001
0000
0001
0000
2000
0000
0000
3000
0000
0000
,
1001
0000
0100
0000
,
0010
1000
0010
0000
0100
0000
0000
0000
,
0001
0000
0100
0000
,
0001
0010
0001
0000
1000
0000
0000
0000
,
0100
0000
0010
0000
,
0100
1000
0010
0000
0100
0000
0000
0000
,
0001
0000
1000
0001
,
0002
0000
0000
0203
0000
0000
0320
0000
,
1030
1000
0100
0010
,
0001
0101
0001
1001
,
1010
0000
1000
0000
0100
0000
0000
0000
0000
0100
0000
0000
,
1000
1010
0100
0011
,
1100
0010
0100
0001
,
1000
0110
1000
1000
,
0102
0000
0010
0000
,
2000
0000
0000
3003
,
0010
0000
1000
0100
0000
0000
0100
0000
0010
0100
0000
0000
,
1000
0000
0001
0010
0000
0000
0100
0000
0010
0100
0000
0000
,
1000
0000
0001
1000
0000
0001
1000
0000
0001
0010
0000
0001
,
0010
0000
0100
0010
0000
0100
0010
0000
0100
1000
0000
0100
,
0010
0000
0010
0100
0000
0000
1000
0000
1000
0100
0000
0000
,
0010
0000
0010
0100
0000
0000
0010
0000
0010
0001
0000
0000
,
1000
0000
1000
0000
1000
0000
0100
0000
0100
0000
0100
0000
,
0010
0000
0010
0000
0010
0000
0001
0000
0001
0010
0000
0000
,
0110
0000
0001
0100
0000
0000
0010
0000
0100
0010
0000
0000
,
0001
0000
1000
0001
0000
0010
0100
0000
0000
1000
0000
0000
,
0010
0000
1000
0100
0000
0000
0010
0000
0100
0010
0000
0000
,
0001
0000
0001
0010
0000
0100
1000
0000
0000
0010
0000
0000
,
0100
0000
0010
0100
0000
0000
0001
0000
1000
0010
0000
0000
,
0100
0000
0010
0100
0000
1000
0100
0000
0000
1000
0000
0000
,
0001
0000
0100
0001
0000
0000
0010
0000
0001
0100
0000
0000
,
0010
0000
0100
0010
0000
0010
0001
0000
0000
0010
0000
0000
,
0110
0000
0000
1100
0000
0000
0011
0000
0000
1000
0000
0100
,
0010
0000
0010
0001
0000
0000
1000
0000
0000
0001
0000
0000
,
0011
0000
0000
1100
0000
0000
0011
0000
0000
0100
0000
0010
,
0100
0000
0010
1000
0000
0001
0010
0000
0000
0100
0000
0000
,
1100
0000
0000
1010
0000
0000
0101
0000
0000
0010
0000
0001
,
0100
0000
0010
1000
0000
0100
0010
0000
0010
0001
0000
0000
,
1000
0100
1000
0001
,
0010
0010
0001
0100
,
0110
0110
1001
1000
,
0011
1010
0011
0000
,
1001
1001
0110
0001
,
1010
0011
1010
0000
,
1000
0001
0010
0001
,
0100
0000
0001
0000
0010
0000
0001
0000
1000
0000
0100
0000
,
0020
0000
0000
0000
0000
0000
0000
0030
,
0000
0000
0000
0000
,
1001
0000
0000
0000
;

//---------------dance-single - Copied from----------------
#NOTES:
     dance-single:
     Copied from:
     Hard:
     9:
     0.626,0.654,0.454,0.125,0.630:
0000
0000
0000
0000
,
0000
0000
0000
0000
0000
0000
0010
0100
,
0000
0000
1000
0100
0000
0000
0001
0100
,
0000
0000
0000
0000
,
1001
0000
0010
0000
0100
0000
0001
0100
,
1000
0000
0100
0001
0010
0000
0010
0000
,
1100
0010
0101
0010
,
2002
0000
0000
0000
0000
3003
1001
0000
,
0101
0000
0000
1000
0000
0000
0100
0000
0100
0010
0000
0010
,
0001
0000
0000
0100
0000
0000
0001
0000
1000
0001
0000
0001
,
0010
0000
0100
1000
0000
0000
1000
0000
0010
0100
0000
0010
,
0100
0000
0000
0001
0000
0000
0010
0000
0001
1000
0001
1000
,
0010
0000
0000
0100
0000
0000
0001
0000
0100
0010
0000
0010
,
1000
0000
0000
0100
0000
0000
0010
0000
0100
1000
0000
1000
,
0010
0000
0000
0100
0000
0000
0001
0000
0010
0001
0000
1000
,
0100
0000
0000
0010
0000
0010
0100
0000
1000
0100
0010
0001
,
0100
0000
0000
0110
0000
0000
1100
0000
0000
0100
0000
0010
,
1000
0100
0010
0011
,
1001
0000
0000
0011
0000
0000
1100
0000
0000
0100
0000
0010
,
0001
1000
0010
0110
,
1100
0000
0000
0001
0000
0000
1000
0000
0000
0100
0000
0010
,
1000
0100
0001
0011
,
2001
3100
0102
0013
,
0220
0000
0330
0001
,
1000
0000
1000
0100
0000
0010
0100
0000
0001
0100
0000
1000
,
0010
0000
0100
0001
0000
0001
0010
0000
0001
0010
0000
0100
,
0010
0000
0100
1000
0000
0100
0010
0000
1000
0001
0000
0001
,
0200
0000
0020
0330
,
1001
0000
0100
0001
0000
0100
0001
0000
1000
0010
0000
0001
,
0100
0000
0010
0100
0000
1000
0100
0000
0010
1000
0000
1000
,
0010
0000
0100
0001
0000
0001
0010
0000
0010
0100
0000
1000
,
0010
0000
0100
0010
0000
1000
0100
0000
0001
0010
0000
0100
,
0010
0000
0000
0110
0000
0000
1100
0000
0000
0100
0000
0010
,
0001
0100
0001
1010
,
0101
0000
0000
0110
0000
0000
1100
0000
0000
0010
0000
0100
,
0010
1000
0100
0101
,
1010
0000
0000
0110
0000
0000
0011
0000
0000
1000
0000
0001
,
0100
0000
0000
0010
0000
0000
1000
0000
0100
0010
0000
0010
,
0002
0100
2003
0010
,
3001
0000
0001
0000
1000
0000
2000
0000
0000
0010
0000
0000
,
3002
0000
0000
0000
0103
0000
0000
1000
,
0000
1000
0100
0010
0001
0000
0000
0000
,
0001
0000
0000
0100
0001
0000
0000
1000
,
0000
0001
0010
0100
1000
0000
0000
0000
,
0010
0000
0000
0100
0010
0000
0000
1000
,
0000
0001
0100
0010
1000
0000
0000
0000
,
1000
0000
0000
1000
0100
0000
0100
0010
,
0001
0000
0000
0101
0000
0000
1010
0000
,
1001
0000
0000
0100
0010
0100
0000
0001
,
0000
1001
0100
0010
0000
0000
0100
0000
,
0110
0000
0000
0000
0010
0000
0000
0000
1000
0000
0000
0000
0000
0000
0000
0000
0000
0000
1000
0000
0000
0100
0000
0000
,
0010
0000
1001
0000
0001
0100
0001
0000
,
0011
0100
1000
0010
,
0100
0000
0011
0000
1000
0100
0010
0000
,
0220
0000
0000
0330
,
1000
0001
0100
0000
0110
0000
1001
0000
,
0101
0000
0001
0100
0000
0010
1000
0000
0001
0100
0000
1000
,
0100
0000
0010
0100
0000
0001
0100
0000
1000
0010
0000
0100
,
0001
0000
1000
0100
0000
0001
0010
0000
0100
0001
0000
0100
,
0010
0000
1000
0001
0000
0001
0010
0000
0001
0010
0000
0100
,
0010
0000
1000
0100
0000
0010
0100
0000
0001
0010
0000
1000
,
0001
0000
0100
0010
0000
0100
0001
0000
0010
0100
0000
0100
,
1000
0000
1000
0000
1000
0000
0001
0000
0001
0000
0001
0000
,
0010
0000
0010
0000
0010
0000
0100
0010
0100
2000
0000
0000
,
3100
0000
0100
0010
0000
0001
0010
0000
1000
0001
0000
0100
,
0010
0000
0100
0010
0000
0100
1000
0000
0001
0100
0000
0010
,
0001
0000
1000
0010
0000
0100
0001
0000
0001
0010
0000
0100
,
0001
0000
1000
0010
0000
0100
0001
0000
0010
0100
0000
0010
,
1000
0000
0100
0010
0000
1000
0001
0000
0001
0010
0000
0100
,
0001
0000
1000
0010
0000
0100
0001
0000
0001
0010
0000
1000
,
0100
0000
0010
1000
0000
0001
0100
0000
0001
1000
0000
0100
,
0010
0000
0100
1000
0100
0010
0001
0000
0001
0100
0010
1000
,
0100
0000
0000
0110
0000
0000
0101
0000
0000
0001
0100
0010
,
1000
0000
0000
0110
0000
0000
0011
0000
0000
1000
0010
0100
,
0001
0000
0000
1010
0000
0000
0101
0000
0000
0010
0100
0010
,
1000
0000
0000
0110
0000
0000
1100
0000
0000
0010
0001
0010
,
1000
0000
0000
0110
0000
0000
0011
0000
0000
1000
0010
1000
,
0001
0000
0000
0110
0000
0000
1100
0000
0000
0001
0010
0001
,
0100
0000
0000
0110
0000
0000
0101
0000
0000
1000
0010
0100
,
0001
0000
0000
0011
0000
0000
1010
0000
0000
0100
0010
1000
,
0100
0000
0010
0100
0000
0010
0100
0000
0000
1000
0000
0001
,
0100
0000
0001
0100
0000
0001
0100
0000
0000
0010
0000
1000
,
0100
0000
1000
0100
0000
1000
0100
0000
0000
0100
0000
0010
,
0001
0000
0010
0001
0000
0010
0001
0000
0000
0100
0000
0001
,
0100
0000
0000
0010
0000
1000
0100
0000
0000
0010
0000
0001
,
1000
0000
0100
0000
0010
0000
0001
0000
0010
0000
0100
1000
,
0002
0000
0000
0000
0000
0000
0000
0003
,
0000
0000
0000
0000
,
0110
0000
0000
0000
;

//---------------dance-single - Copied from----------------
#NOTES:
     dance-single:
     Copied from:
     Challenge:
     9:
     0.742,0.654,0.469,0.266,0.841: // measure 1
0000
0000
0000
0000
,  // measure 2
0000
0000
0000
0000
0000
0000
0100
0001
,  // measure 3
0010
0000
0100
1000
0010
0000
0100
0001
,  // measure 4
1000
0101
1100
0101
,  // measure 5
0010
0100
0010
1000
0100
0000
0010
0100
,  // measure 6
0010
0001
0100
0001
1000
0000
0100
1000
,  // measure 7
0110
0100
0011
0100
,  // measure 8
2010
0001
3001
0101
,  // measure 9
1010
0000
1000
0100
0000
0010
0100
0000
0001
0100
0000
0010
,  // measure 10
1000
0000
0100
0001
0000
1000
0010
0000
0100
0010
0000
0001
,  // measure 11
1000
0000
0010
0100
0000
0001
0010
0000
1000
0010
0000
0100
,  // measure 12
0010
0000
0100
1000
0000
0001
0100
0010
1000
0001
0000
0100
,  // measure 13
0010
0000
0010
1000
0000
0010
1000
0000
0100
0010
0000
0100
,  // measure 14
0001
0000
0010
0001
0000
0100
0010
0000
0001
1000
0000
0010
,  // measure 15
0100
0000
0001
0010
0000
0010
0100
0000
0100
1000
0000
0100
,  // measure 16
0010
0000
1000
0100
0000
0010
0001
1000
0010
1000
0001
1000
,  // measure 17
0100
0000
0000
0110
0000
0000
0110
0000
0000
1000
0100
0010
,  // measure 18
0001
0000
0000
0110
0000
0000
0110
0000
0000
0001
0010
0100
,  // measure 19
1000
0000
0000
1001
0000
0000
1001
0000
0000
1000
0100
0010
,  // measure 20
0001
0000
0000
1001
0000
0000
1001
0000
0000
0010
0100
0001
,  // measure 21
0010
0000
0010
0100
0000
1000
0010
0000
0100
0010
0000
0100
,  // measure 22
0001
0000
0010
0100
0000
0010
0001
0000
1000
0010
0000
0000
,  // measure 23
0102
0000
0000
1003
0000
0100
0020
0000
0000
0130
0000
0100
,  // measure 24
2000
0000
0000
0100
0000
0000
3100
0010
0001
1000
0000
0000
,  // measure 25
0101
0000
1000
0001
0000
0001
0010
0000
1000
0100
0000
0010
,  // measure 26
0100
0000
1000
0001
0000
0010
0100
0000
0001
1000
0000
0100
,  // measure 27
0010
0000
0001
0100
0000
0010
0100
0000
0100
1000
0000
1000
,  // measure 28
0200
0000
0002
0303
,  // measure 29
1010
0000
1000
0100
0000
0010
0001
0000
0100
0010
0000
0000
,  // measure 30
0011
0000
0100
0010
0000
1000
0100
0000
0010
0001
0000
0000
,  // measure 31
1100
0000
0010
0100
0000
0010
0001
0000
1000
0010
0000
0000
,  // measure 32
0110
0000
1000
0100
0000
0100
0010
0000
0010
0001
0000
0001
,  // measure 33
0200
0000
0000
0302
0000
0000
2003
0000
0000
3100
0010
0001
,  // measure 34
0200
0000
0000
0320
0000
0000
2030
0000
0000
3010
0100
0001
,  // measure 35
0020
0000
0000
0032
0000
0000
2003
0000
0000
3100
0010
0100
,  // measure 36
2000
0000
0000
3020
0000
0000
0032
0000
0000
0013
1000
0100
,  // measure 37
0020
0000
0000
0230
0000
0000
0320
0000
0000
0031
0010
0100
,  // measure 38
2000
3002
0203
0301
,  // measure 39
0010
0001
0010
0001
0010
0001
1000
0100
1000
0100
1000
0100
,  // measure 40
0010
0000
0001
0000
0001
0000
0200
0000
0000
0000
0300
0000
,  // measure 41
2002
0000
3003
0000
0010
0000
0100
0010
,  // measure 42
1000
0100
0010
0000
0101
0000
0001
0000
,  // measure 43
1000
0000
0001
0010
0100
0000
0100
0010
,  // measure 44
0001
1000
0001
0100
0001
0000
0010
0000
,  // measure 45
0100
0000
0010
0001
1000
0000
0001
0010
,  // measure 46
0100
1000
0010
0100
0001
0000
1000
0001
,  // measure 47
1000
0000
0100
0000
1100
0000
0010
0100
,  // measure 48
0020
0000
1030
0200
0000
0310
0001
0000
,  // measure 49
1001
0000
0000
0001
0100
0001
0000
1100
,  // measure 50
0000
0110
0001
1001
0000
0000
0110
0000
,  // measure 51
1001
0000
0000
0000
0010
0000
0000
0000
0100
0000
0000
0000
0000
0000
0000
0000
0000
0000
0010
0000
0000
0100
0000
0000
,  // measure 52
0010
0000
1000
0100
0010
0001
0100
0000
,  // measure 53
0101
0000
1010
1000
0100
0000
0110
0000
,  // measure 54
0001
0000
1010
0000
0100
0001
0010
0100
,  // measure 55
2002
3000
0200
0303
,  // measure 56
0001
1000
0001
1000
0110
0000
0110
0000
,  // measure 57
1000
0000
0010
0001
0000
1000
0010
0000
0100
0001
0000
0010
,  // measure 58
0100
0000
0100
1000
0000
0001
0010
0000
0001
0100
0000
0000
,  // measure 59
0110
0000
1000
0100
0000
0010
0001
0000
0100
0001
0000
1000
,  // measure 60
0010
0000
0010
0100
0000
0001
0010
0000
0100
1000
0000
0000
,  // measure 61
0101
0000
1000
0100
0000
0010
0100
0000
0001
0100
0000
0010
,  // measure 62
1000
0000
0010
0001
0000
0100
0010
0000
1000
0001
0000
0010
,  // measure 63
0001
0000
0001
0000
0001
0000
1000
0000
1000
0000
1000
0000
,  // measure 64
0100
0000
0100
1000
0100
0001
0010
0100
1000
0002
0000
0000
,  // measure 65
0103
0000
0001
0010
0000
1000
0010
0000
0100
0010
0000
1000
,  // measure 66
0001
0000
0010
0001
0000
0100
0010
0000
0001
0100
0000
0010
,  // measure 67
1000
0000
0100
0010
0000
1000
0001
0000
0010
0001
0000
1000
,  // measure 68
0010
0000
0100
1000
0000
0001
0010
0000
0100
0010
0000
1000
,  // measure 69
0001
0000
0001
0010
0000
0010
0100
0000
0010
0001
0000
1000
,  // measure 70
0010
0000
0100
0010
0000
0010
1000
0000
1000
0010
0000
0001
,  // measure 71
0100
0000
0010
1000
0000
0100
0010
0000
1000
0001
0000
0010
,  // measure 72
0001
0000
0100
0001
0000
0100
0001
0100
0001
0010
0100
1000
,  // measure 73
0010
0000
0000
0110
0000
0000
0011
0000
0001
0100
0010
1000
,  // measure 74
0100
0000
0000
1100
0000
0000
0110
0000
0100
0001
0010
0001
,  // measure 75
1000
0000
0000
0110
0000
0000
1100
0000
0010
0001
0100
0010
,  // measure 76
1000
0000
0000
0101
0000
0000
0011
0000
0010
0100
0001
1000
,  // measure 77
0001
0000
0000
1010
0000
0000
0101
0000
0100
0010
0100
0001
,  // measure 78
1000
0000
0000
0101
0000
0000
1100
0000
1000
0100
0010
0100
,  // measure 79
0001
0000
0000
1100
0000
0000
0011
0000
0001
0100
0001
1000
,  // measure 80
0010
0000
0000
0110
0000
0000
1001
0000
0010
0100
0001
1000
,  // measure 81
0010
0000
0100
0010
0000
0100
0010
0000
1000
0000
0000
0100
,  // measure 82
0010
0001
0100
0001
0000
1000
0100
0000
0010
0100
0000
1000
,  // measure 83
0001
0000
0100
0001
0000
0100
0001
0000
1000
0000
0000
0010
,  // measure 84
0100
0001
0010
0100
0000
0100
1000
0000
0010
0100
0000
0010
,  // measure 85
0001
0000
0001
0100
0000
0000
1000
0000
1000
0100
0000
0000
,  // measure 86
0001
0000
1010
0000
0001
0000
0110
0000
1100
0000
1000
0001
,  // measure 87
0200
0000
0000
0000
0000
0000
0000
0300
,  // measure 88
0000
0000
0000
0000
,  // measure 89
1001
0000
0000
0000
;
