#TITLE:made in innocent;
#SUBTITLE:;
#ARTIST:onoken;
#TITLETRANSLIT:;
#SUBTITLETRANSLIT:;
#ARTISTTRANSLIT:;
#GENRE:;
#CREDIT:;
#MENUCOLOR:;
#NEWMETERSYSTEM:NO;
#BANNER:made in innocent-bn.png;
#BACKGROUND:made in innocent-bg.png;
#LYRICSPATH:;
#CDTITLE:MixMania 4 CD Title.png;
#MUSIC:made in innocent.mp3;
#OFFSET:-0.120;
#SAMPLESTART:98.140;
#SAMPLELENGTH:11.980;
#SELECTABLE:YES;
#LISTSORT:;
#BPMS:0.000=120.000,194.000=115.200,196.000=120.000;
#DISPLAYBPM:120.000;
#STOPS:;
#BGCHANGES:;
#ATTACKS:;

//---------------dance-single - ----------------
#NOTES:
     dance-single:
     :
     Easy:
     4:
     0.275,0.266,0.110,0.103,0.000:
0000
0000
0000
0000
,
0000
0000
0000
0000
,
0000
0000
0000
0000
,
0100
0010
1000
0100
,
1000
0001
0100
0010
,
0100
0100
0100
0010
,
1000
0001
0010
0001
,
0010
0010
0010
1000
,
0010
0001
0100
0010
,
2000
3100
0100
0010
,
0001
1000
0100
0010
,
0002
0103
0010
0100
,
0010
1000
0001
0010
,
0200
0310
0001
1000
,
0001
0100
0010
1000
,
0200
0310
0100
0010
,
0002
2003
3100
0000
,
0110
0010
1000
0001
,
0100
0001
1000
0100
,
0010
0100
2000
3000
,
0001
0100
0001
1000
,
0010
0100
0010
1000
,
0100
0010
0001
1000
,
0001
0100
0020
0030
,
0100
0001
1000
0001
,
0110
0000
0001
1000
,
1001
0000
1000
0100
,
0110
0000
0001
0100
,
1100
0000
0010
1000
,
0101
0000
0010
0100
,
0011
0000
0010
0100
,
1001
0000
0010
0001
,
1010
0000
0100
0100
,
0010
1000
0100
0001
,
0100
0010
0001
0100
,
0010
1000
1000
0100
,
1000
0010
0100
0001
,
0020
0031
0100
0010
,
0100
0010
1000
0001
,
0100
0010
1000
0100
,
0010
0000
0001
0001
,
1001
0020
0100
0100
,
1030
0100
0001
0000
,
0010
0001
0100
0010
,
1000
0100
0010
0000
,
0001
2000
0000
0100
,
0010
0100
3010
0100
,
0001
0010
0100
0010
,
0001
1000
2002
3003
,
0100
0010
1000
0100
,
0010
0001
0100
0001
,
0010
0100
1000
0001
,
0100
0010
1000
0001
,
1000
0100
0010
0001
,
0100
0010
1000
0100
,
0010
0001
0100
1000
,
0010
0100
0001
1000
,
1001
0010
0100
0010
,
1000
0100
0010
0100
,
1001
0010
0100
0001
,
0010
0100
1000
0010
,
1001
0100
1000
0010
,
0100
0001
0010
1000
,
1001
0010
0001
0100
,
0001
0000
1000
0100
,
0020
0000
0000
0030
;

//---------------dance-single - Copied from----------------
#NOTES:
     dance-single:
     Copied from:
     Beginner:
     1:
     0.078,0.120,0.052,0.015,0.000:
0000
0000
0000
0000
,
0000
0000
0000
0000
,
0000
0000
0000
0000
,
1000
0000
0000
0000
,
1000
0000
0000
0000
,
0001
0000
0000
0000
,
0010
0000
0000
0000
,
0001
0000
0000
0000
,
0200
0000
0300
0000
,
1001
0000
0000
0000
,
0010
0000
0000
0000
,
1001
0000
0000
0000
,
0100
0000
0000
0000
,
0110
0000
0000
0000
,
0001
0000
0000
0000
,
0110
0000
0000
0000
,
1000
0000
0000
0000
,
1000
0000
0000
0000
,
0001
0000
0000
0000
,
0100
0000
0100
0000
,
0010
0000
0000
0000
,
1000
0000
0000
0000
,
0001
0000
0000
0000
,
0001
0000
0010
0000
,
0100
0000
0000
0000
,
1000
0000
0000
0000
,
0001
0000
0000
0000
,
0010
0000
0000
0000
,
0100
0000
0000
0000
,
0001
0000
0000
0000
,
0001
0000
0000
0000
,
1000
0000
0000
0000
,
0100
0000
0000
0000
,
0010
0000
0000
0000
,
0100
0000
0000
0000
,
0001
0000
0000
0000
,
0100
0000
0000
0000
,
0020
0030
0000
0000
,
1000
0000
0000
0000
,
0100
0000
0000
0000
,
0010
0000
0000
0000
,
1001
0000
0000
0000
,
0001
0000
0000
0000
,
1000
0000
0000
0000
,
0100
0000
0000
0000
,
0110
0000
0000
0000
,
0010
0000
0000
0000
,
0001
0000
0000
0000
,
1000
0000
0000
0000
,
0010
0000
0000
0000
,
0100
0000
0000
0000
,
0001
0000
0000
0000
,
1000
0000
0000
0000
,
0100
0000
0000
0000
,
0010
0000
0000
0000
,
0100
0000
0000
0000
,
0001
0000
0000
0000
,
0010
0000
0000
0000
,
1000
0000
0000
0000
,
0001
0000
0000
0000
,
0100
0000
0000
0000
,
0100
0000
0000
0000
,
0010
0000
0000
0000
,
0100
0000
0000
0000
,
0001
0000
0000
0000
,
1001
0000
0000
0000
;

//---------------dance-single - Copied from----------------
#NOTES:
     dance-single:
     Copied from:
     Medium:
     5:
     0.344,0.363,0.258,0.066,0.011:
0000
0000
0000
0000
,
0000
0000
0000
0000
,
0000
0000
0000
0000
,
0001
0000
0100
0000
0001
1000
0100
0000
,
0010
0000
0100
0000
0010
0010
0010
0000
,
1001
0000
1000
0000
0100
0000
1000
0010
,
0100
0000
0001
0000
0010
0000
0001
1000
,
0100
0000
0010
0000
0100
0000
0010
1000
,
0001
0000
0100
0000
0010
0000
0010
0010
,
1001
1001
0010
0100
,
0001
1000
0100
0010
,
1100
1100
0001
0100
,
1000
0000
0100
0000
0010
1000
0100
0000
,
0011
0011
0001
0100
,
0001
1000
0100
0010
,
1001
0110
0001
0100
,
1000
0000
0000
0000
0000
0001
0001
0000
,
0001
1000
0100
0010
,
0100
1000
0001
0100
,
0001
0010
0010
0000
0001
0100
1000
0000
,
0100
0010
1000
0001
,
1000
0100
0010
0100
,
1000
0001
0100
0001
,
1000
0010
0010
0000
0100
0001
0010
0000
,
0100
0010
0001
1000
,
1001
0000
0000
0001
0000
1000
0110
0000
,
1001
0000
0000
1000
0000
0100
0110
0000
,
1001
0000
0000
0010
0000
0001
0110
0000
,
1001
0000
0000
0001
0000
1000
0110
0000
,
1100
0000
0000
0100
0000
0010
0011
0000
,
0101
0000
0000
0001
0000
1000
1010
0000
,
1100
0000
0000
0100
0000
0010
0011
0000
,
0101
0000
0000
0000
0000
0000
0000
0000
0000
1000
0000
0000
0000
0000
1000
0000
0000
0000
1000
0000
0000
0000
0000
0000
,
0100
0000
0010
0000
0100
0010
0001
0000
,
1000
0000
0001
0000
0100
0001
1000
0000
,
0100
0100
0100
1000
,
0010
1000
0001
0000
0010
0001
1000
0000
,
0200
2000
0300
3000
0100
0000
0010
0000
,
0001
0000
1000
0000
0001
0000
0100
0001
,
0010
0100
1000
0001
,
1001
0000
0000
0000
0000
0000
0000
0000
0000
0100
0000
0000
0000
0000
0010
0000
0000
0000
0100
0000
0000
0000
0000
0000
,
1001
0200
0001
0010
,
0001
0000
0010
0000
0001
0001
0300
0000
,
0001
0000
1000
0100
1000
0000
0010
0000
,
0100
0000
0001
0010
0001
0000
0100
0000
,
1001
0200
1000
0010
,
1000
0000
1000
0000
0010
0010
0300
0000
,
0100
0000
1000
0000
0001
0100
0001
0000
,
1000
0100
1000
0000
0010
0200
0000
0000
,
0310
0100
0001
0000
1000
0100
1000
0000
,
0010
0100
0001
1000
,
0100
1000
0100
0000
0001
0100
0001
0000
,
0010
0100
1000
0010
,
0100
0001
0100
0000
0100
1000
0100
0000
,
0010
0100
0001
1000
,
0010
1000
0010
0000
0100
0001
0100
0000
,
0002
2003
3020
0130
,
1001
0000
0100
0001
0000
1000
0100
0000
,
1001
0000
0010
1000
0000
0100
0010
0000
,
1001
0000
0010
0001
0000
0100
1000
0000
,
0110
0000
1000
0001
0000
1000
0001
0000
,
0110
0000
0001
0010
0000
0100
1000
0000
,
1001
0000
1000
0001
0000
1000
0010
0000
,
1100
0000
1000
0001
0000
0001
0100
0000
,
1001
0000
0000
0000
0000
0000
0000
0000
0000
0001
0000
0000
0000
0000
1000
0000
0000
0000
0001
0000
0000
0000
0000
0000
,
0200
0000
0000
0300
;

//---------------dance-single - Copied from----------------
#NOTES:
     dance-single:
     Copied from:
     Hard:
     7:
     0.407,0.387,0.169,0.022,0.202:
0000
0000
0000
0000
,
0000
0000
0000
0000
,
0000
0000
0000
0000
,
1000
0000
0000
0000
1001
0000
0000
0010
0000
0010
0000
0000
0001
0000
0100
0000
,
1000
0000
0100
0000
0100
0000
0000
0010
0000
1000
0000
0000
0001
0000
1000
0000
,
0001
0000
0000
0000
1000
0000
0000
0100
0000
0010
0000
0000
0010
0000
0100
0000
,
0010
0000
0001
0000
1000
0000
0000
0001
0000
0100
0000
0000
0100
0000
0010
0000
,
1010
0000
0000
0000
1000
0000
0000
1000
0000
0100
0000
0000
0010
0000
0001
0000
,
1000
0000
1000
0000
0001
0000
0000
0100
0000
0001
0000
0000
0010
0000
0100
0000
,
1000
0000
1001
0000
0010
0100
0010
0000
,
1000
0001
1000
0000
0001
0010
0001
0000
,
0100
0000
1001
0000
0010
0001
0010
0000
,
0100
1000
0100
0000
1000
0010
1000
0000
,
0001
0000
1100
0000
0001
0100
0001
0000
,
1000
0010
1000
0000
0100
0010
0100
0000
,
1000
0000
0011
0000
0100
0001
1000
0000
,
0001
1000
0001
0000
1000
0010
0010
0100
,
0110
0000
0010
0000
0000
1000
0000
0000
0001
0000
0100
0000
0000
0001
0000
0000
,
1000
0000
0100
0000
0000
0100
0000
0000
0010
0000
0100
0000
0000
0010
0000
0000
,
1000
0000
0001
0000
0000
0100
0000
0000
0001
0000
0010
0000
0000
0100
0000
0000
,
1000
0010
0100
0001
1000
0100
1000
0100
,
0010
0000
0100
0000
0000
0001
0000
0000
1000
0000
0100
0000
0000
0010
0000
0000
,
0001
0000
1000
0000
0000
0001
0000
0000
0100
0000
0010
0000
0000
1000
0000
0000
,
0100
0000
1000
0000
0000
0010
0000
0000
0100
0000
0010
0000
0000
1000
0000
0000
,
0001
0010
0100
1000
0010
0100
0001
0000
,
1001
0000
0000
0100
0000
0100
0010
0100
,
0001
0000
0000
1000
0000
0100
1000
0010
,
1000
0000
0000
0100
0000
0010
0001
0010
,
0001
0000
0000
1000
0000
1000
0001
0010
,
0100
0000
0000
0010
0000
0001
1000
0001
,
0010
0000
0000
0001
0000
1000
0100
1000
,
0010
0000
0000
0100
0000
0001
1000
0001
,
0100
0000
0000
0000
0000
0000
0000
0000
0000
0010
0000
0000
0000
0000
0010
0000
0000
0000
1001
0000
0000
0000
0000
0000
,
0100
0001
1000
0100
1000
0010
0100
0000
,
0001
1000
0001
0000
0010
0001
0100
0000
,
0010
0100
0001
0010
0100
1000
0010
0000
,
0100
0001
1000
0000
0100
1000
0010
0000
,
0000
0001
1000
0001
0000
0000
0100
0000
0000
0000
0100
0000
0000
0000
0000
0000
,
0001
0000
0000
1000
0000
0100
0010
0000
,
0100
0000
0000
0010
0000
0001
0000
0000
,
1000
0000
0000
0000
0000
0000
0000
0000
0000
1001
0000
0000
0000
0000
1001
0000
0000
0000
1001
0000
0000
0000
0000
0000
,
0110
0000
0001
0000
0100
1000
0100
0000
,
0010
0001
1000
0100
0010
0100
0000
0000
,
0010
0001
1000
0000
0100
1000
0010
0000
,
0100
0001
1000
0001
0100
0000
1001
0000
,
0010
0000
1000
0100
1000
0000
0010
0100
,
0001
0000
0100
0001
1000
0001
0100
0000
,
1000
0100
0010
0000
0001
0010
0100
0000
,
1000
0001
0000
0000
0010
0000
0000
0001
0000
0000
2000
0000
0000
0000
0000
0000
,
3010
0000
0100
0000
0000
0001
0000
0000
0010
0000
0100
0000
0000
0010
0000
0000
,
0001
0000
1000
0000
0000
0010
0000
0000
0100
0000
0001
0000
0000
0100
0000
0000
,
1000
0000
0100
0000
0000
0010
0000
0000
0001
0000
1000
0000
0000
0010
0000
0000
,
0100
0001
1000
0001
0010
0100
1000
0000
,
1001
0000
0100
0000
0000
0001
0000
0000
0010
0000
0001
0000
0000
1000
0000
0000
,
0100
0000
0010
0000
0000
0100
0000
0000
1000
0000
0010
0000
0000
0100
0000
0000
,
0001
0000
1000
0000
0000
0001
0000
0000
0100
0000
0010
0000
0000
1000
0000
0000
,
0001
0100
0010
1000
0010
0100
0001
0000
,
1001
0000
0010
0000
0000
0001
0000
0000
0100
0000
0010
0000
0000
1000
0000
0000
,
0100
0000
0010
0000
0000
0100
0000
0000
0010
0000
0001
0000
0000
0010
0000
0000
,
1010
0000
0010
0000
0000
0100
0000
0000
0001
0000
1000
0000
0000
0100
0000
0000
,
0010
0001
1000
0100
0010
0001
1000
0001
,
1100
0000
0100
0000
0000
0010
0000
0000
0100
0000
0010
0000
0000
0001
0000
0000
,
1000
0000
0001
0000
0000
0100
0000
0000
0001
0000
1000
0000
0000
0100
0000
0000
,
1001
0000
0100
0000
0000
0010
0000
0000
1000
0000
0100
0000
0000
0010
0000
0000
,
0001
0000
0000
0000
0000
0000
0000
0000
0000
1001
0000
0000
0000
0000
0110
0000
0000
0000
1001
0000
0000
0000
0000
0000
,
2002
0000
0000
3003
;

//---------------dance-single - Copied from ----------------
#NOTES:
     dance-single:
     Copied from:
     Challenge:
     9:
     0.577,0.557,0.390,0.037,0.431: // measure 1
0000
0000
0000
0000
,  // measure 2
0000
0000
0000
0000
,  // measure 3
0000
0000
0000
0000
,  // measure 4
0011
0000
0000
0000
0001
0000
0000
1000
0000
0001
0000
0000
0100
0000
0010
0000
,  // measure 5
1000
0000
0100
0000
0010
0000
0000
0100
0000
0010
0000
0000
0001
0000
1000
0000
,  // measure 6
1001
0000
0000
0000
0001
0000
0000
0100
0000
0010
0000
0000
1000
0000
0001
0000
,  // measure 7
0100
0000
0001
0000
1000
0000
0000
0100
0000
0010
0000
0000
0001
0000
0100
0000
,  // measure 8
1001
0000
0000
0000
0001
0000
0000
0100
0000
0010
0000
0000
1000
0000
0100
0000
,  // measure 9
0010
0000
0100
0000
0010
0000
0000
0001
0000
1000
0000
0000
0001
0000
0010
0000
,  // measure 10
0101
0000
0000
0001
0100
0000
0000
0010
0000
1000
0000
0000
0010
0000
0100
0000
,  // measure 11
0001
0000
1000
0000
1000
0000
0000
0100
0000
1000
0000
0000
0010
0000
0100
0000
,  // measure 12
0110
0000
0000
0010
1000
0000
0000
0100
0000
0010
0000
0000
0100
0000
0010
0000
,  // measure 13
0001
0000
1000
0000
0001
0000
0000
0100
0000
0001
0000
0000
0010
0000
0001
0000
,  // measure 14
0101
0000
0000
0001
0010
0000
0000
0001
0000
0100
0000
0000
0010
0000
0100
0000
,  // measure 15
0010
0000
1000
0000
0001
0000
0000
1000
0000
1000
0000
0000
0100
0000
1000
0000
,  // measure 16
1010
0000
0000
0100
0010
0000
0000
1000
0000
0100
0000
0000
0010
0000
0001
0000
,  // measure 17
0100
0000
0001
0000
1000
0001
0000
1000
0000
0000
0100
0000
0101
0000
0001
0000
,  // measure 18
1001
0000
0001
0000
1000
0100
0000
1000
0100
0000
0010
0000
0100
0010
0000
0100
,  // measure 19
0010
0000
0001
0000
0100
0001
0000
0100
0001
0000
0010
0000
0100
1000
0000
0100
,  // measure 20
1000
0000
0100
0000
0010
0100
0000
0010
0100
0000
0001
0000
0010
0100
0000
1000
,  // measure 21
0100
0010
0001
1000
0001
0100
0010
1000
,  // measure 22
1001
0000
0001
0000
0010
0100
0000
0010
0100
0000
1000
0000
0001
0100
0000
0001
,  // measure 23
0100
0000
1000
0000
0010
0100
0000
0010
0100
0000
0010
0000
1000
0100
0000
1000
,  // measure 24
0100
0000
0010
0000
0001
1000
0000
0001
1000
0000
0100
0000
1000
0010
0000
1000
,  // measure 25
0010
0100
0001
1000
0100
0010
0001
0100
,  // measure 26
1001
0001
0100
0101
0000
0101
1000
0010
,  // measure 27
0110
1000
0100
0110
0000
0110
0010
0001
,  // measure 28
1001
0100
1000
1010
0000
1010
1000
0100
,  // measure 29
0110
0010
0001
0101
0000
0011
0001
0100
,  // measure 30
0101
1000
0100
0110
0000
1001
0010
0001
,  // measure 31
0101
1000
0100
1100
0000
1010
0010
0100
,  // measure 32
1001
0100
0010
0101
0000
1010
0100
0010
,  // measure 33
1001
0000
0000
0000
0000
0000
0000
0000
0000
1001
0000
0000
0000
0000
0011
0000
0000
0000
1100
0000
0000
0000
0000
0000
,  // measure 34
1000
0001
0100
0001
0010
0100
1000
0010
,  // measure 35
0100
0001
1000
0001
0100
0001
1000
0000
,  // measure 36
0001
0010
0100
0010
0001
1000
0100
0010
,  // measure 37
0100
1000
0100
0010
0100
0010
0001
1000
,  // measure 38
0001
1000
0001
1000
0100
0000
0010
0000
0100
0000
1000
0000
0010
0000
0000
0000
,  // measure 39
0100
0001
0010
0100
0010
0001
1000
0000
,  // measure 40
0001
0100
1000
0100
0001
0010
0100
0000
,  // measure 41
1001
0000
0000
0010
0000
0000
0001
0000
0000
1001
0000
0000
0000
0000
1010
0000
0000
0000
1001
0000
0000
0000
0000
0000
,  // measure 42
0100
0010
0120
0000
1000
0001
1000
0000
,  // measure 43
0100
0100
0001
0100
1000
0130
0110
0000
,  // measure 44
0001
1000
0001
0100
0001
1000
0100
1000
,  // measure 45
0010
0100
0010
0010
1000
0100
1100
0000
,  // measure 46
1001
0100
0120
0000
1000
0001
1000
0000
,  // measure 47
1000
0100
1000
0001
0100
0001
1000
0130
,  // measure 48
1001
0000
0100
0010
0100
0000
0001
1000
,  // measure 49
0001
0100
0000
0000
0001
0000
0000
1000
0000
0000
0020
0000
0000
0000
0000
0000
,  // measure 50
0130
0000
0001
0000
1000
0100
0000
1000
0100
0000
0010
0000
0001
0100
0000
0001
,  // measure 51
0100
0000
0010
0000
1000
0010
0000
1000
0010
0000
0100
0000
0001
1000
0000
0001
,  // measure 52
1000
0000
0001
0000
0010
0001
0000
0010
0001
0000
0100
0000
0001
0100
0000
0001
,  // measure 53
0100
0010
1000
0100
0010
0001
0100
0101
,  // measure 54
1001
0000
1000
0000
0100
1000
0000
0100
1000
0000
1000
0000
0001
0010
0000
0001
,  // measure 55
0010
0000
0001
0000
0100
0010
0000
0100
0010
0000
1000
0000
0100
0010
0000
0100
,  // measure 56
0010
0000
0001
0000
1000
0001
0000
1000
0001
0000
0010
0000
0001
0100
0000
0001
,  // measure 57
0100
0010
0000
1000
0100
0000
0010
0001
0000
1000
0001
0000
1000
0001
1000
0001
,  // measure 58
1000
0000
0100
0000
1000
0010
0000
0100
0001
0000
0010
0000
0001
0100
0000
0010
,  // measure 59
1000
0000
0100
0000
0001
0010
0000
0100
1000
0000
0010
0000
0100
0001
0000
1000
,  // measure 60
0010
0000
0100
0000
0001
1000
0000
0100
1000
0000
0010
0000
0100
0001
0000
0010
,  // measure 61
0001
0100
0010
1000
0001
0100
0010
0110
,  // measure 62
1001
0000
0001
0000
0100
0001
0000
1000
0100
0000
1000
0000
0010
1000
0000
0010
,  // measure 63
0100
0000
0001
0000
1000
0100
0000
0010
0001
0000
0100
0000
0001
0010
0000
0001
,  // measure 64
0100
0000
0010
0000
1000
0001
0000
0100
0001
0000
0010
0000
0001
1000
0000
0001
,  // measure 65
0100
0000
0000
0000
0000
0000
0000
0000
0000
1001
0000
0000
0000
0000
1100
0000
0000
0000
1010
0000
0000
0000
0000
0000
,  // measure 66
0022
0000
0000
0000
0000
0000
0000
0000
0000
0000
0000
0000
0000
0000
0000
0000
0000
0000
0000
0000
0000
0000
0000
0000
0000
0000
0000
0000
0000
0000
0000
0000
0000
0000
0000
0000
0000
0000
0000
0000
0000
0000
0000
0000
0000
0000
0000
0000
0000
0000
0000
0000
0000
0000
0000
0000
0000
0000
0000
0000
0000
0000
0000
0000
0000
0000
0000
0000
0000
0000
0000
0000
0000
0000
0000
0000
0000
0000
0000
0000
0000
0000
0000
0000
0000
0000
0000
0000
0000
0000
0000
0000
0000
0000
0000
0000
0000
0000
0000
0000
0000
0000
0000
0000
0000
0000
0000
0000
0000
0000
0000
0000
0000
0000
0000
0000
0000
0000
0000
0000
0000
0000
0000
0000
0000
0000
0000
0000
0000
0000
0000
0000
0000
0000
0000
0000
0000
0000
0000
0000
0000
0000
0000
0000
0000
0033
0000
0000
0000
0000
0000
0000
0000
0000
0000
0000
0000
0000
0000
0000
0000
0000
0000
0000
0000
0000
0000
0000
0000
0000
0000
0000
0000
0000
0000
0000
0000
0000
0000
0000
0000
0000
0000
0000
0000
0000
0000
0000
0000
0000
0000
0000
;
