#TITLE:journey of a kite;
#SUBTITLE:;
#ARTIST:John Reynoso;
#TITLETRANSLIT:;
#SUBTITLETRANSLIT:;
#ARTISTTRANSLIT:;
#GENRE:;
#CREDIT:;
#MENUCOLOR:;
#NEWMETERSYSTEM:NO;
#BANNER:journey of a kite-bn.png;
#BACKGROUND:journey of a kite-bg.png;
#LYRICSPATH:;
#CDTITLE:MixMania 4 CD Title.png;
#MUSIC:journey of a kite.mp3;
#OFFSET:-0.040;
#SAMPLESTART:29.240;
#SAMPLELENGTH:12.000;
#SELECTABLE:YES;
#LISTSORT:;
#BPMS:0.000=115.000;
#STOPS:;
#BGCHANGES:;
#ATTACKS:;

//---------------dance-single - ----------------
#NOTES:
     dance-single:
     :
     Easy:
     2:
     0.163,0.188,0.050,0.125,0.000:
0000
0000
0000
0000
,
0000
0000
0000
0000
,
2002
0000
0000
0000
,
3003
0000
0000
0000
,
0220
0000
0000
0330
,
0001
0000
1000
0001
,
0100
0000
0000
0010
,
0010
1000
1000
0000
,
0100
0000
0000
0010
,
0001
0010
0100
0000
,
0100
0000
0000
0010
,
1000
0100
0010
0000
,
0001
0000
0000
1000
,
0001
0100
1000
0100
,
0001
0000
1000
0000
,
0100
0000
0010
0000
,
0001
0000
0100
0000
,
0001
0000
1000
0000
,
0100
0000
0010
0000
,
0100
0000
1000
0000
,
0001
0000
0010
0000
,
0100
0000
0010
0000
,
0001
0000
0100
0000
,
0010
0000
1000
0000
,
0100
0000
0010
0000
,
2002
0000
3003
0000
,
0220
0000
0330
0000
,
1000
0000
0100
0000
,
0020
0000
0030
0000
,
0001
0000
0100
0000
,
0110
0000
0000
1000
,
0100
0000
0010
0002
,
0103
0000
0000
0010
,
0020
0000
0100
0000
,
0130
0000
0000
0010
,
1000
0000
0100
0000
,
0010
0000
0000
0001
,
0100
0000
0010
0000
,
1000
0000
0000
1000
,
0100
0000
0001
0000
,
0100
0000
0000
1000
,
0010
0000
0000
0100
,
0001
0000
0010
0100
,
1000
0000
0001
1000
,
0100
0000
0010
0100
,
0010
0000
0001
1000
,
0001
0000
0100
0010
,
1000
0000
0100
0010
,
0100
0000
0010
0001
,
1000
0000
0001
0100
,
1000
0000
1000
0100
,
0001
0000
0010
0100
,
0010
0000
0001
1000
,
0200
0000
0000
0000
,
0020
0000
0000
0330
,
2002
0000
0000
0000
,
0000
0000
3003
0000
;

//---------------dance-single - Copied from----------------
#NOTES:
     dance-single:
     Copied from:
     Beginner:
     1:
     0.093,0.117,0.075,0.125,0.000:
0000
0000
0000
0000
,
0000
0000
0000
0000
,
1001
0000
0000
0000
,
0000
0000
0000
0000
,
1001
0000
0000
0000
,
0100
0000
0100
0000
,
0100
0000
0000
0000
,
0001
0000
0000
0000
,
1000
0000
0000
0000
,
0100
0000
0000
0000
,
1000
0000
0000
0000
,
0010
0000
0000
0000
,
0100
0000
0000
0000
,
0001
0000
0000
0000
,
0011
0000
0000
0000
,
0100
0000
0000
0000
,
1010
0000
0000
0000
,
0001
0000
0000
0000
,
1001
0000
0000
0000
,
0010
0000
0000
0000
,
1010
0000
0000
0000
,
0100
0000
0000
0000
,
0110
0000
0000
0000
,
1000
0000
0000
0000
,
0110
0000
0000
0000
,
0002
0000
0003
0000
,
2000
0000
0000
0000
,
3000
0000
0000
0000
,
0100
0000
0000
0000
,
0010
0000
0000
0000
,
0001
0000
0000
1000
,
1000
0000
0000
0000
,
0100
0000
0000
0000
,
0010
0000
0000
0000
,
0002
0000
0003
0000
,
0001
0000
0000
0000
,
0200
0000
0300
0000
,
0100
0000
0000
0000
,
0020
0000
0030
0000
,
0010
0000
0000
0000
,
2000
0000
3000
0000
,
2000
0000
3000
0000
,
0200
0000
0300
0000
,
0100
0000
0000
0000
,
0020
0000
0030
0000
,
0010
0000
0000
0000
,
0002
0000
0003
0000
,
0001
0000
0000
0000
,
2000
0000
3000
0000
,
1000
0000
0000
0000
,
0200
0000
0300
0000
,
0100
0000
0000
0000
,
0020
0000
0030
0000
,
0010
0000
0000
0000
,
0010
0000
0000
0000
,
0220
0000
0000
0000
,
0330
0000
0000
0000
;

//---------------dance-single - Copied from----------------
#NOTES:
     dance-single:
     Copied from:
     Medium:
     4:
     0.282,0.306,0.275,0.075,0.046:
0000
0000
0000
0000
,
0000
0000
0000
0000
,
0020
0000
1000
0000
,
1000
0000
1000
0030
,
2001
0000
0000
0100
,
3100
0000
0000
0000
1000
0001
1000
0001
,
0110
0000
0000
0001
0000
0000
0001
0000
,
1000
0001
1000
1010
,
0101
0000
0000
1000
0000
0000
1000
0000
,
0100
0010
0001
0101
,
1001
0000
0000
0010
0000
0000
0100
0000
,
0010
1000
0100
0010
,
0001
0000
0000
0001
0000
0000
0100
0000
,
0010
0000
1000
0000
0001
0000
0100
0100
,
0010
0000
0000
0010
0000
0000
0010
0000
,
1000
0001
1000
0100
,
0010
0000
0000
0100
0000
0000
1000
0000
,
0001
1000
0001
0100
,
0010
0000
0000
0001
0000
0000
0001
0000
,
1000
0000
0000
1000
0000
0000
0100
0000
,
0010
0000
0000
0100
0000
0000
0010
0000
,
0001
1000
0001
1000
,
0010
0000
0000
0100
0000
0000
0010
0000
,
1000
0100
0010
0001
,
1000
0000
0000
0100
0000
0000
0010
0000
,
0120
0000
0100
0000
,
0031
0000
0001
0000
0100
0000
0100
0010
,
1000
1000
0100
0100
,
1001
0000
0001
0000
0010
0000
0010
0001
,
0100
0100
0010
0010
,
1001
0000
1000
0000
0100
1000
1000
0100
,
0100
0000
0010
0000
0001
0000
1000
0001
,
0001
0000
1000
0000
0010
0000
0100
0010
,
1000
0100
0010
0001
,
1001
0000
0000
0010
0000
0000
1001
0000
,
0200
0000
0020
0330
,
1001
0000
0000
0010
0000
0000
1001
0000
,
0100
0000
0000
0001
0000
0000
1000
0000
,
1100
0000
0000
0010
0000
0000
1100
0000
,
0001
0000
0000
0000
1000
0001
0100
1000
,
0101
0000
0000
0010
0000
0000
0101
0000
,
0011
0000
0000
0100
0000
0000
0011
0000
,
1000
0000
0000
0001
0000
0000
0100
0000
0000
0000
0000
0000
1001
0000
0000
0000
,
0100
0000
0000
0010
0000
0000
0100
0000
0000
0000
0000
0000
1100
0000
0000
0000
,
0010
0000
0000
1000
0000
0000
0100
0000
0000
0000
0000
0000
1001
0000
0000
0000
,
0010
0000
0000
0100
0000
0000
0001
0000
0000
0000
0000
0000
0011
0000
0000
0000
,
0001
0000
0000
1000
0000
0000
1000
0000
0000
0000
0000
0000
1010
0000
0000
0000
,
0100
0000
0000
0010
0000
0000
0100
0000
0000
0000
0000
0000
0101
0000
0000
0000
,
0010
0000
0000
0001
0000
0000
0100
0000
0000
0000
0000
0000
1001
0000
0000
0000
,
0010
0000
0000
1000
0000
0000
0100
0000
0000
0000
0000
0000
0110
0000
0000
0000
,
1000
0000
0000
0100
0000
0000
0001
0000
0000
0000
0000
0000
1001
0000
0000
0000
,
0001
0000
0000
0100
0000
0000
1000
0000
0000
0000
0000
0000
1001
0000
0000
0000
,
0100
0000
0000
0010
0000
0000
0100
0000
0000
0000
0000
0000
0010
0000
0000
0000
,
1002
0100
0103
1001
,
2000
0001
3001
1001
,
2200
0000
0000
0000
,
0000
0000
3300
0000
;

//---------------dance-single - Copied from----------------
#NOTES:
     dance-single:
     Copied from:
     Hard:
     6:
     0.347,0.400,0.200,0.058,0.225:
0000
0000
0000
0000
,
0000
0000
0000
0000
,
0120
0000
0000
0000
,
2030
0000
0100
3100
,
1001
0000
0001
0000
1000
0001
1000
0001
,
0110
0000
0000
0000
0010
1000
0100
0010
,
0001
0000
0000
1000
0000
0000
0100
0000
,
0010
0000
0100
0000
0010
1000
1001
0000
,
0001
0000
0000
1000
0000
0000
0100
0000
,
0010
0000
0100
0000
0010
0001
1000
0000
,
0011
0000
0000
0100
0000
0000
0001
0000
,
1000
0000
0010
0000
1000
0100
0001
0000
,
1001
0000
0000
1000
0000
0000
0001
0000
,
0010
0000
0001
0000
0100
0010
1000
0000
,
1100
0000
0000
0010
0000
0000
0001
0000
0000
0100
0000
0000
0010
0000
0000
0000
,
0001
0000
0000
0100
0000
0000
0001
0000
0000
1000
0000
0000
0100
0000
0000
0000
,
0010
0000
0000
0010
0000
0000
1000
0000
0000
0100
0000
0000
0010
0000
0000
0000
,
0001
0000
0000
0100
0000
0000
0001
0000
0000
1000
0000
0000
0100
0000
0100
0000
,
0010
0000
0000
0001
0000
0000
1000
0000
0000
0010
0000
0000
0100
0000
0000
0000
,
0001
0000
0000
0001
0000
0000
0100
0000
0000
1000
0000
0000
0100
0000
0000
0000
,
0010
0000
0000
1000
0000
0000
0100
0000
0000
1000
0000
0000
0001
0000
0000
0000
,
0010
0000
0000
0001
0000
0000
1000
0000
0000
0000
1000
0000
0010
0000
0000
0000
,
0100
0000
0000
0001
0000
0000
0001
0000
0000
1000
0000
0000
0100
0000
0000
0000
,
1000
0000
0010
0000
0100
0001
0010
0000
,
0001
0000
0000
0100
0000
0000
1000
0000
0000
0100
0000
0000
0010
0000
0000
0000
,
2001
0100
0001
3100
,
1001
0000
0010
0000
0010
0000
0010
0001
,
0100
0000
0000
0001
0000
0000
0000
0000
1000
0000
0001
0000
1000
0000
0000
0000
,
1100
0000
0001
0000
0100
0000
0001
1000
,
0001
0100
0001
0010
,
0110
0000
0001
0000
1000
0001
0001
1000
,
1000
0100
0000
0000
0010
0000
0000
0000
0100
0000
0010
0000
0001
0010
0000
0000
,
1001
0000
0001
0000
0100
0000
0010
1000
,
0010
0000
0100
0001
0000
1000
0100
0000
,
0010
0000
0000
0010
0000
0000
0100
0000
0000
0001
0000
0000
1000
0000
0100
0000
,
0100
0000
0010
0110
,
0001
0000
0000
1000
0000
0000
0100
0000
0000
0010
0000
0000
0001
0000
1000
0000
,
0001
0000
0000
0001
0000
0000
0100
0000
0000
0000
0010
0000
1000
0000
0000
0000
,
1001
0000
0000
0100
0000
0000
1001
0000
0000
0010
0000
0000
1001
0000
0001
0000
,
0100
0000
0000
0000
0010
1000
0100
1000
,
1001
0000
0000
0100
0000
0000
1001
0000
0000
0010
0000
0000
1001
0000
0000
0000
,
0101
0000
0000
0010
0000
0000
1010
0000
0000
0100
0000
0000
0101
0000
0000
0000
,
1000
0000
0000
0001
0000
0000
0100
0000
0000
0010
0000
0000
1000
0000
0100
0000
,
0010
0000
0000
1000
0000
0000
0010
0000
0000
0100
0000
0000
0001
0000
0010
0000
,
0001
0000
0000
1000
0000
0000
1000
0000
0000
0001
0000
0000
0100
0000
0010
0000
,
1000
0000
0000
0100
0000
0000
0010
0000
0000
0000
0001
0000
0100
0000
0000
0000
,
0010
0000
0000
0010
0000
0000
1000
0000
0000
0001
0000
0000
0100
0000
0010
0000
,
1000
0000
0000
1000
0000
0000
0100
0000
0000
0010
0000
0000
0100
0000
0010
0000
,
0001
0000
0000
0001
0000
0000
1000
0000
0000
0001
0000
0000
0100
0000
0100
0000
,
0010
0000
0000
0100
0000
0000
0001
0000
0000
0000
1000
0000
0100
0000
0000
0000
,
1000
0000
0000
0001
0000
0000
0100
0000
0000
0010
0000
0000
1000
0000
0100
0000
,
1000
0000
0000
0001
0000
0000
0001
0000
0000
0010
0000
0000
0001
0000
0010
0000
,
0100
0000
0000
0001
0000
0000
1000
0000
0000
0001
0000
0000
0100
0000
0000
0000
,
2001
0000
0010
0000
,
3020
0000
0000
0000
0100
0000
0000
0000
0130
0000
0000
1000
0001
0000
0000
0000
,
2002
0000
0000
0000
,
0000
0000
3003
0000
;

//---------------dance-single - Copied from ----------------
#NOTES:
     dance-single:
     Copied from:
     Challenge:
     8:
     0.502,0.541,0.708,0.083,0.371: // measure 1
0000
0000
0000
0000
,  // measure 2
0000
0000
0000
0000
,  // measure 3
0012
0100
1000
0100
,  // measure 4
0010
0100
1000
0103
,  // measure 5
2100
0000
0000
0000
0010
0000
0000
0000
3100
0000
0001
1000
0001
1000
0001
0100
,  // measure 6
0001
0000
0000
0000
1000
0000
0000
0000
0001
0100
0001
0100
0010
1000
0010
0000
,  // measure 7
0110
0000
0000
0000
0000
0000
1000
0000
0000
0000
0000
0000
0100
0000
0010
0100
,  // measure 8
0010
0000
0001
0000
1000
0000
0001
0000
0100
0000
0000
0100
0010
0000
0100
0000
,  // measure 9
1001
0000
0000
0000
0000
0000
0001
0000
0000
0000
0000
0000
0100
0000
0010
1000
,  // measure 10
0010
0000
0100
0000
0001
0000
1000
0000
0100
0000
0000
0010
1000
0000
0100
0000
,  // measure 11
0110
0000
0000
0000
0000
0000
0001
0000
0000
0000
0000
0000
1000
0000
0100
1000
,  // measure 12
0010
0000
0100
0000
0001
0000
0010
0000
0001
0000
0000
0001
1000
0000
0010
0000
,  // measure 13
1001
0000
0000
0000
0000
0000
0100
0000
0000
0000
0000
0000
0010
0000
0001
1000
,  // measure 14
0001
0000
1000
0000
0100
0000
0010
0000
0001
0000
0000
1000
0010
0000
0100
0000
,  // measure 15
1001
0000
0000
0011
0000
0000
1001
0000
0000
1100
0000
0000
1001
0000
0000
1000
,  // measure 16
0100
0000
0100
0010
0000
0001
0010
0000
0100
0010
0000
0001
1000
0000
0001
0000
,  // measure 17
1010
0000
0000
0101
0000
0000
1100
0000
0000
1001
0000
0000
1001
0000
0000
0000
,  // measure 18
0100
0000
0000
0010
0000
0000
1000
0000
0000
0001
0000
0000
0100
0000
0100
0000
,  // measure 19
0011
0000
0000
1100
0000
0000
0110
0000
0000
0101
0000
0000
1100
0000
0000
0000
,  // measure 20
1000
0000
1000
0100
0000
0001
0100
0000
1000
0010
0000
1000
0001
0000
0000
0000
,  // measure 21
0101
0000
0000
1100
0000
0000
1010
0000
0000
0011
0000
0000
1001
0000
0010
0000
,  // measure 22
0100
0001
1000
0100
0100
0010
0001
1000
,  // measure 23
1001
0000
0000
0011
0000
0000
1100
0000
0000
0011
0000
0000
1001
0000
0001
0000
,  // measure 24
1000
0000
0100
0000
1000
0000
0001
0000
0100
0000
0001
0000
0010
0100
0010
0000
,  // measure 25
0001
1000
0000
0001
0000
0100
0000
0100
0001
1000
0001
0000
1001
0000
0000
0000
,  // measure 26
0110
0000
0000
0000
0010
0000
0000
0000
0010
0000
0000
0000
0010
1000
0000
0000
,  // measure 27
1001
0000
0100
0000
1000
0000
0001
0100
,  // measure 28
0002
0000
0000
2000
0000
0000
3003
0000
0100
0000
0000
0000
1000
0000
0000
0000
,  // measure 29
1001
0000
0000
0000
0010
0000
0000
0000
0001
0000
0000
0000
0100
0000
0001
1000
,  // measure 30
0001
0100
0001
1000
,  // measure 31
1001
0000
0000
0000
1000
0000
0000
0000
0100
0000
1000
0010
1000
0010
1000
0001
,  // measure 32
0100
0001
0000
0000
1000
0000
0000
0000
0001
0000
0100
0000
0001
1000
0000
0000
,  // measure 33
1001
0100
0010
0100
,  // measure 34
1001
0000
0000
0000
0100
0000
1000
0000
0000
0000
0000
0010
0100
0000
0000
0000
,  // measure 35
0001
0000
0000
0100
0000
0000
0001
0000
0000
1000
0000
0000
0010
0000
1000
0001
,  // measure 36
0100
0000
0100
0000
0020
0100
0100
0100
,  // measure 37
0130
0000
0000
0010
0000
0000
1000
0000
0000
0001
0000
0000
0100
0000
0100
0000
,  // measure 38
1000
0000
0000
0100
0000
0000
0001
0000
0000
0000
0100
0000
0010
0000
0000
0000
,  // measure 39
0101
0000
0000
0011
0000
0000
1100
0000
0000
1010
0000
0000
1001
0000
0100
0000
,  // measure 40
0020
0000
0000
0000
1000
0000
0000
0000
0130
0010
0100
0010
1000
0001
1000
0001
,  // measure 41
0100
0000
0000
0110
0000
0000
1001
0000
0000
0101
0000
0000
1010
0000
0000
0000
,  // measure 42
1100
0000
0000
1010
0000
0000
0101
0000
0000
0011
0000
0000
1001
0000
0000
0000
,  // measure 43
0110
0000
0000
0011
0000
0000
0110
0000
0000
1100
0000
0000
0110
0000
0000
0000
,  // measure 44
0100
0000
0000
1000
0000
0000
0001
0000
0000
1000
0000
0000
0100
0000
0000
0000
,  // measure 45
0101
0000
0000
1100
0000
0000
0101
0000
0000
0110
0000
0000
1100
0000
1000
0000
,  // measure 46
0100
0000
0000
0001
0000
0000
0100
0000
0000
0000
1000
0000
0010
0000
0000
0000
,  // measure 47
1001
0000
0000
1100
0000
0000
0110
0000
0000
0011
0000
0000
1001
0000
0000
0000
,  // measure 48
0001
0000
0000
0100
0000
0000
0010
0000
0000
1000
0000
0000
0100
0000
0010
0000
,  // measure 49
1001
0000
0000
1100
0000
0000
0011
0000
0000
0101
0000
0000
1001
0000
1000
0000
,  // measure 50
0001
0000
0000
0100
0000
0000
0010
0000
0000
0000
1000
0000
0100
0000
0000
0000
,  // measure 51
1100
0000
0000
0011
0000
0000
0101
0000
0000
1100
0000
0000
1010
0000
0000
0000
,  // measure 52
0110
0000
0000
0000
0001
0000
0000
0000
1000
0100
1000
0100
0010
0001
0010
0001
,  // measure 53
0100
0000
0000
1010
0000
0000
1001
0000
0000
0101
0000
0000
1001
0000
0000
0000
,  // measure 54
0102
0000
1000
0003
,  // measure 55
0210
0000
0000
0000
0010
0000
0000
0000
0310
0000
0000
0001
1000
0000
0000
0000
,  // measure 56
0220
0000
0000
0000
,  // measure 57
0000
0000
0330
0000
;
