#TITLE:You'll Say "NOW!";
#SUBTITLE:;
#ARTIST:BLACK STAR 幸広-YUKIHIRO-;
#TITLETRANSLIT:;
#SUBTITLETRANSLIT:;
#ARTISTTRANSLIT:BLACK STAR -YUKIHIRO-;
#GENRE:;
#CREDIT:;
#MENUCOLOR:#666666;
#NEWMETERSYSTEM:NO;
#BANNER:You'll Say NOW!-bn.png;
#BACKGROUND:You'll Say NOW!-bg.png;
#LYRICSPATH:;
#CDTITLE:MixMania 4 CD Title.png;
#MUSIC:You'll Say NOW!.mp3;
#OFFSET:-0.400;
#SAMPLESTART:18.960;
#SAMPLELENGTH:12.000;
#SELECTABLE:YES;
#LISTSORT:;
#BPMS:0.000=155.000,176.000=310.000;
#STOPS:176.000=1.540
;
#BGCHANGES:;
#ATTACKS:;

//---------------dance-single - ----------------
#NOTES:
     dance-single:
     :
     Easy:
     6:
     0.422,0.667,0.118,0.216,0.000:
0000
0000
0000
0000
,
0000
0000
0000
0000
,
0000
0000
0000
0000
,
1001
0000
0000
0000
,
0000
0000
0000
0000
0000
0000
0000
0010
,
0010
0000
0000
0000
,
0100
0000
0001
0000
,
1000
0100
0010
0100
,
0001
0100
1000
0001
,
0100
0001
0010
0010
,
1000
0010
0001
0100
,
2002
0000
0000
3003
,
0001
0100
0001
1000
,
0010
0000
0100
0000
0001
1000
0001
0000
,
0010
0100
0010
0001
,
1000
0000
0010
0000
1000
0100
1000
0000
,
0100
0010
0100
0001
,
0100
0000
1000
0000
0010
0100
0001
1000
,
0001
0100
0001
0010
,
0100
0010
0001
1001
,
1000
0000
0100
0000
1000
0010
0100
0001
,
1000
0000
0001
0000
0010
0001
0010
0100
,
0010
0000
0001
0000
1000
0100
1000
0100
,
0010
0000
0100
0000
1000
0010
0100
0010
,
1000
0000
0001
0000
0010
0001
0100
0010
,
0100
0000
0001
0000
1000
0001
0010
0100
,
0010
0000
0100
0000
1000
0100
0010
0001
,
1000
0000
0100
0000
0010
0100
1000
0001
,
0100
0001
0010
0001
,
0100
0010
1000
0100
,
0010
0010
0001
1000
,
0001
0100
0010
0110
,
0002
0203
0320
2030
,
3002
0203
2300
3200
,
0320
2030
3002
0203
,
0320
2030
3200
0320
,
0031
0000
0001
0000
0100
0001
0100
0000
,
1000
0000
0100
0000
0010
1000
0010
0000
,
0110
0101
1100
0011
,
1000
0100
1000
0100
0010
0010
0001
0000
,
0100
0000
0001
0000
1000
0010
1000
0000
,
0100
0000
0010
0001
0010
0000
0100
0000
,
1000
0000
0000
0100
0000
0000
0000
0000
,
0010
0000
0000
0002
0000
0000
2000
0000
,
3003
0000
0100
0000
,
0010
1000
0010
0000
,
0100
0000
0001
0000
,
1000
0100
0010
0000
,
0010
0000
0001
0000
,
1000
0000
0001
0000
,
0100
0001
0100
0010
,
1000
0010
1000
0000
,
0100
0000
0010
0000
,
0001
0000
1000
0000
,
0001
0100
0001
0000
,
1000
0100
1000
0000
,
0010
0100
0001
0000
,
1000
0100
0010
0000
,
0010
0100
1000
0001
,
0010
0100
1000
0000
,
0001
0100
0001
0000
,
1000
0100
1000
0000
,
0001
0010
0001
0000
,
1000
0010
1000
0000
,
0010
0100
0010
0000
,
1000
0001
1000
0000
,
0100
0010
0001
1000
,
0100
0010
0001
0000
,
0001
0100
0001
0000
,
1000
0100
1000
0000
,
0001
0010
0001
0000
,
1000
0010
1000
0000
,
0010
0100
0010
0100
,
0001
1000
0001
1000
,
0001
0000
0101
0000
,
1100
0000
1001
0000
,
0220
0000
0000
0000
,
0000
0000
0000
0000
,
0000
0000
0000
0000
,
0000
0000
0000
0000
,
0330
0000
0000
0000
;

//---------------dance-single - Copied from----------------
#NOTES:
     dance-single:
     Copied from:
     Beginner:
     3:
     0.233,0.393,0.177,0.049,0.000:
0000
0000
0000
0000
,
0000
0000
0000
0000
,
0000
0000
0000
0000
,
0110
0000
0000
0000
,
0000
0000
0000
0000
,
1001
0000
0000
0000
,
0010
0000
0000
0000
,
0100
0000
0010
0000
,
1000
1000
1000
0000
,
0001
0000
0010
0000
,
0001
0001
0000
0100
,
0200
0000
0300
0000
,
0011
0000
1000
0000
,
0001
0001
0001
0000
,
0100
0000
0010
0000
,
0100
0100
0100
0000
,
1000
0000
0001
0000
,
0010
0010
0010
0000
,
0001
0000
0010
0000
,
1000
1000
1000
0000
,
0001
0000
0100
0000
,
0001
0000
1000
0000
,
0010
0000
1000
0000
,
0100
0000
0010
0000
,
0001
0000
1000
0000
,
0010
0000
0100
0000
,
0001
0000
0010
0000
,
0001
0001
0001
0000
,
1000
0000
0100
0000
,
0100
0000
1000
0000
,
0010
0000
0100
0000
,
0001
0000
0010
0000
,
0001
0000
1000
0000
,
0010
0000
0100
0000
,
0001
0000
0001
0000
,
0100
0000
0001
0000
,
1001
0000
1010
0000
,
1001
0000
0101
0000
,
0110
0000
1010
0000
,
0011
0000
1100
0000
,
0011
0000
1010
0000
,
1100
0000
0101
0000
,
2002
0000
0003
0000
,
0020
0000
3030
0000
,
0001
0000
0100
0000
,
0010
0000
1000
0000
,
0100
0000
1000
0000
,
0001
0000
0001
0000
,
0010
0000
0100
0000
,
1000
0000
0001
0000
,
0100
0000
0001
0000
,
1001
0000
0000
0000
,
1000
0000
1000
0000
,
0100
0000
0100
0000
,
0010
0000
0010
0000
,
0001
0000
0000
0000
,
0001
0000
0001
0000
,
0100
0000
0100
0000
,
0010
0000
1000
0000
,
0110
0000
0000
0000
,
0010
0000
0100
0000
,
0001
0000
1000
0000
,
0010
0000
0100
0000
,
0001
0000
1000
0000
,
0001
0000
0010
0000
,
0100
0000
1000
0000
,
0001
0000
0010
0000
,
0100
0000
1000
0000
,
0001
0000
0100
0000
,
0001
0000
0100
0000
,
0010
0000
1000
0000
,
0010
0000
1000
0000
,
0100
0000
1000
0000
,
0001
0000
0010
0000
,
0001
0000
1000
0000
,
0100
0000
0010
0000
,
0002
0000
0000
0000
,
0000
0000
0000
0000
,
0000
0000
0000
0000
,
0000
0000
0000
0000
,
0003
0000
0000
0000
;

//---------------dance-single - Copied from Copied f----------------
#NOTES:
     dance-single:
     Copied from Copied f:
     Medium:
     8:
     0.538,0.667,0.137,0.039,0.005:
0000
0000
0000
0000
,
0000
0000
0000
0000
,
0000
0000
0000
0000
,
1010
0000
0000
1000
0000
0000
0001
0000
,
0000
0100
0000
0000
0001
0000
0000
0001
,
0011
0000
0000
0001
0000
0000
1000
0000
,
0200
0000
1000
1300
,
1010
0000
1000
0100
0010
0000
0100
0000
,
0010
0001
1000
0001
0100
0010
0100
0000
,
0001
0000
0100
0001
0010
0000
0100
1000
,
0010
1000
0010
0100
0001
0100
0001
1000
,
0022
0000
0000
0033
,
0101
0000
1000
0000
0001
0100
0001
0000
,
0010
0100
1000
0010
0100
0000
0001
0000
,
1000
0100
1000
0000
0010
0100
0010
0000
,
1000
0100
0010
0001
1000
0000
0101
0000
,
1000
0010
0100
0001
0010
0000
0100
1000
,
0010
0100
0001
0000
1000
0001
1000
0000
,
0011
0000
0100
0000
1000
0010
0100
0000
,
0100
0000
0001
0000
0010
0000
0000
0000
0001
0000
0000
1000
0000
0000
0001
0000
,
0100
0000
0010
0000
1000
0010
0100
0001
,
0010
0000
0100
0000
0010
0100
1000
0001
,
0010
0000
0001
1000
0100
0010
0100
0000
,
1000
0010
0100
0000
0010
1000
0001
0000
,
0010
0001
0010
0100
0010
0001
1000
0000
,
0010
1000
0010
0100
0010
1000
0001
0000
,
0010
0100
0010
0100
1000
0100
1000
0001
,
0100
0001
1000
0001
0011
0000
1001
0000
,
0100
1000
0010
0100
0001
1000
0001
0010
,
0100
0000
0010
0001
1000
0000
0010
0100
,
0001
1000
0010
0100
0001
1000
0100
0010
,
0001
0000
0001
0100
1000
0000
1000
0100
,
0001
0010
0001
0100
0010
1000
0100
1000
,
0100
0000
0010
0100
1000
0000
0001
0010
,
0100
0010
0001
1000
0001
0100
0001
1000
,
0010
0000
0100
0010
1000
0000
0001
0100
,
0110
0000
0001
0000
1000
0001
1000
0000
,
0010
0100
0010
0100
0001
0010
0001
0000
,
1000
0100
1000
0000
0010
0100
0010
0000
,
1000
0100
0010
0001
1000
0000
1001
0000
,
0001
0010
0001
0100
0010
1000
0100
0000
,
1000
0010
1000
0000
0001
0100
0001
0000
,
0001
0000
0000
0010
0000
0001
0100
0000
,
0010
0000
0000
1000
0000
0100
1000
0000
,
1010
1000
0100
0010
,
0001
0100
0001
1000
,
0010
0100
0001
0010
,
0100
1000
0010
0100
,
0001
1000
0100
0010
,
0100
1000
0001
0100
,
0010
0100
0001
0100
,
1000
0100
0001
0010
,
0100
0010
0001
1000
,
0100
0010
0100
1000
,
0001
0100
0001
1000
,
0100
0010
0100
0001
,
0010
0100
0010
0001
,
1000
0001
0100
0010
,
1000
0010
0100
0001
,
0100
0001
1001
0000
,
0010
0100
0010
1000
,
0001
0100
0001
1000
,
0100
1000
0100
0010
,
0100
0001
0010
0100
,
0010
0001
1000
0100
,
0010
0100
0001
1000
,
0001
0100
0010
0100
,
1000
0010
0110
0000
,
0001
0100
1000
0100
,
0001
0010
1000
0010
,
0001
0100
0010
1000
,
0100
0010
0100
0010
,
0001
1000
0001
0100
,
0010
0100
1000
0100
,
0010
0100
0001
1000
,
0100
0010
0001
0100
,
0002
0000
0000
0000
,
0000
0000
0000
0000
,
0000
0000
0000
0000
,
0000
0000
0000
0000
,
0003
0000
0000
0000
;

//---------------dance-single - Copied from----------------
#NOTES:
     dance-single:
     Copied from:
     Hard:
     10:
     0.669,0.785,0.108,0.049,0.137:
0000
0000
0000
0000
,
0000
0000
0000
0000
,
0000
0000
0000
0000
,
0101
0000
0000
1000
0000
0000
0001
0000
,
0000
0100
0000
0000
0001
0000
0000
0010
,
0110
0000
0000
0010
0000
0000
1000
0100
,
0010
0000
0000
0000
0010
0000
0000
0000
0100
0000
0000
0000
1000
0001
1000
0000
,
0001
0000
0100
0001
0010
0100
1000
0010
,
0100
0001
1000
0100
1000
0000
0001
0001
,
0101
0000
1000
0100
0100
0000
1000
0010
,
0010
0100
0001
0010
1000
0100
0001
0010
,
0200
0000
1000
1300
,
1001
0001
0100
0001
1000
0100
0010
0000
,
0100
1000
0010
0100
0001
0001
0010
0000
,
0100
0010
0100
0001
1000
0100
0010
0000
,
0100
1000
0001
0010
0001
0100
0010
0000
,
1001
0001
0100
1000
0100
0010
0100
0000
,
0001
1000
0100
0010
0100
0001
0100
0000
,
1000
0010
0100
0001
0010
0100
1000
0001
,
1000
0000
0010
0000
0100
0000
0001
0000
0010
0001
0000
1000
0000
0000
0001
0100
,
0001
0000
0010
0000
0100
1000
0000
0100
0000
0010
0001
0000
0100
0000
0010
0000
,
1000
0000
0001
0000
0100
0010
0000
0100
0000
0001
1000
0000
0010
0000
0100
0000
,
0010
0000
1000
0000
0100
0010
0000
0100
0000
0001
0100
0000
1000
0000
0010
0000
,
0100
0000
0001
0000
1000
0010
0000
0100
0000
0001
0010
0000
0100
0000
0010
0000
,
0001
0000
1000
0000
0010
0100
0000
0001
0000
0100
0001
0000
0010
0000
0100
0000
,
1000
0000
0010
0000
0100
0010
0000
0100
0000
1000
0100
0000
0001
0000
0010
0000
,
0001
0000
0100
0000
0010
0100
0000
0001
0000
1000
0100
0000
0010
0000
0100
0000
,
0010
0000
0001
0000
0010
0100
0000
1000
0000
0001
0010
0000
0001
0000
0001
0000
,
0110
0010
1000
0001
0100
0001
0010
0100
,
0010
0001
1000
0010
0100
0001
1000
0100
,
1000
0100
0010
0100
0001
0010
0100
0010
,
0100
0001
1000
0100
0010
0100
0001
0010
,
0100
0010
1000
0010
0100
0001
0100
0010
,
1000
0001
0100
0010
1000
0100
0010
0001
,
1000
0100
0001
1000
0100
1000
0001
0010
,
0100
0010
1000
0100
0001
1000
0001
0100
,
0010
1000
0100
1000
0100
1000
0001
0100
,
0001
0100
0001
0010
0001
0010
0001
0000
,
0100
0010
0100
0010
0100
1000
0100
1000
,
0100
1000
0001
0010
0001
0010
0001
0000
,
0110
1000
0010
1000
0010
1000
0010
0100
,
0001
0100
0001
0010
0001
0010
0001
0100
,
0020
0000
0000
0100
0000
0130
0001
0100
,
0002
0000
0000
1000
0000
1000
0000
0100
,
0003
1000
0100
0010
,
0001
0100
0010
1000
,
0001
0010
0001
0100
,
0010
0000
1000
0000
0001
0000
0010
0001
,
0010
0100
0010
1000
,
0100
0010
1000
0001
,
0010
0001
0001
0100
,
0010
0000
1000
0000
0001
0100
0001
1000
,
0100
0010
0100
0010
,
0001
0000
0100
0000
0010
0000
1000
0010
,
1000
0010
0100
0001
,
1000
0000
0100
0000
0010
0100
1000
0001
,
0010
0001
0100
0100
,
0010
0000
1000
0000
0001
0100
0001
1000
,
0010
0000
0100
0000
0001
0000
0010
0001
,
0010
0000
0100
0000
1000
0010
0100
0010
,
0100
0000
0001
0000
1000
0000
0100
0010
,
0100
0000
1000
0000
0001
0010
0100
1000
,
0010
0000
0100
0000
0001
1000
0001
0000
,
0100
0000
0010
0100
0001
0010
0100
1000
,
0100
0010
0100
0010
,
0001
0010
0001
1000
,
0010
0110
0001
1001
,
0100
0000
1000
0100
0010
0001
0100
0000
,
1001
0010
0100
0010
,
1000
0010
1000
0000
0001
0100
0001
0000
,
0010
0100
1000
0001
0010
0000
0001
0000
,
0100
0001
0100
0000
0010
0100
0010
0000
,
1000
0100
0010
0100
1000
0000
0001
0000
,
0001
0010
0100
0010
0001
0000
1000
0000
,
0010
0100
0010
0100
0001
0100
0001
0000
,
1000
0010
1000
0100
0010
0001
0100
0000
,
2002
0000
0000
0000
,
0000
0000
0000
0000
,
0000
0000
0000
0000
,
0000
0000
0000
0000
,
3003
0000
0000
0000
;

//---------------dance-single - Copied from----------------
#NOTES:
     dance-single:
     Copied from:
     Challenge:
     10:
     0.738,0.903,0.069,0.069,0.280: // measure 1
0000
0000
0000
0000
,  // measure 2
0000
0000
0000
0000
,  // measure 3
0000
0000
0000
0000
,  // measure 4
1001
0000
0000
0100
0000
0000
0010
0000
,  // measure 5
0000
0100
0000
0000
0010
0000
0000
1000
,  // measure 6
1100
0000
0000
1000
0000
0000
0001
0010
,  // measure 7
0001
0000
0000
0000
0100
0000
0000
0000
0001
1000
0001
0000
1000
0001
1000
0000
,  // measure 8
0010
0100
0001
1000
0100
0010
1000
0010
,  // measure 9
0001
0100
0010
0100
0001
1000
0001
0100
,  // measure 10
0010
1000
0100
0010
0001
0100
0010
1000
,  // measure 11
0001
0010
0001
0100
0010
0100
1000
0100
,  // measure 12
0220
0000
0000
0330
,  // measure 13
1001
0000
0001
0000
0100
0001
0000
0010
0000
0100
1000
0010
0100
0000
0001
0000
,  // measure 14
1000
0000
0010
0000
0100
0001
0000
0010
0000
0010
0001
1000
0010
0000
0100
0000
,  // measure 15
0001
0000
0100
0000
0010
1000
0000
0001
0000
0010
0001
0100
0001
0000
1000
0000
,  // measure 16
0010
0000
0100
0000
0010
1000
0000
0100
0000
0010
0001
1000
0100
0000
0100
0000
,  // measure 17
1000
0000
0010
0000
0100
0001
0000
0010
0000
0001
1000
0100
0010
0000
0001
0000
,  // measure 18
0100
0000
0010
0000
1000
0001
0000
1000
0000
0001
0010
0001
0010
0000
0100
0000
,  // measure 19
1000
0000
0010
0000
0100
0010
0000
0100
0000
0001
1000
0010
0100
0000
0001
0000
,  // measure 20
0010
0000
0001
0000
1000
0000
0001
1000
0100
0010
0000
0001
0000
0000
0100
0010
,  // measure 21
0100
0010
0001
0100
0010
0100
0001
1000
,  // measure 22
0100
0010
0100
1000
0001
0010
0001
0100
,  // measure 23
0010
1000
0100
0001
0100
1000
0010
0100
,  // measure 24
0001
0100
0010
0100
0001
1000
0100
0010
,  // measure 25
0100
0000
1000
0000
0010
0100
0010
0000
0100
0000
0001
0000
0010
0001
0010
0000
,  // measure 26
1000
0000
0001
0000
0100
0001
0100
0000
0010
0000
1000
0000
0010
0100
0010
0000
,  // measure 27
0100
0010
1000
0100
0010
0100
1000
0001
,  // measure 28
0100
0000
0001
0000
0010
0000
0001
0000
1000
0000
0100
0000
0010
0100
0010
0001
,  // measure 29
0100
0010
1000
0001
0100
0001
0010
0100
,  // measure 30
0010
0001
1000
0010
0100
0001
1000
0010
,  // measure 31
0100
0010
1000
0100
0001
0010
0100
0001
,  // measure 32
1000
0010
0100
0100
0010
1000
0001
0010
,  // measure 33
0100
0010
1000
0100
0001
0010
0001
1000
,  // measure 34
0010
1000
0010
0100
0010
1000
0100
0010
,  // measure 35
0001
0100
0001
1000
0100
1000
0010
0100
,  // measure 36
0001
1000
1000
0001
0001
0010
0100
1000
,  // measure 37
1001
0000
0010
0000
0001
0100
0000
0001
0000
1000
0100
0010
0001
0000
1000
0000
,  // measure 38
0001
0100
0001
0000
1000
0100
1000
0000
0010
0000
0100
0000
0001
0000
1000
0000
,  // measure 39
0100
0010
0100
0000
1000
0100
1000
0000
0001
0100
0001
0000
0010
0000
0001
0000
,  // measure 40
0100
0000
0000
0010
0100
0000
1000
0100
0000
0001
0100
0000
0010
0000
1000
0000
,  // measure 41
0110
0000
1000
0000
0001
0000
0100
0000
0001
1000
0001
1000
0100
0000
0010
0000
,  // measure 42
0100
0000
1000
0000
0001
0000
0010
0000
0001
0100
0001
0010
0001
1000
0100
0000
,  // measure 43
2000
0000
0000
0010
0000
3001
0000
0000
,  // measure 44
0002
0000
0000
0100
0000
2000
0000
0000
,  // measure 45
3003
0100
0010
0100
,  // measure 46
1000
0001
0100
0001
,  // measure 47
1000
0100
0010
0100
,  // measure 48
1000
0000
0001
0000
0010
0001
0010
0001
,  // measure 49
1000
0010
0100
0001
,  // measure 50
1000
0000
0010
0000
0100
0000
0001
0010
,  // measure 51
0100
1000
0010
0100
,  // measure 52
0001
0000
0010
0100
0010
0100
1000
0001
,  // measure 53
0100
0010
0010
1000
,  // measure 54
0001
0100
0001
1000
,  // measure 55
0010
0000
1000
0100
1000
0000
0010
0100
,  // measure 56
0001
0010
0100
1000
0001
0000
0001
1000
,  // measure 57
0001
0100
0010
1000
,  // measure 58
0100
0010
0100
1000
,  // measure 59
0001
0100
0001
0000
1000
0100
1000
0000
,  // measure 60
0001
0010
0100
1000
0001
0010
0100
1000
,  // measure 61
0001
0010
0001
1000
0010
0100
0001
0000
,  // measure 62
0001
0100
0001
0000
0001
1000
0010
0000
,  // measure 63
0010
1000
0010
0000
0010
1000
0001
0000
,  // measure 64
0010
0100
0010
0100
1000
0100
1000
0100
,  // measure 65
0010
0100
0001
0010
,  // measure 66
0100
0010
0001
1000
,  // measure 67
0010
0100
0010
0000
0001
1000
0001
0000
,  // measure 68
1000
0100
1000
0010
0100
0001
0010
0001
,  // measure 69
1000
0100
1000
0100
,  // measure 70
0010
0100
1000
0001
0010
0100
0010
0001
,  // measure 71
0010
0001
1000
0001
,  // measure 72
0100
0001
0100
0001
1000
0100
1000
0100
,  // measure 73
0010
0010
0001
0001
,  // measure 74
1000
0100
1000
0000
0001
0100
0001
0000
,  // measure 75
0010
0100
1000
0001
0100
0001
0010
0100
,  // measure 76
1000
0010
0100
0001
1000
0100
0010
0001
,  // measure 77
0220
0000
0000
0000
,  // measure 78
0000
0000
0000
0000
,  // measure 79
0000
0000
0000
0000
,  // measure 80
0000
0000
0000
0000
,  // measure 81
0330
0000
0000
0000
;
