#TITLE:WISH (EUROBEAT MIX);
#SUBTITLE:;
#ARTIST:DJ YOSHITAKA feat. 杉村ことみ;
#TITLETRANSLIT:;
#SUBTITLETRANSLIT:;
#ARTISTTRANSLIT:DJ YOSHITAKA feat. Kotomi Sugimura;
#GENRE:;
#CREDIT:;
#MENUCOLOR:;
#NEWMETERSYSTEM:NO;
#BANNER:WISH (EUROBEAT MIX)-bn.png;
#BACKGROUND:WISH (EUROBEAT MIX)-bg.png;
#LYRICSPATH:;
#CDTITLE:MixMania 4 CD Title.png;
#MUSIC:WISH (EUROBEAT MIX).mp3;
#OFFSET:-0.400;
#SAMPLESTART:49.940;
#SAMPLELENGTH:12.000;
#SELECTABLE:YES;
#LISTSORT:;
#BPMS:0.000=155.000;
#STOPS:;
#BGCHANGES:;
#ATTACKS:;

//---------------dance-single - ----------------
#NOTES:
     dance-single:
     :
     Easy:
     4:
     0.329,0.383,0.028,0.275,0.000:
0000
0000
0000
0000
,
0000
0000
0000
0000
,
0000
0000
0000
0000
,
0000
0000
0000
0000
,
1000
0100
0001
0100
,
1000
0100
0001
0100
,
1000
0100
0010
0001
,
0200
0000
0001
0301
,
1001
0001
1000
0100
,
1000
0010
0200
0300
,
0010
1000
0001
0100
,
0002
0000
2003
0000
,
3100
1000
0010
0100
,
0100
0010
0002
0003
,
1000
0010
1000
0100
,
0020
0000
0230
0000
,
0310
1000
0001
0100
,
0001
0001
0100
0000
,
0010
0001
1000
0100
,
2000
0000
0001
3001
,
0100
0010
1000
0001
,
0100
0010
0100
0020
,
0000
2030
0000
3200
,
1000
0310
1000
0010
,
1001
0001
0100
0001
,
1000
0100
1000
0010
,
0100
0001
0010
1000
,
0010
0001
0100
0010
,
1000
0100
0010
0001
,
1000
0001
0100
0001
,
0010
0001
0100
0010
,
2000
3200
0320
0032
,
0103
0100
0001
1000
,
0010
0010
1000
0001
,
0100
0100
0001
1000
,
0002
0023
0230
2300
,
3001
0100
0100
0010
,
1000
0100
0100
0010
,
0001
0010
0010
0100
,
1000
0001
0100
0020
,
0100
0130
0000
0010
,
1000
0001
0100
0001
,
1000
0100
0001
0100
,
0200
0000
0320
0000
,
0031
0100
0010
1000
,
0001
0100
0010
1000
,
0100
1000
0010
0100
,
0001
1000
0001
0010
,
0001
0000
0100
0000
,
0010
0000
1000
0100
,
1000
0000
0001
0000
,
0100
0010
0100
0001
,
1000
0000
0100
0000
,
0010
0000
0001
1000
,
0010
0000
0100
0000
,
0001
0010
0100
1000
,
1001
1000
0100
0010
,
0100
1000
0001
0010
,
0100
0010
0001
1000
,
0020
0230
0302
2003
,
3010
0100
1000
0100
,
0010
0100
0001
0010
,
0100
1000
0001
0010
,
0002
0203
0320
2030
,
0010
3010
0000
0000
;

//---------------dance-single - Copied from----------------
#NOTES:
     dance-single:
     Copied from:
     Beginner:
     1:
     0.088,0.118,0.028,0.064,0.000:
0000
0000
0000
0000
,
0000
0000
0000
0000
,
0000
0000
0000
0000
,
0000
0000
0000
0000
,
1000
0000
0000
0000
,
0100
0000
0000
0000
,
0000
0000
0000
0000
,
0200
0000
0000
0000
,
0300
0000
0000
0000
,
0010
0000
0010
0000
,
1000
0000
0000
0000
,
0001
0000
1000
0000
,
0001
0000
0000
0000
,
0010
0000
0001
0000
,
1000
0000
0000
0000
,
0100
0000
0010
0000
,
0100
0000
0000
0000
,
0100
0000
0000
0000
,
0010
0000
0000
0000
,
1001
0000
0000
0000
,
0001
0000
0000
0000
,
1000
0000
0000
0100
,
0000
0010
0000
0001
,
0000
0000
0100
0000
,
0100
0000
0000
0000
,
0010
0000
0000
0000
,
0001
0000
0000
0000
,
0100
0000
0000
0000
,
0100
0000
0000
0000
,
0010
0000
0000
0000
,
1000
0000
0000
0000
,
2000
0000
0000
0000
,
3000
0000
0000
0000
,
0001
0000
0000
0000
,
0001
0000
0000
0000
,
0200
0000
0000
0000
,
0300
0000
0000
0000
,
0010
0000
0000
0000
,
1000
0000
0000
0000
,
0002
0000
0000
0000
,
0003
0000
0000
0000
,
0000
0000
0000
0000
,
0010
0000
0000
0000
,
1001
0000
0000
0000
,
0100
0000
0000
0000
,
0000
0000
0000
0000
,
1000
0000
0000
0000
,
0001
0000
0000
0000
,
0010
0000
0000
0000
,
0010
0000
0000
0000
,
0010
0000
0000
0000
,
0200
0000
0000
0000
,
0300
0000
0000
0000
,
0010
0000
0000
0000
,
0010
0000
0000
0000
,
1001
0000
0000
0000
,
0001
0000
0000
0000
,
0001
0000
0000
0000
,
1000
0000
0000
0000
,
2000
0000
0000
0000
,
3000
0000
0000
0000
,
0100
0000
0000
0000
,
0100
0000
0000
0000
,
0020
0000
0000
0000
,
0030
0000
0000
0000
;

//---------------dance-single - Copied from----------------
#NOTES:
     dance-single:
     Copied from:
     Medium:
     5:
     0.348,0.383,0.055,0.101,0.000:
0000
0000
0000
0000
,
0000
0000
0000
0000
,
0000
0000
0000
0000
,
0000
0000
0000
0000
,
0010
0000
0000
1000
0000
0000
0001
0000
,
0000
0100
0000
0000
0001
0000
0000
0000
,
1000
0100
0010
0001
,
0100
0001
1000
0002
0000
0000
0103
0000
,
0010
0100
0010
1000
,
0001
0000
0100
0100
0100
0000
0000
0000
,
0010
1000
0100
0010
,
0001
0000
1000
0100
0000
0010
0001
0000
,
0100
0001
1000
0010
,
0100
0000
0001
0001
0001
0000
0000
0000
,
1000
0001
0100
0010
,
1000
0000
0001
0010
0000
0100
1000
0000
,
0100
0010
0100
0010
,
0001
1000
0002
0103
,
0010
0000
1000
0000
0001
0000
1000
0001
,
0200
0000
0010
0310
,
1001
0001
0100
1000
,
0100
0000
0010
0000
1000
0000
0100
0100
,
0000
0000
0010
0010
0000
0000
0001
0001
,
0000
0000
0100
0001
,
1001
0000
0100
0000
0010
1000
0010
0000
,
0100
0000
0001
0000
0010
0000
0001
0100
,
0001
0000
0100
0000
0010
0000
1000
0100
,
1000
0100
0010
0001
,
0110
0001
0100
0010
,
1000
0001
0100
1000
,
0100
0010
1000
0001
,
0101
0000
1100
0000
0101
0000
0010
0100
,
0010
1000
0100
0010
,
0001
1000
0001
0100
,
0100
0000
0010
0000
1000
0000
0001
0001
,
0001
0100
0010
2000
0000
0000
3100
0000
,
1000
0100
0010
1000
,
0010
0001
0100
0010
,
1000
0000
0001
0000
0100
0000
0100
0100
,
0100
0010
1000
0020
0000
0000
1030
0000
,
0100
0010
0001
1000
,
0001
0100
0010
1000
,
0001
1000
0100
0010
,
0001
0010
0100
2000
0000
0000
3010
0000
,
0100
0001
1000
0100
,
0010
0001
1000
0100
,
0010
0100
1000
0001
,
0100
0001
1000
0020
0000
0000
0130
0000
,
0001
0000
0000
0001
0000
0000
1000
0000
,
0100
0000
0000
0100
0000
0000
0010
0000
,
0100
0000
0000
0100
0000
0000
1000
0000
,
0001
0100
0001
1000
,
0010
0000
0000
1000
0000
0000
0100
0000
,
0010
0000
0000
0100
0000
0000
1000
0000
,
0001
0000
0000
0010
0000
0000
0001
0000
,
0100
0001
1000
0002
0000
0000
0103
0000
,
1000
0100
1000
0010
,
1000
0001
0010
0001
,
0100
0001
1000
0001
,
0010
0100
1000
0002
0000
0000
0103
0000
,
0010
0100
0001
1000
,
0100
0010
0001
1000
,
0100
1000
0010
0100
,
0001
0100
1000
0200
0000
0000
0310
0000
,
2000
3100
0000
0000
;

//---------------dance-single - Copied from----------------
#NOTES:
     dance-single:
     Copied from:
     Hard:
     7:
     0.466,0.501,0.092,0.211,0.119:
0000
0000
0000
0000
,
0000
0000
0000
0000
,
0000
0000
0000
0000
,
0000
0000
0000
0000
,
0001
0000
0001
0100
0000
0100
0010
0000
,
0010
1000
0000
1000
0100
0000
0010
0000
,
0100
0000
0010
0000
0001
1000
0001
0001
,
0200
0000
0320
0000
2030
0000
3100
0100
,
0000
0010
0100
0000
0001
0100
1000
0000
,
0010
0000
0100
0001
0100
0000
0010
0000
,
1000
0000
0100
0000
1000
0100
0010
0000
,
0001
0100
1000
0200
0000
0310
1000
0100
,
0010
0000
0100
0000
0010
0001
0100
0000
,
0001
0100
1000
0000
0002
0000
1003
0000
,
0100
0000
0010
0000
0001
1000
0010
0000
,
0100
0010
1000
0002
0000
0103
0001
0010
,
0100
0000
0001
0000
1000
0001
1000
0100
,
1000
0010
0110
0001
,
1000
0000
0001
0000
0100
0001
0010
0100
,
2000
0000
0000
0000
0100
0100
3100
0000
,
1001
0000
0100
0000
0001
1000
0010
0000
,
0100
0000
0001
0000
1000
0000
0001
0020
,
0000
0030
0100
2000
0000
3000
1000
0002
,
0000
0003
0100
0000
0001
1000
0001
1000
,
0010
0000
0010
0000
0010
0100
0001
1000
,
0100
0000
0100
0000
1000
0010
1000
0001
,
0100
0000
0100
0000
0100
0001
0010
0001
,
1000
0100
0010
0001
,
1001
0000
0010
0000
0001
0100
0001
1000
,
0010
0000
0100
0000
1000
0010
0100
0001
,
0000
0001
0100
0000
0010
1000
0100
0010
,
0200
0320
0032
2003
,
3001
0000
0000
0100
0000
0000
0010
0000
0000
0000
1000
0000
0100
0000
0000
0000
,
0010
0000
0000
0100
0000
0000
0010
0000
0000
0000
0001
0000
1000
0000
0000
0000
,
0001
0000
0000
0100
0000
0000
0100
0000
0000
0000
0010
0000
1000
0000
0000
0000
,
0001
1000
0100
0020
0000
0130
1000
0100
,
0010
0000
0000
0001
0000
0000
0010
0000
0000
0000
0001
0000
0100
0000
0000
0000
,
0010
0000
0000
1000
0000
0000
0100
0000
0000
0000
0010
0000
0001
0000
0000
0000
,
1000
0000
0000
0001
0000
0000
0001
0000
0000
0000
1000
0000
0100
0000
0000
0000
,
0010
0100
0010
0002
0000
1003
0100
0020
,
0000
0130
1000
0000
0001
0000
0100
0000
,
0010
0000
1000
0100
0000
0010
0000
0100
,
0010
0000
0001
0100
0000
0001
0000
1000
,
0100
1000
0010
0200
0000
0301
0010
0100
,
1000
0010
0100
0001
,
1000
0001
0010
0100
,
1000
0000
0001
0000
1000
0000
0001
0000
1000
0000
0001
0000
,
0010
0000
0100
0000
0010
0000
0100
0000
0010
0000
0001
0000
,
1001
0000
0000
0100
0000
0000
0100
0000
0000
0000
0000
0000
0010
0000
0000
0000
,
1000
0000
0000
0001
0000
0000
0100
0000
0000
0000
0000
0000
0001
0000
0000
0000
,
1000
0000
0000
1000
0000
0000
0100
0000
0000
0000
0000
0000
0010
0000
0000
0000
,
0001
0100
0001
2000
0000
0001
3001
0000
,
0010
0000
0000
0100
0000
0000
0010
0000
0000
0000
0000
0000
0001
0000
0000
0000
,
0100
0000
0000
0001
0000
0000
1000
0000
0000
0000
0000
0000
0010
0000
0000
0000
,
0100
0000
0000
0100
0000
0000
0010
0000
0000
0000
0000
0000
1000
0000
0000
0000
,
1000
0100
0010
0002
0000
1003
0001
0100
,
0110
0000
0000
0010
0000
0000
1000
0000
0001
0000
0100
0000
0001
0000
0000
0000
,
0110
0000
0000
0010
0000
0000
1000
0000
0100
0000
0010
0000
0100
0000
0000
0000
,
1001
0000
0000
0100
0000
0000
1000
0000
0100
0000
0010
0000
0001
0000
0000
0000
,
0010
0100
0010
2000
0000
3100
0010
0001
,
1001
0000
0000
0010
0000
0000
0001
0000
1000
0000
0100
0000
1000
0000
0000
0000
,
0110
0000
0000
0100
0000
0000
0010
0000
0001
0000
0010
0000
0100
0000
0000
0000
,
1100
0000
0000
1000
0000
0000
0001
0000
0100
0000
0010
0000
1000
0000
0000
0000
,
1000
0100
0001
0200
0000
1300
0010
0200
,
0000
0301
0100
0000
0000
0000
0000
0000
;

//---------------dance-single - Copied from----------------
#NOTES:
     dance-single:
     Copied from:
     Challenge:
     9:
     0.580,0.653,0.184,0.165,0.220: // measure 1
0000
0000
0000
0000
,  // measure 2
0000
0000
0000
0000
,  // measure 3
0000
0000
0000
0000
,  // measure 4
0000
0000
0000
0000
,  // measure 5
1000
0000
0000
0001
0000
0000
0100
0000
0000
0000
0100
0000
0010
0000
0000
1000
,  // measure 6
0000
0100
0000
0010
0001
0000
1000
0000
,  // measure 7
0001
0000
0000
0000
0100
0000
0000
0000
0001
0000
1000
0000
0001
0100
0001
0100
,  // measure 8
0001
0010
0100
2000
0000
3010
0100
0002
,  // measure 9
0010
0103
0010
1000
0001
0100
0100
0000
,  // measure 10
0010
1000
0001
0100
0101
0000
1000
0000
,  // measure 11
0100
1000
0010
0100
0100
0010
1000
0000
,  // measure 12
0001
1000
0100
0020
0000
0031
0100
0001
,  // measure 13
1000
0100
0100
1000
0010
0100
0001
0000
,  // measure 14
1000
0001
0100
0010
1001
0000
0100
0000
,  // measure 15
1000
0010
0100
0001
1000
0001
0001
0000
,  // measure 16
0010
0001
0100
0020
0000
1030
0100
1000
,  // measure 17
0100
0000
0010
0001
1000
0001
0100
0001
,  // measure 18
1000
0000
0000
1000
0000
0000
0001
0000
0010
0000
0000
0000
0001
0000
0000
0000
,  // measure 19
1000
0000
0001
0100
0010
1000
0001
0100
,  // measure 20
0020
0000
0000
1000
1000
0001
0001
0100
,  // measure 21
0130
0000
0001
1000
0001
0100
0010
1000
,  // measure 22
0100
0000
0000
0100
0000
0000
0010
0000
0001
0000
1000
0000
0001
0000
0200
0000
,  // measure 23
0010
0000
0310
2000
0100
0000
3100
0020
,  // measure 24
0001
0000
0000
0031
0100
0001
1000
0001
,  // measure 25
1001
0000
0100
0000
0001
1000
0100
0010
,  // measure 26
0001
0000
0100
0000
0010
1000
0001
0000
,  // measure 27
1001
0000
0001
0000
0100
0010
0001
0100
,  // measure 28
0010
0000
1000
0000
0001
1000
1000
0100
,  // measure 29
0010
0000
0100
0000
1000
0010
0100
0010
,  // measure 30
1000
0000
0100
0010
0001
1000
0001
0100
,  // measure 31
0000
0001
1000
0000
0100
1000
0010
0100
,  // measure 32
0001
0000
0100
0000
0001
0000
0100
0000
0010
0000
1000
0000
0010
1000
0010
1000
,  // measure 33
0100
0000
0000
0010
0000
0000
0001
0000
1000
0000
0100
0000
1001
0000
0000
0000
,  // measure 34
0010
0000
0000
0100
0000
0000
0010
0000
1000
0000
0010
0000
1100
0000
0000
0000
,  // measure 35
0100
0000
0000
0010
0000
0000
0001
0000
1000
0001
0100
0001
0100
0001
1000
0010
,  // measure 36
0100
1000
0001
0200
0000
0310
1000
0100
,  // measure 37
1000
0000
0000
0001
0000
0000
0001
0000
0010
0000
0100
0000
0110
0000
0000
0000
,  // measure 38
1000
0000
0000
0001
0000
0000
0001
0000
0010
0000
0001
0000
1001
0000
0000
0000
,  // measure 39
0001
0000
0000
0100
0000
0000
0010
0000
0100
0000
0010
0000
1010
0000
0000
0000
,  // measure 40
0100
0010
0100
2000
0000
3010
0001
0020
,  // measure 41
0100
0000
0130
0000
0010
0000
0000
0000
1000
0000
0000
0001
0000
0000
0100
0000
,  // measure 42
0001
0000
1000
0100
0000
0010
0100
0010
,  // measure 43
0001
0000
1000
0001
0000
0100
0000
0001
,  // measure 44
1000
0010
0100
0200
0000
0310
1000
0100
,  // measure 45
0010
0001
1000
0010
0100
0001
0010
0001
,  // measure 46
1000
0010
0100
0001
0010
0100
1000
0001
,  // measure 47
0010
0000
0100
0000
0010
0000
0001
0000
1000
0000
0001
0000
,  // measure 48
0100
0000
0000
0000
0000
0000
0000
0000
0010
0000
0000
0000
0000
0000
0000
0000
1000
0000
0000
0000
0000
0000
0000
0000
0100
0000
0000
0000
0000
0000
0000
0000
0010
0000
0000
0000
0001
0000
0000
0010
0000
0000
0100
0000
0000
1000
0000
0000
,  // measure 49
0010
0000
0000
0100
0000
0000
0010
0000
1000
0000
0001
0000
0001
0000
0000
0000
,  // measure 50
0100
0000
0000
0001
0000
0000
1000
0000
0010
0000
1000
0000
0100
0000
0000
0000
,  // measure 51
0010
0000
0000
0100
0000
0000
0010
0000
0001
0000
1000
0000
0001
0000
0000
0000
,  // measure 52
0100
0001
0010
0200
0000
1300
0010
0100
,  // measure 53
0001
0000
0000
0001
0000
0000
1000
0000
0001
0000
1000
0000
0100
0000
0000
0000
,  // measure 54
1000
0000
0000
0010
0000
0000
1000
0000
0001
0000
0100
0000
0001
0000
0000
0000
,  // measure 55
1000
0000
0000
0001
0000
0000
0100
0000
0001
1000
0001
1000
0001
0100
0010
0100
,  // measure 56
0010
1000
0100
0002
0000
0103
1000
0010
,  // measure 57
1001
0000
0000
0100
0000
0000
1001
0000
0000
0000
0001
0000
0100
0000
1000
0000
,  // measure 58
0110
0000
0000
1000
0000
0000
0110
0000
0000
0000
0001
0000
1000
0000
0100
0000
,  // measure 59
0011
0000
0000
0100
0000
0000
1000
0000
0001
1000
0001
1000
0010
1000
0010
1000
,  // measure 60
0001
1000
0100
0020
0000
0031
1000
0001
,  // measure 61
0110
0000
0000
0010
0000
0000
1001
0000
0000
0000
0100
0000
0010
0000
0001
0000
,  // measure 62
1100
0000
0000
0001
0000
0000
0101
0000
0000
0000
0001
0000
1000
0000
0001
0000
,  // measure 63
0011
0000
0000
1000
0000
0000
1001
0000
0000
0000
1000
0000
1000
0000
0001
0000
,  // measure 64
0100
1000
0100
0002
0000
0013
0100
2000
,  // measure 65
0000
3001
0020
0000
0000
0030
0000
0000
;
