#TITLE:Twelfth Style;
#SUBTITLE:;
#ARTIST:Tatsh&DAYBREAKERS NEXT;
#TITLETRANSLIT:;
#SUBTITLETRANSLIT:;
#ARTISTTRANSLIT:;
#GENRE:;
#CREDIT:;
#MENUCOLOR:;
#NEWMETERSYSTEM:NO;
#BANNER:Twelfth Style-bn.png;
#BACKGROUND:Twelfth Style-bg.png;
#LYRICSPATH:;
#CDTITLE:MixMania 4 CD Title.png;
#MUSIC:Twelfth Style.mp3;
#OFFSET:-1.420;
#SAMPLESTART:28.380;
#SAMPLELENGTH:12.000;
#SELECTABLE:YES;
#LISTSORT:;
#BPMS:0.000=80.000,16.000=160.000,264.000=80.000;
#STOPS:264.000=3.000
;
#BGCHANGES:;
#ATTACKS:;

//---------------dance-single - ----------------
#NOTES:
     dance-single:
     :
     Easy:
     4:
     0.326,0.392,0.238,0.238,0.000: // measure 1
0000
0000
0000
0000
,  // measure 2
0000
0000
0000
0000
,  // measure 3
0011
0000
1000
0100
,  // measure 4
0001
0000
0001
0200
,  // measure 5
0000
0000
0000
0000
,  // measure 6
0000
0000
0000
0300
,  // measure 7
1001
0000
0100
0100
,  // measure 8
1001
0000
0010
0010
,  // measure 9
1001
0000
1001
0000
,  // measure 10
1001
0100
0010
0001
,  // measure 11
1001
0000
0010
0010
,  // measure 12
1001
0000
0100
0100
,  // measure 13
1000
0001
1000
0001
,  // measure 14
0020
0000
0030
1000
,  // measure 15
0110
0001
1000
0001
,  // measure 16
0100
0010
0100
0010
,  // measure 17
1000
0100
0010
0001
,  // measure 18
0100
0001
1000
0010
,  // measure 19
0100
0001
0100
0001
,  // measure 20
1000
0010
1000
0010
,  // measure 21
0100
0001
0010
0100
,  // measure 22
2000
0000
0002
3003
,  // measure 23
0001
0100
0001
0000
,  // measure 24
1000
0010
1000
0000
,  // measure 25
0100
1000
0010
0100
,  // measure 26
0001
0020
0030
0001
,  // measure 27
0100
0010
1000
0100
,  // measure 28
0020
0000
0230
0000
,  // measure 29
0310
0100
0020
0030
,  // measure 30
0001
1000
0002
0003
,  // measure 31
0100
1000
0200
0300
,  // measure 32
0010
1000
2200
3300
,  // measure 33
0010
0001
0002
0003
,  // measure 34
0010
1000
2000
3000
,  // measure 35
0100
1000
0020
0230
,  // measure 36
0310
0100
0001
0010
,  // measure 37
0200
0000
0320
0032
,  // measure 38
1003
0001
1000
0001
,  // measure 39
0000
0010
0100
0100
,  // measure 40
0010
0110
0001
1001
,  // measure 41
0000
0001
0100
0100
,  // measure 42
0010
1010
0100
0101
,  // measure 43
0000
1000
0100
0001
,  // measure 44
0100
1001
0010
0110
,  // measure 45
0001
0010
0001
1000
,  // measure 46
1100
0010
0100
0010
,  // measure 47
0001
0101
1000
1100
,  // measure 48
0010
0210
0300
0120
,  // measure 49
0130
0001
1000
0001
,  // measure 50
0100
0010
1000
0100
,  // measure 51
0010
0100
0010
0001
,  // measure 52
1000
0001
0100
0000
,  // measure 53
0001
0010
0100
1000
,  // measure 54
0001
0010
0100
1000
,  // measure 55
0010
0100
0001
1000
,  // measure 56
0002
0000
0020
0033
,  // measure 57
2000
0000
0200
3300
,  // measure 58
1001
0100
1000
0010
,  // measure 59
0100
0001
1000
1000
,  // measure 60
0001
0010
0100
0010
,  // measure 61
0002
0000
0013
0011
,  // measure 62
0001
0100
0010
1000
,  // measure 63
0001
0100
0010
1000
,  // measure 64
0001
0100
0010
1000
,  // measure 65
0100
0010
1001
1001
,  // measure 66
0001
0100
0010
1001
,  // measure 67
1002
0103
2001
3100
,  // measure 68
0010
0000
0001
0100
,  // measure 69
1000
0000
1010
1000
,  // measure 70
0011
0000
2000
0200
,  // measure 71
0000
0000
3300
0000
;

//---------------dance-single - Copied from----------------
#NOTES:
     dance-single:
     Copied from:
     Beginner:
     2:
     0.169,0.252,0.175,0.135,0.000: // measure 1
0000
0000
0000
0000
,  // measure 2
0000
0000
0000
0000
,  // measure 3
0020
0000
0030
0000
,  // measure 4
2000
0000
3000
0000
,  // measure 5
0200
0000
0000
0000
,  // measure 6
0000
0000
0300
0000
,  // measure 7
1001
0000
0000
0000
,  // measure 8
1001
0000
0000
0000
,  // measure 9
1001
0000
0000
0000
,  // measure 10
1001
0000
0000
0000
,  // measure 11
0110
0000
0000
0000
,  // measure 12
0110
0000
0000
0000
,  // measure 13
0110
0000
0000
0000
,  // measure 14
0220
0000
0330
0000
,  // measure 15
1001
0000
1000
0000
,  // measure 16
0001
0000
1000
0000
,  // measure 17
0100
0000
0010
0000
,  // measure 18
0001
0000
0000
0000
,  // measure 19
1001
0000
0010
0000
,  // measure 20
0001
0000
0100
0000
,  // measure 21
0010
0000
1000
0000
,  // measure 22
0200
0000
0300
0000
,  // measure 23
0010
0010
0000
0000
,  // measure 24
1000
1000
0000
0000
,  // measure 25
0001
0001
0000
0000
,  // measure 26
0100
0100
0000
0000
,  // measure 27
0010
0000
1000
0000
,  // measure 28
0002
0000
0003
0000
,  // measure 29
1001
0000
0100
0000
,  // measure 30
1001
0000
0100
0000
,  // measure 31
1001
0000
0100
0000
,  // measure 32
0020
0000
0030
0000
,  // measure 33
1001
0000
0001
0000
,  // measure 34
1001
0000
1000
0000
,  // measure 35
1001
0000
0001
0000
,  // measure 36
0100
0000
0001
0000
,  // measure 37
2000
0000
0000
0000
,  // measure 38
3000
0000
0000
0000
,  // measure 39
0000
1000
0000
0001
,  // measure 40
0001
0000
0000
0000
,  // measure 41
0000
0001
0000
0100
,  // measure 42
0100
0000
0000
0000
,  // measure 43
0001
0000
1000
0000
,  // measure 44
0001
0001
0000
0100
,  // measure 45
0000
0000
1000
0000
,  // measure 46
0010
0000
0010
0000
,  // measure 47
0100
0100
0000
0010
,  // measure 48
0000
1001
0000
1001
,  // measure 49
1001
0000
0100
0000
,  // measure 50
0001
0000
1000
0000
,  // measure 51
0001
0000
0010
0000
,  // measure 52
0020
0000
0030
0000
,  // measure 53
0001
0000
1000
0000
,  // measure 54
0100
0000
0100
0000
,  // measure 55
1000
0000
0010
0000
,  // measure 56
0200
0000
0300
0000
,  // measure 57
0020
0000
0030
0000
,  // measure 58
1000
0000
1000
0000
,  // measure 59
0100
0000
0100
0000
,  // measure 60
0010
0000
0010
0000
,  // measure 61
0002
0000
0003
0000
,  // measure 62
1001
0000
0100
0000
,  // measure 63
0100
0000
0010
0000
,  // measure 64
0100
0000
0001
0000
,  // measure 65
0002
0000
0003
0000
,  // measure 66
2000
0000
3000
0000
,  // measure 67
1001
0000
0100
0000
,  // measure 68
1000
0000
0010
0010
,  // measure 69
0010
0000
0100
0000
,  // measure 70
0001
0000
2002
0000
,  // measure 71
0000
0000
3003
0000
;

//---------------dance-single - Copied from----------------
#NOTES:
     dance-single:
     Copied from:
     Medium:
     6:
     0.387,0.448,0.191,0.135,0.008: // measure 1
0000
0000
0000
0000
,  // measure 2
0000
0000
0000
0000
,  // measure 3
0110
0000
1000
0100
0010
0000
0001
0000
,  // measure 4
1001
0000
0000
0000
1000
0100
0010
0002
,  // measure 5
0000
0000
0000
0000
,  // measure 6
0000
0000
0000
0003
,  // measure 7
0001
0000
0100
0000
0001
1000
0001
0000
,  // measure 8
1000
0000
0100
0000
0010
0001
1000
0000
,  // measure 9
0100
1000
0010
0100
,  // measure 10
0001
1000
0001
0000
1001
0000
0000
0000
,  // measure 11
0010
0000
0100
0000
0010
0100
0010
0000
,  // measure 12
1000
0000
0001
0000
1000
0001
1000
0000
,  // measure 13
0002
0103
0020
1030
,  // measure 14
1100
0000
0000
0011
0000
0000
1001
0000
,  // measure 15
0001
0000
0100
0000
0010
1000
0001
0000
,  // measure 16
0100
0000
0010
0000
0001
1000
0001
0000
,  // measure 17
0200
0301
0020
1030
,  // measure 18
0010
0100
0001
0000
1000
0000
0000
0000
,  // measure 19
1001
0000
1000
0000
0001
0010
0001
0000
,  // measure 20
1000
0000
0001
0000
1000
0010
1000
0000
,  // measure 21
0200
0310
0200
1300
,  // measure 22
0001
0000
0000
1000
0000
0000
0001
0000
,  // measure 23
1000
0100
0010
0000
,  // measure 24
0001
0010
0100
0000
,  // measure 25
1000
0001
1000
0000
,  // measure 26
0001
0000
0100
0000
0000
0010
0000
0010
,  // measure 27
0000
1000
0000
1000
0000
0001
0000
0000
,  // measure 28
0000
1100
0000
0000
1001
0000
0000
0000
,  // measure 29
0001
0000
0100
0000
0001
1000
0100
0000
,  // measure 30
0010
0000
0100
0000
1000
0001
0010
0000
,  // measure 31
0001
0000
0100
0000
0001
0010
0100
0000
,  // measure 32
0010
0001
2000
3000
,  // measure 33
0100
0000
0000
0000
0001
0000
0000
0000
1000
0000
0000
0001
0000
0000
0000
0000
,  // measure 34
0001
0000
0000
0000
0100
0000
0000
0000
0001
0000
0000
1000
0000
0000
0000
0000
,  // measure 35
0100
0010
0100
0001
,  // measure 36
1000
0000
0000
1001
0000
0000
0001
0000
,  // measure 37
0020
0001
0100
0030
,  // measure 38
0001
1000
0001
1000
,  // measure 39
0000
0100
0000
1000
0000
0001
0000
0100
,  // measure 40
0000
1001
0000
1001
,  // measure 41
0001
0100
0000
0001
0000
1000
0000
0100
,  // measure 42
0000
1001
0000
1001
,  // measure 43
1000
0100
0000
0000
0001
0000
0100
0000
,  // measure 44
1000
0010
0100
0000
0001
0010
0100
0000
,  // measure 45
0001
0010
0000
1000
0000
0010
0000
0100
,  // measure 46
0002
0100
1003
0100
,  // measure 47
1001
0110
0100
0110
,  // measure 48
0010
1000
0002
0000
0103
1000
0002
0000
,  // measure 49
0103
0001
1000
0000
0100
0000
0100
0000
,  // measure 50
1000
0010
0100
0001
0010
0000
1001
0000
,  // measure 51
0001
0100
0001
0000
1000
0000
0010
0000
,  // measure 52
1000
0001
1000
0001
1000
0000
0110
0000
,  // measure 53
0001
0010
0001
0000
1000
0000
0010
0000
,  // measure 54
0100
0010
0100
0001
1000
0000
0100
0000
,  // measure 55
1000
0010
1000
0000
0100
0000
0010
0000
,  // measure 56
0001
0010
0001
0010
0001
0000
1001
0000
,  // measure 57
1000
0100
1000
0100
1000
0100
1000
0000
,  // measure 58
0010
0100
0001
1000
0100
0000
1000
0000
,  // measure 59
0001
0010
0100
1000
0001
0000
1000
0000
,  // measure 60
0010
0100
0001
1000
0001
0000
0010
0000
,  // measure 61
0001
0021
0130
2100
,  // measure 62
3020
0100
1000
0100
,  // measure 63
1000
1000
0100
1030
,  // measure 64
0001
0000
1000
0000
0100
0010
0001
0000
,  // measure 65
1000
0010
1000
0010
1000
0000
1001
0000
,  // measure 66
0001
0100
0001
0100
0001
0100
0001
0000
,  // measure 67
0110
0100
0001
1000
,  // measure 68
0001
0000
0010
0000
0100
1000
0001
0010
,  // measure 69
0100
0000
0010
0000
0001
0000
1000
0001
,  // measure 70
1000
0000
1000
0000
0001
0200
0010
0002
,  // measure 71
0000
0000
0303
0000
;

//---------------dance-single - Copied from----------------
#NOTES:
     dance-single:
     Copied from:
     Hard:
     7:
     0.458,0.448,0.159,0.056,0.119: // measure 1
0000
0000
0000
0000
,  // measure 2
0000
0000
0000
0000
,  // measure 3
1100
0000
1000
0010
0101
0000
0001
1000
,  // measure 4
0220
0000
0330
0000
0001
0010
0001
0200
,  // measure 5
0000
0000
0000
0000
,  // measure 6
0000
0000
0000
0300
,  // measure 7
1000
0000
0000
0100
0000
0000
0010
0000
0001
0000
0000
0000
1001
0000
0000
0000
,  // measure 8
0001
0000
0000
0100
0000
0000
0010
0000
1000
0000
0000
0000
1001
0000
0000
0000
,  // measure 9
0001
0000
0000
0100
0000
0000
1000
0000
0100
0000
0000
0010
0000
0000
1000
0000
,  // measure 10
0100
0010
0001
0000
1000
0000
0010
0000
,  // measure 11
1000
0000
0000
0100
0000
0000
1000
0000
0001
0000
0000
0000
0110
0000
0000
0000
,  // measure 12
0001
0000
0000
0100
0000
0000
0001
0000
1000
0000
0000
0000
0110
0000
0000
0000
,  // measure 13
1000
0000
0000
1000
0000
0000
0001
0000
0010
0000
0001
0000
0100
0000
1000
0000
,  // measure 14
0100
0000
0000
0010
0000
0000
0100
0000
0000
0001
0000
0000
1000
0000
0001
0000
,  // measure 15
1000
0000
0000
0001
0100
0000
0000
0000
1000
0000
0100
0000
1000
0000
0000
0000
,  // measure 16
0100
0000
0000
0010
0100
0000
0000
0000
1000
0000
0001
0000
1000
0000
0000
0000
,  // measure 17
0001
0000
0000
0001
0010
0000
0000
0000
1000
0000
0000
1000
0100
0000
0000
0000
,  // measure 18
0010
0100
0010
0001
1000
0001
0100
0000
,  // measure 19
0010
0000
0000
1000
0100
0000
0000
0000
1000
0000
0100
0000
1000
0000
0000
0000
,  // measure 20
0001
0000
0000
0010
0001
0000
0000
0000
0100
0000
0001
0000
0100
0000
0000
0000
,  // measure 21
0001
0000
0000
1000
0100
0000
0000
0000
1000
0000
0000
0001
0100
0000
0000
0000
,  // measure 22
0010
0000
0000
0110
0000
0000
1000
0000
0000
0001
0000
0000
0100
0000
0001
0000
,  // measure 23
1000
0100
1000
0010
0100
0000
0001
0000
,  // measure 24
0010
0001
0100
0010
1000
0000
0010
0000
,  // measure 25
0100
0010
0100
0001
1000
0000
0100
0000
,  // measure 26
0100
0100
0010
0000
0001
1000
0001
0100
,  // measure 27
0000
0001
1000
0010
0000
0100
0001
1000
,  // measure 28
0100
0000
0010
0000
0000
0010
0000
0000
0010
0000
0000
0100
0000
0000
0000
0000
,  // measure 29
1000
0000
0000
0001
0000
0000
0010
0000
0001
0000
1000
0000
0001
0000
0000
0000
,  // measure 30
0100
0000
0000
0010
0000
0000
1000
0000
0100
0000
0010
0000
0100
0000
0000
0000
,  // measure 31
1000
0000
0000
0001
0000
0000
0100
0000
0001
0000
0010
0000
0100
0000
0000
0000
,  // measure 32
1000
0000
0001
0000
1000
0000
0000
0000
0010
0000
0000
0110
0000
0000
0000
0000
,  // measure 33
0001
0000
1000
0000
0001
0000
1000
0000
0010
0000
0000
0100
0000
0000
0000
0000
,  // measure 34
1000
0000
0001
0000
1000
0000
0001
0000
0010
0000
0000
0001
0000
0000
0000
0000
,  // measure 35
0001
0000
0010
0000
0100
0000
1000
0000
0001
0000
0000
0100
0000
0000
0001
0000
,  // measure 36
1000
0000
0000
0001
0000
0000
0100
0000
0000
0000
0000
0000
0010
0000
1000
0000
,  // measure 37
0200
0000
0020
0330
,  // measure 38
0001
0010
0100
1000
,  // measure 39
0000
0100
0000
0010
0000
0001
0000
1000
,  // measure 40
0000
0100
0010
0000
0100
0010
0100
0000
,  // measure 41
0001
0010
0000
0100
0000
1000
0000
0100
,  // measure 42
0000
1000
0100
0000
0010
0001
0100
0000
,  // measure 43
0000
0001
1000
0000
0001
0000
1000
0100
,  // measure 44
1000
1010
0001
0101
,  // measure 45
1000
0100
0001
0000
0100
0000
1000
0000
,  // measure 46
1010
0000
0100
0000
0001
1000
0001
0000
,  // measure 47
0010
0110
1000
1001
,  // measure 48
1000
0100
0001
0000
1000
0100
0001
0000
,  // measure 49
1000
0010
0100
0000
0001
0000
0001
0000
,  // measure 50
1000
0001
0100
0001
1000
0100
1000
0000
,  // measure 51
0001
1000
0100
0000
0010
0000
0010
0000
,  // measure 52
0001
1000
0001
0100
0001
1000
0010
0000
,  // measure 53
0100
0010
1000
0001
0100
0000
0100
0000
,  // measure 54
1000
0010
0100
0001
1000
0100
0010
0000
,  // measure 55
1000
0100
0001
0100
1000
0000
0001
0000
,  // measure 56
0001
0010
0001
0010
0100
1000
0100
0000
,  // measure 57
1000
0100
1000
0100
0010
0001
0010
0001
,  // measure 58
0100
0110
0010
1010
,  // measure 59
1000
0000
1001
0000
0001
0100
0010
0100
,  // measure 60
0001
0011
1000
1010
,  // measure 61
0010
0000
0100
0000
0010
0000
0100
0000
0010
0000
0000
1000
0000
0000
0001
0000
,  // measure 62
0100
0001
1000
0000
0100
1000
0001
0000
,  // measure 63
0010
0001
0100
0000
0010
1000
0100
0010
,  // measure 64
0001
0100
0001
0000
1000
0001
0100
0000
,  // measure 65
0010
0100
0010
0100
0001
1000
0001
0000
,  // measure 66
1000
0100
0010
0001
1000
0100
0010
0001
,  // measure 67
0100
0000
0010
1000
0100
0000
0010
0001
,  // measure 68
0100
0000
0001
0000
1000
1000
0100
0100
,  // measure 69
0010
0000
0100
0000
0010
0000
0001
1000
,  // measure 70
0001
0000
0100
0000
0001
0010
0100
2020
,  // measure 71
0000
0000
3030
0000
;

//---------------dance-single - Copied from ----------------
#NOTES:
     dance-single:
     Copied from:
     Challenge:
     9:
     0.632,0.618,0.167,0.056,0.504: // measure 1
0000
0000
0000
0000
,  // measure 2
0000
0000
0000
0000
,  // measure 3
1100
0000
0000
0000
0001
1000
0001
0010
0100
0000
0000
0000
1000
0000
0100
0000
,  // measure 4
2020
0000
0000
0000
3030
0000
0000
0000
1000
0000
0001
0000
0100
0001
0020
0000
,  // measure 5
0000
0000
0000
0000
,  // measure 6
0000
0000
0000
0030
,  // measure 7
1000
0100
0000
1000
0000
0000
0010
0000
0100
0000
0001
0000
1000
0000
0000
0000
,  // measure 8
0100
0010
0000
0100
0000
0000
1000
0000
0001
0000
0100
0000
0001
0000
0000
0000
,  // measure 9
0010
0000
0000
0001
0000
0000
0100
0000
1000
0000
0000
0100
0000
0000
0010
0000
,  // measure 10
1000
0000
0100
0000
0010
0000
0001
0000
1000
0001
0000
0100
0000
0000
1001
0000
,  // measure 11
0001
0100
0000
0010
0000
0000
1000
0000
0001
0000
0100
0000
0001
0000
0000
0000
,  // measure 12
1000
0010
0000
1000
0000
0000
0010
0000
0100
0000
0010
0000
1000
0100
0000
0100
,  // measure 13
0010
0100
0000
1000
0000
0000
0001
0000
1000
0000
0001
0000
0100
0000
1000
0000
,  // measure 14
0100
0000
0000
0110
0000
0000
1000
0000
0000
1001
0000
0000
1000
0000
0010
0000
,  // measure 15
0100
0001
0000
1000
0000
0000
0001
0000
1000
0000
0010
0000
0001
0000
0000
0000
,  // measure 16
0010
1000
0000
0001
0000
0000
0100
0000
0001
0000
0010
0000
0100
0000
0000
0000
,  // measure 17
1000
0000
0000
1000
0000
0000
0010
0000
0001
0000
0000
0001
0000
0000
0010
0000
,  // measure 18
0100
0000
0001
0000
0010
0000
0100
0000
1000
0001
0000
1000
0000
0000
0110
0000
,  // measure 19
0100
0010
0000
0001
0000
0000
1000
0000
0100
0000
0010
0000
0001
0000
0000
0000
,  // measure 20
0010
0100
0000
1000
0000
0000
0001
0000
0010
0000
0100
0000
1000
0100
0000
1000
,  // measure 21
0001
0010
0000
0001
0000
0000
0100
0000
0001
0000
1000
0000
0001
0000
0010
0000
,  // measure 22
0100
0000
0000
0110
0000
0000
1000
0000
0000
1001
0000
0000
0001
1000
0001
0000
,  // measure 23
0100
0010
1000
0100
0010
0001
0100
0001
,  // measure 24
1000
0001
0010
0100
0010
0001
1000
0000
,  // measure 25
0001
0100
1000
0100
0010
1000
0001
0100
,  // measure 26
0010
0100
0002
0000
1000
1003
0010
1000
,  // measure 27
0100
0010
0001
1000
0001
0100
0001
0000
,  // measure 28
1000
0000
0100
0000
0000
1100
0000
0000
0001
0000
0000
0101
0000
0000
0001
0000
,  // measure 29
1000
0000
0010
1000
0000
0010
0100
0000
0001
0000
0010
0000
0001
0000
1000
0000
,  // measure 30
0100
0000
1000
0010
0000
0100
0001
0000
1000
0000
0100
0000
1000
0000
0001
0000
,  // measure 31
0010
0000
0100
0010
0000
0001
0100
0000
0010
0000
0100
0000
0001
0000
1000
0000
,  // measure 32
0001
0000
0100
0000
1000
0000
0100
0000
0010
1000
0000
0100
0000
0000
0010
0000
,  // measure 33
0100
0000
0010
0000
0001
0000
1000
0000
0001
0000
0100
0001
0000
0000
0000
0000
,  // measure 34
1000
0000
0010
0000
0100
0000
0001
0000
0010
0000
0100
1000
0000
0000
0100
0000
,  // measure 35
0010
0000
0001
0000
0100
0000
0001
0000
1000
0100
0000
1000
0000
0000
0010
0000
,  // measure 36
0100
0000
0000
0001
0000
0000
0001
0000
1000
0000
0010
0000
0100
0000
0001
0000
,  // measure 37
1000
0000
1100
0000
0001
0000
0101
0001
,  // measure 38
0020
0000
0100
0130
,  // measure 39
0010
0000
0001
1000
0100
1000
0010
0100
,  // measure 40
0001
0000
1000
0000
0100
0000
0000
0000
1000
0010
1000
0010
1000
0000
0000
0000
,  // measure 41
0100
0000
0010
0001
1000
0001
0010
0100
,  // measure 42
0010
0000
0001
0000
0100
0000
0000
0000
0001
0100
0001
0100
0001
0000
0000
0000
,  // measure 43
0100
0000
0001
0010
0100
0000
1000
0000
0100
0000
0010
0000
0100
0000
1000
0001
,  // measure 44
1000
0010
0110
0000
1000
0100
1100
0000
,  // measure 45
0001
0000
0100
0001
0010
0000
0001
0000
1000
0000
0001
0000
0100
0000
0001
0000
,  // measure 46
0101
0000
0010
0000
0100
0010
1000
0100
,  // measure 47
1000
0000
0001
0100
0010
0000
0100
0000
0010
1000
0100
0000
1000
0000
0100
0000
,  // measure 48
0010
0100
0110
0000
0001
1000
1001
0000
,  // measure 49
0100
0000
0010
0000
1000
0001
0000
0100
0001
0000
0010
0001
0000
1000
0001
0000
,  // measure 50
0100
0000
0001
0000
0010
0100
0000
0010
0001
0000
0010
0100
0000
0100
1000
0000
,  // measure 51
0001
0000
0100
0000
0010
1000
0000
1000
0010
0000
0100
0001
0000
0010
0100
0000
,  // measure 52
1000
0000
0001
0000
0100
0000
0001
0000
0100
0000
1000
0100
0000
0010
0100
0000
,  // measure 53
0010
0000
0001
0000
1000
0100
0000
1000
0100
0000
0010
0001
0000
0010
0001
0000
,  // measure 54
0100
0000
0001
0000
1000
0010
0000
0100
0001
0000
0010
0100
0000
1000
0100
0000
,  // measure 55
0010
0000
0001
0000
1000
0001
0000
0100
0001
0000
0010
0100
0000
1000
0100
0000
,  // measure 56
1000
0001
0100
0001
1000
0100
0010
0010
,  // measure 57
0100
1000
0001
0010
0100
1000
0001
0010
,  // measure 58
0001
0000
0100
0000
0001
0010
0000
0001
0100
0000
0001
1000
0000
0001
0100
0000
,  // measure 59
0001
0000
1000
0000
1000
0100
0000
1000
0010
0000
1000
0001
0000
1000
0100
0000
,  // measure 60
0010
0000
0100
0000
0010
0100
0000
0010
0001
0000
0010
1000
0000
0010
0001
0000
,  // measure 61
0100
0010
0100
0010
0100
0010
0100
0010
0100
0000
0000
0001
0000
0000
1000
0000
,  // measure 62
0001
0000
0100
0000
0001
1000
0000
1000
0001
0000
0001
1000
0000
1000
0001
0000
,  // measure 63
0010
0000
0100
0000
0010
0100
0000
0100
0010
0000
0010
0100
0000
0100
0010
0000
,  // measure 64
0001
0000
1000
0000
0001
0010
0000
0100
1000
0000
1000
0100
0000
0010
0001
0000
,  // measure 65
1000
0001
0100
1000
0100
0001
0010
0100
,  // measure 66
1000
0000
0100
0000
0001
0000
0100
0000
1000
0000
0010
0000
0100
0001
0100
0001
,  // measure 67
1000
0000
0000
0000
1000
0100
0010
0001
1000
0000
0000
0000
0001
0000
0100
0000
,  // measure 68
1000
0000
0000
0000
0100
0010
1000
0001
0100
0000
0001
0000
1000
0000
0100
0000
,  // measure 69
0010
0000
0000
0000
0100
0001
1000
0001
0100
0000
0000
0000
0010
0000
0100
0000
,  // measure 70
1001
0000
0011
0000
1000
1010
0001
0202
,  // measure 71
0000
0000
0000
0303
;
