#TITLE:The Smile of You;
#SUBTITLE:;
#ARTIST:猫叉Master feat. JESSY;
#TITLETRANSLIT:;
#SUBTITLETRANSLIT:;
#ARTISTTRANSLIT:Nekomata Master feat. JESSY;
#GENRE:;
#CREDIT:;
#MENUCOLOR:;
#NEWMETERSYSTEM:NO;
#BANNER:The Smile of You-bn.png;
#BACKGROUND:The Smile of You-bg.png;
#LYRICSPATH:;
#CDTITLE:MixMania 4 CD Title.png;
#MUSIC:The Smile of You.mp3;
#OFFSET:-0.380;
#SAMPLESTART:99.060;
#SAMPLELENGTH:12.000;
#SELECTABLE:YES;
#LISTSORT:;
#BPMS:0.000=136.000;
#STOPS:;
#BGCHANGES:;
#ATTACKS:;

//---------------dance-single - ----------------
#NOTES:
     dance-single:
     :
     Easy:
     3:
     0.250,0.269,0.161,0.183,0.000:
0000
0000
0000
0000
,
0000
0000
0000
0000
,
0000
0000
0000
0000
,
0000
0000
0000
0000
,
0001
0000
0001
0000
,
1000
1000
0100
1000
,
0000
0100
0000
0100
,
0010
0100
1000
0001
,
0001
0000
0101
0000
,
1000
0000
1100
0000
,
0010
0000
1001
0000
,
1000
0100
0010
0000
,
1000
0000
1100
0000
,
0001
0001
0100
0001
,
0000
0010
0000
0010
,
0001
0010
0100
1000
,
0001
0001
1000
0000
,
1000
1000
0100
0000
,
0010
0100
1000
0000
,
1000
0100
0010
0001
,
0100
0100
0010
0000
,
2000
3000
0002
0003
,
0100
0001
0100
0000
,
1000
0010
1000
0000
,
0001
0001
1000
0000
,
0001
0010
0100
1000
,
0100
0100
1000
0000
,
0010
0100
0020
0030
,
1001
0000
0110
0000
,
1000
0100
0010
0000
,
0110
0000
1001
0000
,
0001
0010
0100
0000
,
2000
0000
0100
3000
,
0002
0000
0010
0003
,
0000
1000
0000
0001
,
0010
0100
0000
1001
,
0100
0001
0100
1000
,
0010
0100
0001
0000
,
1000
1000
0100
0000
,
0001
0001
0100
0000
,
0010
0100
0010
1000
,
2000
0000
3200
0000
,
1300
0001
0100
0000
,
0001
1000
0100
0000
,
0010
0010
0100
0000
,
0001
0010
0100
1000
,
0001
0001
1000
0000
,
0010
0100
0001
0000
,
0011
0000
1100
0000
,
0010
1000
0100
0000
,
1010
0000
0101
0000
,
0001
0001
1000
0000
,
0002
1000
1003
0000
,
2000
0100
3100
0000
,
0000
0010
0000
0010
,
0000
0100
0010
1001
,
0100
1000
0200
0300
,
0001
0010
0100
1000
,
0001
0010
0002
0003
,
0100
0100
0010
1000
,
2200
0000
3300
0000
,
0202
0000
0303
0000
,
0020
0000
0230
0000
,
0310
0010
1000
1001
,
0100
0100
0002
0003
,
0010
0100
1000
0001
,
1000
0100
2000
3000
,
0010
0010
0100
0001
,
0022
0000
0033
0000
,
2020
0000
3030
0000
,
1000
1100
0000
0101
,
0000
0001
0010
1000
,
2002
0000
0000
0000
,
0000
0000
0000
3003
;

//---------------dance-single - Copied from----------------
#NOTES:
     dance-single:
     Copied from:
     Beginner:
     1:
     0.136,0.158,0.007,0.168,0.000:
0000
0000
0000
0000
,
0000
0000
0000
0000
,
0000
0000
0000
0000
,
0000
0000
0000
0000
,
1000
0000
1000
0000
,
0001
0000
0000
0001
,
0000
0000
0000
0000
,
0020
0000
0030
0000
,
0010
0000
0010
0000
,
1000
0000
1000
0000
,
0001
0000
0001
0000
,
0200
0000
0300
0000
,
0010
0000
1000
0000
,
0001
0000
0000
0100
,
0000
0000
0000
0000
,
0010
0000
0010
0000
,
2000
0000
3000
0000
,
0200
0000
0300
0000
,
0010
0000
0001
0000
,
0200
0000
0300
0000
,
0002
0000
0003
0000
,
0010
0000
0010
0000
,
0200
0000
0300
0000
,
0020
0000
0030
0000
,
0001
0000
1000
0000
,
0020
0000
0030
0000
,
0200
0000
0300
0000
,
0001
0000
1000
0000
,
0010
0000
0010
0000
,
0200
0000
0300
0000
,
0001
0000
0001
0000
,
2000
0000
3000
0000
,
0100
0000
0100
0000
,
2000
0000
3000
0000
,
0010
0000
0010
0000
,
0002
0000
0003
0000
,
1001
0000
0010
0000
,
0100
0000
0100
0000
,
2000
0000
3000
0000
,
0002
0000
0003
0000
,
1000
0000
0100
0000
,
1000
0000
0010
0000
,
0100
0000
0100
0000
,
0001
0000
0001
0000
,
0020
0000
0030
0000
,
0002
0000
0003
0000
,
0100
0000
0100
0000
,
0010
0000
1000
0000
,
0001
0000
0001
0000
,
0010
0000
0010
0000
,
0100
0000
0000
0000
,
1000
0000
0010
0000
,
0100
0000
0001
0000
,
0001
0000
1000
0000
,
0000
0001
0000
1000
,
0000
0010
0000
0000
,
0002
0000
0003
0000
,
1000
0000
1000
0000
,
0020
0000
0030
0000
,
0100
0000
0100
0000
,
0001
0000
0010
0000
,
0100
0000
1000
0000
,
0010
0000
0000
0000
,
0200
0000
0300
0000
,
2000
0000
3000
0000
,
0001
0000
0100
0000
,
0002
0000
0003
0000
,
1000
0000
0100
0000
,
0100
0000
0010
0000
,
0001
0000
1000
0000
,
0000
0001
0000
1000
,
0000
0001
0000
0000
,
0010
0000
0000
0000
;

//---------------dance-single - Copied from----------------
#NOTES:
     dance-single:
     Copied from:
     Medium:
     4:
     0.311,0.350,0.161,0.190,0.000:
0000
0000
0000
0000
,
0000
0000
0000
0000
,
0000
0000
0000
0000
,
0000
0000
0000
0000
,
0100
0100
1001
0000
,
0001
0100
1000
1000
,
0100
0010
0001
1000
,
0100
0100
0010
0100
,
2000
3001
0101
0000
,
0002
0013
0110
0000
,
2000
3100
0110
0000
,
1000
0100
2000
3001
,
0200
0301
0011
0000
,
0002
0013
1100
0020
,
0100
1000
0100
1030
,
0001
0100
0001
1001
,
0010
0100
0010
0000
,
1000
0100
1000
0000
,
0001
0100
0010
1000
,
0100
0100
0020
0031
,
0100
0010
1000
0001
,
1000
1000
1100
0000
,
0010
0010
0100
0000
,
1000
1000
0001
0000
,
0010
0001
0010
0100
,
1000
0001
0001
0000
,
0010
0010
0001
0100
,
1000
0100
0200
0000
,
1300
0010
0100
0001
,
1000
0010
0100
0001
,
0010
0100
1000
0100
,
0010
0100
1000
0001
,
0102
1000
0100
0013
,
2100
0010
0001
3100
,
0002
0000
0100
0000
1003
0000
0100
0020
,
0000
0000
0000
0000
0000
1000
1030
0000
,
0001
1000
0100
0010
,
0100
1000
0001
0100
,
0010
0000
0000
1000
0000
0000
0100
0000
,
0010
0000
0000
0001
0000
0000
0100
0000
,
0001
1000
0100
0010
,
0200
1000
1300
0000
,
1000
0100
1000
0001
,
0100
0010
0100
0001
,
0010
0000
0000
0001
0000
0000
0100
0000
,
0010
1000
1000
0100
,
0010
0000
0000
0100
0000
0000
1000
0000
,
0001
0100
0001
0000
,
0011
0010
0010
0000
,
1100
1000
1000
0100
,
0001
0200
1300
0010
,
0100
0001
0001
1000
,
0010
0200
0301
0010
,
0100
0000
0100
0000
1000
0000
0000
0001
,
0000
1000
0000
1000
,
0000
0001
0001
0110
,
1000
1100
0100
0010
,
0100
0010
0001
1000
,
0001
0011
0010
0100
,
1000
1000
0001
0100
,
0120
0100
0100
1030
,
0210
0010
0010
0301
,
1000
0100
0001
0100
,
2000
3002
0203
0320
,
1030
1010
0010
0100
,
0001
0010
0100
1000
,
0001
0101
0100
0001
,
0010
0100
1000
0100
,
2100
0010
0010
3001
,
0012
0100
0100
1003
,
0000
0100
0000
0100
0000
0010
0000
0010
,
0000
1000
0001
0000
0010
0000
0100
0000
,
2002
0000
0000
0000
,
0000
0000
0000
3003
;

//---------------dance-single - Copied from----------------
#NOTES:
     dance-single:
     Copied from:
     Hard:
     6:
     0.405,0.431,0.190,0.204,0.000:
0000
0000
0000
0000
,
0000
0000
0000
0000
,
0000
0000
0000
0000
,
0000
0000
0000
0000
,
1010
0000
1000
0000
1100
0000
1000
0001
,
0100
0001
0010
0100
0000
0100
1000
0000
,
0100
1000
0010
0100
,
0001
1000
0100
0010
0001
0000
0101
0000
,
0001
0000
1000
0001
0002
0000
0103
0000
,
0010
0000
0010
1000
2000
0000
3100
0000
,
0010
0000
0100
1000
0002
0000
0103
0000
,
0010
0100
0010
0000
1001
0000
0100
0000
,
0010
0000
0100
0100
0020
0000
0130
1000
,
0001
0000
0100
0001
0000
1000
0100
0000
,
0010
0100
1000
0001
,
0010
0001
0010
0001
0020
0000
0130
0000
,
0010
0000
0001
1000
0001
0000
0100
0000
,
0001
0000
0010
0100
0010
0000
1000
0000
,
0100
0000
1000
0100
0000
0000
0010
0000
,
0100
0010
0001
0000
1001
0000
0001
0000
,
0100
0000
0010
1000
0000
0000
0001
0000
,
0200
0001
0310
0001
,
1000
0000
0100
0010
0001
0000
1000
0000
,
0001
0000
0010
0100
1000
0000
0001
0000
,
0100
0000
0001
0010
0000
0000
0100
0000
,
1000
0000
1000
0000
0010
1000
0010
0000
,
0110
0000
0100
0001
1000
0000
0001
0000
,
0100
0000
0100
0001
1000
0100
0010
0000
,
0100
0100
1000
1000
,
0001
0000
0010
0000
0001
0100
0001
0000
,
0020
0000
0130
0010
,
0001
1000
0000
0001
0000
0001
0000
0000
,
1001
1000
0100
0010
,
0100
0000
0010
0000
0001
0000
1000
0001
,
0000
0000
0100
0000
0100
0010
1000
0010
,
0000
1000
0001
1000
0000
0010
0100
0010
,
0100
0000
0001
0000
1000
0000
0001
1000
,
0100
0000
0010
0000
0100
0000
0010
0010
,
0001
1000
0001
0100
0000
0000
0001
0000
,
1000
0100
1000
0010
0000
0000
0100
0000
,
0010
0100
0001
0000
1000
0100
1000
0000
,
0020
0230
0302
1000
,
0103
0000
0010
0000
1000
0000
0001
1000
,
0100
0000
0010
0000
0100
0000
0010
0001
,
1000
0001
0100
0001
0000
0000
1000
0100
,
1000
0010
0100
0000
0001
0100
1000
0000
,
0100
0000
0010
1000
0000
0000
0001
0000
,
2000
3200
0320
0100
,
1030
0100
0001
1000
,
0001
0100
0010
0000
1000
0010
0100
0000
,
0001
0000
1000
0001
0000
0000
0010
0100
,
0010
0001
0000
1000
0000
0100
0010
0000
,
1001
0000
0100
0001
0001
0000
1000
0000
,
0100
0000
0010
0100
1000
0000
1000
0200
,
0000
0010
0000
0320
0000
0001
0000
0032
,
0000
0100
0000
1003
0010
0100
0100
0000
,
0011
0000
1001
0000
0011
0000
1000
0100
,
0001
0100
1000
0000
0002
0000
1003
0000
,
1100
0000
1001
0000
1100
0000
0001
0100
,
1000
0100
0001
0000
2000
0000
3001
0000
,
0200
0000
0000
0010
0310
0000
0110
0000
,
2000
0000
0000
0001
3001
0000
0101
0000
,
0001
0010
0100
0000
1000
0100
0010
0100
,
1000
0100
0101
0001
,
0011
0000
1001
0000
0011
0000
1000
0100
,
0001
0100
1000
0000
0002
0000
1003
0000
,
1100
0000
1001
0000
1100
0000
0001
0100
,
1000
0100
0001
0000
2000
0000
3001
0000
,
0002
0000
0000
0010
0013
0000
1001
0000
,
2000
0000
0000
0100
3100
0000
1001
0000
,
0010
0200
0000
0010
0000
0320
0000
1000
,
0000
1030
0100
0001
0100
1000
0001
0000
,
0220
0000
0000
0000
,
0000
0000
0000
0330
;

//---------------dance-single - Copied from ----------------
#NOTES:
     dance-single:
     Copied from:
     Challenge:
     8:
     0.503,0.512,0.190,0.234,0.000: // measure 1
0000
0000
0000
0000
,  // measure 2
0000
0000
0000
0000
,  // measure 3
0000
0000
0000
0000
,  // measure 4
0000
0000
0000
0000
,  // measure 5
0011
0000
0002
0000
0103
0000
0010
1000
,  // measure 6
0100
0010
0001
2000
0000
3001
0100
0010
,  // measure 7
0000
0100
0000
0010
0000
1000
0000
0100
,  // measure 8
1000
0010
0100
0001
1000
0001
0100
1000
,  // measure 9
0200
0000
0310
1000
0200
0000
0320
0000
,  // measure 10
0032
0000
1003
0001
0200
0000
0320
0000
,  // measure 11
2030
0000
3100
1000
0020
0000
0230
0000
,  // measure 12
0301
1000
0100
0001
0200
0000
1300
0000
,  // measure 13
2010
0000
3100
0010
0002
0000
0103
0001
,  // measure 14
1000
0001
0001
0200
0000
0310
1000
0100
,  // measure 15
0000
0100
0000
0010
0000
0010
0000
0001
,  // measure 16
1000
0001
1000
0001
0010
0100
0200
0000
,  // measure 17
1300
0000
0100
1000
0010
0000
0100
0001
,  // measure 18
1000
0000
0001
0010
0100
0000
0010
0001
,  // measure 19
1000
0001
0001
0200
0000
0000
1300
0000
,  // measure 20
0100
0010
0100
0010
2100
0000
3001
0000
,  // measure 21
1000
0100
0010
0002
0100
0000
0103
0000
,  // measure 22
1000
0001
0100
1000
0100
0000
0110
0000
,  // measure 23
1000
0000
0001
0100
0001
0000
1000
0010
,  // measure 24
0100
0000
0001
0010
0100
0000
1000
0100
,  // measure 25
0001
0100
1000
0001
1000
0000
0001
0100
,  // measure 26
1000
0100
0001
0100
1000
0010
0001
0100
,  // measure 27
1000
0100
1000
0002
1000
0000
0103
0000
,  // measure 28
0010
0100
0001
1000
1002
0000
0103
0000
,  // measure 29
0210
0000
0010
0000
0301
0000
0001
1000
,  // measure 30
0001
0001
0100
0000
0110
0010
1000
0000
,  // measure 31
0200
0000
1000
0000
1300
0000
0100
0010
,  // measure 32
0100
0100
1000
0100
0010
0100
0001
0010
,  // measure 33
0100
0010
0010
0001
,  // measure 34
1000
0000
1000
0000
0100
0001
0100
1000
,  // measure 35
0000
0001
0000
1000
0000
0001
0001
0101
,  // measure 36
0000
1000
0010
0100
0000
0001
1000
0010
,  // measure 37
1100
0000
0100
1000
0010
0000
0100
0010
,  // measure 38
1000
0000
0001
0010
0001
0000
0100
0001
,  // measure 39
0010
0100
1000
0100
0010
0000
0010
0100
,  // measure 40
0010
0001
1000
0001
0100
0000
0100
0010
,  // measure 41
1000
1000
0001
0002
0010
0000
0103
0000
,  // measure 42
0010
0010
0001
0001
0210
0000
1300
0000
,  // measure 43
0010
0000
1000
0001
0100
0000
0010
0001
,  // measure 44
0100
0000
0010
0100
1000
0000
1000
0100
,  // measure 45
0001
0010
1000
0010
0001
0000
0100
0010
,  // measure 46
0001
1000
0100
0010
0001
0100
0100
0010
,  // measure 47
1000
0001
0100
0001
1000
0000
0001
0010
,  // measure 48
0001
0100
0010
1000
0210
0000
0301
0000
,  // measure 49
1000
0100
0010
0000
1000
0100
0010
0001
,  // measure 50
0010
0010
0001
0001
1000
0100
0001
0000
,  // measure 51
0100
1000
0010
0100
0100
0000
0100
0010
,  // measure 52
1000
1000
0001
1000
0010
1000
0001
0010
,  // measure 53
1000
0000
0010
0000
0001
0100
0001
0000
,  // measure 54
1000
0000
0100
1000
0010
0010
0100
0001
,  // measure 55
0000
0100
0100
0010
0000
1000
1000
0010
,  // measure 56
0000
1000
1000
0001
0001
0010
0100
1000
,  // measure 57
1001
0001
0110
0000
1100
0000
0100
0010
,  // measure 58
0001
1000
0001
0010
1000
0010
0001
1000
,  // measure 59
1100
0010
0101
0000
1001
0000
0010
0000
,  // measure 60
1000
0100
0010
0001
2000
0000
3001
0000
,  // measure 61
0110
0000
1000
0001
1000
0000
0001
1000
,  // measure 62
0100
0010
0001
0100
0010
0100
0001
0010
,  // measure 63
0100
0010
0010
0000
0001
0100
1000
0000
,  // measure 64
0200
0320
1030
1100
,  // measure 65
0101
0001
1100
0000
0110
0000
1000
0100
,  // measure 66
0100
0010
0100
1000
0001
0100
0010
1000
,  // measure 67
0101
1000
0110
0000
1001
0000
0010
0100
,  // measure 68
0001
0010
0100
0010
2000
0000
3010
0000
,  // measure 69
0001
0000
0001
0100
0100
0000
0010
1000
,  // measure 70
0100
1000
0001
1000
0100
0010
0100
0010
,  // measure 71
0001
0001
1000
1000
0000
0010
1000
1000
,  // measure 72
0000
0100
0010
0001
0010
0001
1000
0100
,  // measure 73
2002
0000
0000
0000
,  // measure 74
0000
0000
0000
3003
;
