#TITLE:The Single Life;
#SUBTITLE:;
#ARTIST:Sarina Paris;
#TITLETRANSLIT:;
#SUBTITLETRANSLIT:;
#ARTISTTRANSLIT:;
#GENRE:;
#CREDIT:;
#MENUCOLOR:;
#NEWMETERSYSTEM:NO;
#BANNER:The Single Life-bn.png;
#BACKGROUND:The Single Life-bg.png;
#LYRICSPATH:;
#CDTITLE:MixMania 4 CD Title.png;
#MUSIC:The Single Life.mp3;
#OFFSET:-0.220;
#SAMPLESTART:75.460;
#SAMPLELENGTH:12.000;
#SELECTABLE:YES;
#LISTSORT:;
#BPMS:0.000=132.000;
#STOPS:64.000=1.820
,128.000=1.820
;
#BGCHANGES:;
#ATTACKS:;

//---------------dance-single - ----------------
#NOTES:
     dance-single:
     :
     Easy:
     3:
     0.273,0.264,0.089,0.071,0.000: // measure 1
0000
0000
0000
0000
,  // measure 2
0000
0000
0000
0000
,  // measure 3
0000
0000
0000
0000
,  // measure 4
0000
0000
0000
0000
,  // measure 5
0001
0000
1000
0000
,  // measure 6
0001
0100
0010
1000
,  // measure 7
0100
0000
0010
0000
,  // measure 8
0100
0100
0001
1000
,  // measure 9
0110
0010
1000
0001
,  // measure 10
0010
0100
1000
0001
,  // measure 11
0100
0010
0100
0001
,  // measure 12
0000
1000
0001
0100
,  // measure 13
0001
1000
0100
1000
,  // measure 14
0001
0010
1000
0010
,  // measure 15
0001
0100
0010
1000
,  // measure 16
0000
1000
0100
0010
,  // measure 17
0001
0101
1000
0100
,  // measure 18
2000
3000
0010
1000
,  // measure 19
0001
1100
1000
0010
,  // measure 20
0200
0300
0010
0100
,  // measure 21
0001
1001
0010
0100
,  // measure 22
2000
3000
0010
1000
,  // measure 23
0100
0011
0100
0010
,  // measure 24
0002
0000
0000
0000
,  // measure 25
0103
0010
1000
0001
,  // measure 26
0100
0001
0010
0100
,  // measure 27
0010
0001
1000
0100
,  // measure 28
0010
1000
0100
0010
,  // measure 29
0100
1000
0001
0100
,  // measure 30
0010
0001
0100
0010
,  // measure 31
1000
0001
0100
0010
,  // measure 32
1000
0100
0010
0001
,  // measure 33
1001
0010
0100
0001
,  // measure 34
1000
0000
0100
0010
,  // measure 35
0001
1000
0100
1000
,  // measure 36
0010
0000
0100
0010
,  // measure 37
0100
0001
0010
0100
,  // measure 38
1000
0000
1000
0010
,  // measure 39
0100
0001
0010
0001
,  // measure 40
1000
0000
0100
0100
,  // measure 41
0100
1001
0001
0100
,  // measure 42
0020
0030
1000
1000
,  // measure 43
0001
0110
1000
0001
,  // measure 44
0200
0300
1000
0100
,  // measure 45
0010
1100
0010
0100
,  // measure 46
0002
0003
0001
1000
,  // measure 47
0010
1010
0010
0100
,  // measure 48
0002
0000
0000
0000
,  // measure 49
1003
0100
0010
0001
,  // measure 50
1000
0001
0100
0001
,  // measure 51
0100
0010
1000
0001
,  // measure 52
1000
0100
0010
0100
,  // measure 53
0010
0001
0100
0010
,  // measure 54
1000
0001
0100
0001
,  // measure 55
1000
0100
0010
0100
,  // measure 56
1000
0001
0100
0001
,  // measure 57
0010
0000
0010
0000
,  // measure 58
0100
0010
0100
0010
,  // measure 59
0100
0000
0100
0000
,  // measure 60
0001
1000
0001
1000
;

//---------------dance-single - Copied from----------------
#NOTES:
     dance-single:
     Copied from:
     Beginner:
     1:
     0.104,0.132,0.018,0.027,0.000:
0000
0000
0000
0000
,
0000
0000
0000
0000
,
0000
0000
0000
0000
,
0000
0000
0000
0000
,
1000
0000
0000
0000
,
0100
0000
0000
0000
,
0010
0000
0000
0000
,
0001
0000
0000
0000
,
0100
0000
0010
0000
,
0100
0000
0010
0000
,
1000
0000
0001
0000
,
1000
0000
0001
0000
,
0100
0000
0010
0000
,
0100
0000
0010
0000
,
1000
0000
0001
0000
,
1000
0000
0001
0000
,
0100
0000
0010
0000
,
0010
0000
0000
0000
,
0000
0000
1000
0000
,
1000
0000
0000
0000
,
0000
0000
0100
0000
,
0100
0000
0000
0000
,
0000
0000
0001
0000
,
0002
0000
0003
0000
,
0010
0000
0001
0000
,
1000
0000
0000
0000
,
0100
0000
1000
0000
,
0010
0000
0000
0000
,
0100
0000
0010
0000
,
0100
0000
0000
0000
,
0001
0000
0010
0000
,
1000
0000
0000
0000
,
1001
0000
0000
0000
,
0100
0000
0000
0000
,
0010
0000
0000
0000
,
1000
0000
0000
0000
,
0001
0000
0000
0000
,
0010
0000
0000
0000
,
0100
0000
0000
0000
,
0002
0000
0003
0000
,
0001
0000
1000
0000
,
1000
0000
0000
0000
,
0000
0000
0100
0000
,
0100
0000
0000
0000
,
0000
0000
0010
0000
,
0010
0000
0000
0000
,
0000
0000
0001
0000
,
2000
0000
3000
0000
,
0100
0000
1000
0000
,
0010
0000
0000
0000
,
0010
0000
0001
0000
,
1000
0000
0000
0000
,
0001
0000
1000
0000
,
0100
0000
0000
0000
,
0001
0000
0100
0000
,
0010
0000
0000
0000
,
1001
0000
0000
0000
,
0100
0000
0100
0000
,
0010
0000
0000
0000
,
0100
0000
1000
1000
;

//---------------dance-single - Copied from----------------
#NOTES:
     dance-single:
     Copied from:
     Medium:
     5:
     0.325,0.344,0.062,0.027,0.000:
0000
0000
0000
0000
,
0000
0000
0000
0000
,
0000
0000
0000
0000
,
0000
0000
0000
0000
,
1001
0000
1000
0000
1000
0100
0001
0000
,
0100
0010
0100
0000
0001
1000
0001
0000
,
0100
0001
0010
0100
,
0000
1000
0100
0010
,
1001
0100
0001
1000
,
0001
0100
1000
0000
0001
0010
0100
0000
,
1000
0000
0100
0000
0010
0100
1000
0000
,
0000
0001
0100
1000
,
0010
0100
0010
0001
,
1000
0100
0010
0000
0001
0010
0100
0000
,
0010
0100
0010
1000
,
0000
0100
0010
0100
,
1001
0000
0100
0010
0100
0000
0010
0100
,
0010
0000
1000
0100
,
0001
0000
0100
1000
0100
0000
0001
0100
,
0001
0000
0010
0001
,
1000
0000
0010
0100
0010
0000
1000
0001
,
1000
0000
0100
1000
,
0010
0000
0100
0001
0100
0000
0010
1000
,
0020
0000
0000
0030
,
0110
0001
0100
0001
,
1000
0001
0000
1000
0000
0001
0000
0010
,
0100
1000
0010
0100
,
0010
1000
0000
0100
0000
0010
0000
0001
,
0100
0001
0010
0100
,
0010
0001
0000
0100
0000
0010
0000
1000
,
0001
1000
0001
0100
,
0010
1000
0000
0001
0000
0010
0000
0100
,
1000
0000
0100
0000
0010
0000
0100
0010
,
0001
0000
0100
0001
,
1000
0000
0010
0000
0100
0000
0010
0100
,
1000
0000
0100
0010
,
1000
0000
0001
0000
0100
0000
0010
0001
,
0100
0000
0001
1000
,
0001
0000
0100
0000
0010
0000
0100
0010
,
2000
0000
0100
3100
,
1001
0000
0010
0001
0100
0000
0010
1000
,
0100
0010
0001
1000
,
0001
0000
0010
0001
0010
0000
0001
0010
,
0100
0010
0001
1000
,
0100
0000
0010
0100
0010
0000
0001
1000
,
0100
0001
0100
0010
,
1000
0000
0001
0100
0010
0000
1000
0001
,
2000
0000
0000
3000
,
0110
0000
0001
0000
1000
0100
0010
0000
,
0100
0010
0000
0100
0000
0001
0000
0100
,
0010
0000
1000
0000
0001
0100
0010
0000
,
1000
0100
0000
0010
0000
0001
0000
0100
,
0010
0000
0010
0000
1000
0001
1000
0000
,
0100
0010
0001
1000
,
0001
0000
0100
0000
0010
0100
0001
0000
,
1000
0010
0000
1000
0000
0001
0000
0010
,
0110
0000
0001
0000
,
1000
0100
0010
0001
,
0100
0000
0100
0000
0001
0100
0010
0000
,
0000
1000
0010
0100
0000
0001
1000
0000
;

//---------------dance-single - Copied from----------------
#NOTES:
     dance-single:
     Copied from:
     Hard:
     6:
     0.398,0.397,0.089,0.044,0.000:
0000
0000
0000
0000
,
0000
0000
0000
0000
,
0000
0000
0000
0000
,
0000
0000
0000
0000
,
1001
0000
0001
0000
0010
0001
0100
0000
,
0010
1000
0001
0100
0002
0000
1003
0000
,
0100
0000
1000
0000
0010
0100
0010
0000
,
0000
1000
0100
0001
0000
0001
0100
0000
,
1000
0000
0010
0000
0100
0001
1000
0000
,
1000
0001
0010
0100
0020
0000
0130
0000
,
0010
0000
0001
0000
1000
0100
1000
0000
,
0000
0010
0100
0010
0000
1000
0001
0000
,
0001
0000
1000
0000
0100
1000
0010
0000
,
0100
0100
0001
0001
0010
0100
1000
0000
,
0001
0000
0101
0000
1000
0010
0010
0000
,
0000
0100
0001
1000
0000
0100
0010
0000
,
0110
0000
0001
0100
1000
0000
0100
0010
,
1000
0000
0100
0010
0001
1000
0100
0010
,
0100
0000
0010
0001
1000
0000
0010
0100
,
1000
0000
0010
0100
0001
1000
0100
0010
,
0001
0000
0100
0001
0010
0000
0100
1000
,
0010
0000
0100
0001
0010
0100
1000
0001
,
0010
0000
0001
0100
0001
0000
1000
0100
,
0020
0000
0000
0030
,
1001
0000
0100
0001
0010
0100
1000
0000
,
0010
0100
0000
0100
0000
0100
0000
0010
,
1000
0000
0100
1000
0010
0100
0001
0000
,
0001
1000
0000
1000
0000
1000
0000
0001
,
0010
0000
0100
0010
1000
0001
1000
0000
,
1000
0100
0000
0010
0000
0100
0000
1000
,
0010
0000
0001
1000
0001
0010
0001
0000
,
0010
0100
0000
1000
0000
0001
0000
0100
,
0001
0000
0001
0000
0100
0000
0001
1000
,
0100
1000
0010
0100
,
0010
0000
0100
0000
0001
0000
1000
0001
,
1000
0100
0010
0100
,
1001
0000
0010
0000
0100
0000
0010
0100
,
0010
0100
0001
1000
,
0001
0000
0010
0000
0001
0000
1000
0001
,
0020
0000
0000
0000
0100
0000
0130
0100
,
1100
0000
0001
0100
1000
0000
0001
0010
,
1000
0000
0010
0001
0100
0010
1000
0001
,
0100
0000
0001
0010
0001
0000
1000
0100
,
1000
0000
0010
0100
0001
1000
0100
1000
,
0001
0000
0100
1000
0010
0000
0100
0001
,
0010
0000
0100
1000
0010
0100
0001
0010
,
0100
0000
1000
0100
0010
0000
0100
0010
,
0002
0000
0000
0003
,
0110
0000
0001
1000
0100
0010
0100
0000
,
1000
0100
0000
1000
0000
0001
0000
0100
,
0001
0000
0010
0001
1000
0100
0010
0000
,
0100
0010
0000
0010
0000
1000
0000
1000
,
0001
0000
0010
1000
0100
0010
0001
0000
,
0001
1000
0000
0001
0000
0010
0000
0001
,
0100
0000
0001
0010
0001
1000
0100
0000
,
0010
0100
0000
0010
0000
1000
0000
0001
,
1001
0000
0100
0000
0100
0010
0001
0000
,
1000
0001
1000
0000
0110
0000
1001
0000
,
0001
0000
0100
0000
0001
1000
0010
0000
,
0000
0100
0001
1000
0000
1000
0100
0000
;

//---------------dance-single - Copied from----------------
#NOTES:
     dance-single:
     Copied from:
     Challenge:
     7:
     0.513,0.476,0.159,0.239,0.000:
0000
0000
0000
0000
,
0000
0000
0000
0000
,
0000
0000
0000
0000
,
0000
0000
0000
0000
,
0110
0000
0010
0000
1000
0100
0010
0000
,
0100
0010
0001
0100
0001
1000
0100
0000
,
1000
0000
0010
0000
0100
0001
1000
0000
,
0001
0010
0100
1000
0100
0010
0001
0000
,
1100
0000
0101
0000
0010
0100
0001
0000
,
1000
0001
0010
0100
0010
0001
1000
0000
,
0101
0000
1100
0000
0010
0100
1000
0000
,
0100
0010
1000
0001
0010
0100
1000
0000
,
0110
0000
1001
0000
0001
0100
0001
0000
,
1000
0100
0010
0100
1000
0001
0100
0000
,
0101
0000
1100
0000
0010
0100
0001
0000
,
1000
0100
0010
0100
1000
0001
0100
0010
,
0110
0000
0001
0100
1000
0100
0010
1000
,
0100
0000
0010
0001
1000
0001
0100
1000
,
0100
0000
0010
0100
0010
0001
1000
0100
,
0001
0000
0100
1000
0010
0100
0001
0010
,
0100
0000
0010
0001
1000
0010
0100
0001
,
1000
0000
0100
0010
0100
0010
0001
1000
,
0001
0000
0001
0100
0010
1000
0001
0100
,
0020
0000
0100
1030
,
1001
0100
1000
0010
0100
0001
0010
0001
,
0100
0002
0000
2003
0000
3002
0000
0103
,
0010
1000
0100
0010
0001
1000
0001
0100
,
0001
0020
0000
0032
0000
2003
0000
3100
,
1000
0010
0100
0001
0100
0001
1000
0100
,
0010
0200
0000
0320
0000
2030
0000
3100
,
0010
0001
0010
0001
1000
0001
0100
0010
,
1000
0002
0000
0203
0000
0320
0000
1030
,
0100
0000
0010
0010
0001
1000
0001
0100
,
0010
0000
0010
0100
0010
1000
0001
0100
,
0001
0000
0010
0001
0100
0010
1000
0001
,
0100
0000
0001
1000
0001
0010
0001
0100
,
0001
0000
1000
0100
0010
0100
1000
0001
,
0100
0000
0010
1000
0001
0100
0001
0100
,
1000
0000
1000
0100
0010
1000
0001
0100
,
0201
0000
0010
0000
0310
0001
0100
1000
,
0110
0000
1000
0100
0001
0100
1000
0010
,
0100
0000
0001
0100
0001
0100
0001
1000
,
0100
0000
1000
0010
0100
0001
1000
0100
,
0010
0000
0100
1000
0100
1000
0010
0100
,
0001
0000
0010
0001
0100
0001
1000
0010
,
0100
0000
0100
1000
0010
0001
0100
0001
,
1000
0000
0010
0100
0001
1000
0100
0010
,
0200
0001
1000
0301
,
1001
1000
0001
0100
0010
0001
0010
0100
,
0001
0200
0000
0320
0000
2030
0000
3100
,
0010
0001
1000
0100
0010
0100
0100
1000
,
0010
0200
0000
0302
0000
0023
0000
0031
,
0100
0010
1000
0001
0010
0100
0010
0001
,
0010
0200
0000
2300
0000
3200
0000
0310
,
0100
1000
0001
0100
0010
0100
0100
0010
,
1000
0020
0000
0230
0000
0302
0000
1003
,
0110
0000
0110
0000
0001
0100
0001
0000
,
1000
0100
0010
0100
1000
0001
0100
0000
,
0011
0000
1100
0000
0010
0100
0010
0000
,
1000
0100
0001
0100
1000
0001
1000
0000
;
