#TITLE:TIN-DON-DANCE;
#SUBTITLE:;
#ARTIST:ノーボトム!;
#TITLETRANSLIT:;
#SUBTITLETRANSLIT:;
#ARTISTTRANSLIT:No Bottom!;
#GENRE:;
#CREDIT:;
#MENUCOLOR:;
#NEWMETERSYSTEM:NO;
#BANNER:TIN-DON-DANCE-bn.png;
#BACKGROUND:TIN-DON-DANCE-bg.png;
#LYRICSPATH:;
#CDTITLE:MixMania 4 CD Title.png;
#MUSIC:TIN-DON-DANCE.mp3;
#OFFSET:-0.580;
#SAMPLESTART:88.300;
#SAMPLELENGTH:12.000;
#SELECTABLE:YES;
#LISTSORT:;
#BPMS:0.000=145.000;
#STOPS:;
#BGCHANGES:;
#ATTACKS:;

//---------------dance-single - ----------------
#NOTES:
     dance-single:
     :
     Easy:
     4:
     0.309,0.317,0.120,0.043,0.000:
0000
0000
0000
0000
,
0000
0000
0000
0000
,
0000
0000
0000
0000
,
0000
0000
0000
0000
,
0010
0001
1000
0100
,
1000
0001
0010
0001
,
0000
1000
0001
0100
,
0020
0000
0000
0030
,
1001
0000
0000
0000
,
1000
0000
1000
0000
0001
1000
0001
0000
,
0100
0010
1000
0100
,
0010
0001
0100
0001
,
0010
0001
1000
0100
,
0100
0010
0101
1010
,
0001
0100
0001
0010
,
0001
0100
0010
1000
,
0100
0010
0001
1000
,
0001
0100
0010
1000
,
0010
0100
0010
1000
,
0001
0100
0001
0010
,
0001
0000
0000
1001
0000
0000
1000
0000
,
0100
0000
0000
0110
0000
0000
0001
0000
,
1000
0000
0000
0001
0100
0000
0010
0000
,
0010
0000
0000
1000
0001
0000
1000
0000
,
0100
0000
0000
0001
0010
0000
0001
0000
,
1000
0000
0000
0010
0100
0000
0010
0000
,
0001
0000
0000
1000
0100
0000
1000
0000
,
0010
0000
0000
0100
0010
0000
0001
0000
,
1000
0000
0000
0001
0010
0000
0100
0000
,
0010
0000
0000
0100
0010
0000
0001
0000
,
1000
0010
0100
0001
,
1000
0010
0100
0001
,
1000
0001
0010
0100
,
1000
0001
0010
0100
,
0010
0001
1000
0001
,
0100
0010
1000
0001
,
0100
0010
1000
0001
,
0010
0001
1000
1001
,
0010
0100
0010
1000
,
0001
0100
0010
0100
,
1000
0100
0010
0001
,
0001
0100
0001
1000
,
0010
0000
0000
0100
0001
0000
1000
0000
,
0100
0000
0000
0010
0100
0000
1000
0000
,
0001
0000
0000
0010
0001
0000
1000
0000
,
0001
0000
0000
0010
0001
0000
1000
0000
,
0100
0000
0000
0010
0000
0000
1000
0000
,
0000
0001
0000
0000
0100
0000
0000
0000
,
0010
0010
1000
1000
,
0001
0000
0100
0000
0001
1000
0001
1000
,
0200
0000
0000
0000
,
0020
0000
0000
0330
,
1001
0000
0000
0000
0100
0010
0100
0000
,
0010
1000
0001
0100
,
0010
1000
0100
0010
,
0001
1000
0001
0100
,
0010
0100
0110
1001
,
0001
0100
1000
0100
,
0001
1000
0100
0010
,
0001
1000
0100
1000
,
0010
0100
0001
0010
,
0001
0100
1000
0100
,
0010
1000
0100
0010
,
0001
0000
0000
1001
0000
0000
0010
0000
,
1000
0000
0000
1100
0000
0000
0010
0000
,
0100
0000
0000
0110
0000
0000
0010
0000
,
0001
0000
0000
1001
0000
0000
0100
0000
,
0220
0000
0330
0000
;

//---------------dance-single - Copied from----------------
#NOTES:
     dance-single:
     Copied from:
     Beginner:
     2:
     0.160,0.202,0.060,0.120,0.000:
0000
0000
0000
0000
,
0000
0000
0000
0000
,
0000
0000
0000
0000
,
0000
0000
0000
0000
,
0010
0000
0000
1000
,
0000
0000
0001
0000
,
0200
0000
0000
0000
,
0000
0000
0000
0000
,
0300
0000
0000
0000
,
0010
0000
0010
0000
,
1000
0000
0000
0000
,
0001
0000
1000
0000
,
0001
0000
0100
0000
,
0000
0010
0010
0000
,
0100
0000
0010
0000
,
1000
0000
0001
0000
,
0001
0000
1000
0000
,
0100
0000
0010
0000
,
0100
0000
0010
0000
,
0001
0000
1000
0000
,
0002
0000
0003
0000
,
2000
0000
3000
0000
,
1100
0000
1000
0000
,
0001
0000
0101
0000
,
0010
0000
0100
0000
,
1001
0000
0010
0000
,
0100
0000
1010
0000
,
1000
0000
0100
0000
,
0110
0000
0001
0000
,
1000
0000
0011
0000
,
0200
0000
0000
0300
,
0200
0000
0000
0300
,
0200
0000
0000
0300
,
0200
0000
0000
0300
,
0100
0000
0001
0000
,
1000
0000
0001
0000
,
0010
0000
0100
0000
,
1000
1000
1000
1000
,
1000
0000
0100
0000
,
1000
0000
0001
0000
,
0010
0000
0001
0000
,
0100
0000
0100
0000
,
0010
0000
1000
0000
,
1000
0000
0100
0000
,
0010
0000
0001
0000
,
0001
0000
1000
0000
,
0100
0000
0000
0001
,
0000
0000
1000
0000
,
1000
0000
0001
0000
,
0010
0010
0010
0010
,
0020
0000
0000
0000
,
0000
0000
0030
0000
,
1000
0000
0001
0000
,
0010
0000
0001
0000
,
0100
0000
0010
0000
,
1000
0000
0100
0000
,
0000
1000
1000
0000
,
0001
0000
0100
0000
,
0010
0000
0010
0000
,
0100
0000
1000
0000
,
0001
0000
0010
0000
,
0001
0000
1000
0000
,
0100
0000
0010
0000
,
0200
0000
0300
0000
,
0020
0000
0030
0000
,
2000
0000
3000
0000
,
0002
0000
0003
0000
,
2002
0000
3003
0000
;

//---------------dance-single - Copied from----------------
#NOTES:
     dance-single:
     Copied from:
     Medium:
     7:
     0.481,0.519,0.436,0.111,0.004:
0000
0000
0000
0000
,
0000
0000
0000
0000
,
0000
0000
0000
0000
,
0000
0000
0000
0000
,
1000
1000
1000
0001
0001
0001
0100
0100
,
0100
0010
0010
0010
1000
1000
1000
0000
,
1000
1100
0001
0101
,
0010
0000
0000
0010
0000
0000
0200
0000
0000
0000
0000
0000
0000
0000
0000
0000
,
0300
0000
0000
0000
,
0001
0000
1000
0000
0001
0001
0100
0000
,
0010
1000
0100
0010
0002
0000
0103
0000
,
0010
0000
1000
0000
0001
1000
0100
0000
,
0010
0000
0100
0000
0010
0010
0001
0000
,
0000
0001
1000
0001
0100
0000
0010
0000
,
0010
0000
1000
0000
0001
0100
0001
1000
,
0100
1000
0010
0000
1000
0000
1100
0000
,
0100
0000
0010
0000
0100
0010
0001
0010
,
0000
0001
0100
0000
0001
0000
1000
0000
,
0100
0000
1000
0000
0010
0100
0001
1000
,
0000
0100
1000
0010
0100
0000
0010
1000
,
0001
0001
0000
1000
2000
0000
3100
0000
,
0010
0010
0000
0010
0002
0000
0103
0000
,
0101
1001
1010
0100
,
0011
1100
0101
0100
,
0011
1010
1001
0010
,
0011
1100
0011
1000
,
1010
0110
0101
1000
,
0101
1010
1001
0100
,
0011
1010
0101
1000
,
0110
1001
0110
0001
,
1000
0000
0001
0100
0010
0000
1000
0010
,
0100
0000
0001
1000
0001
0100
0001
0000
,
1000
0000
0010
1000
0100
0000
0010
0100
,
0010
0000
0010
0001
1000
0001
0100
0000
,
0010
0000
1000
0001
1000
0000
0010
0100
,
0010
0100
0001
0000
1001
0000
0110
0000
,
1000
0000
0001
0100
1000
0000
1000
0100
,
0001
0000
0100
0000
0010
0100
0010
0100
,
0010
0000
1000
0100
0001
0000
1000
0100
,
0001
0000
1000
0010
0001
0010
1000
0000
,
0001
0000
0100
0001
0010
0000
0100
0001
,
0010
0000
0100
0001
0010
0001
0100
0000
,
1010
0000
0001
0100
1000
0000
0110
0000
,
1001
0000
1000
0010
0001
0000
0110
0000
,
1100
0000
0001
1000
0100
0000
0011
0000
,
1100
0000
1000
0010
0001
0000
0100
0000
,
0001
0001
0001
1000
1000
1000
0001
0001
,
0001
1000
1000
1000
0001
0001
0001
0000
,
0101
1100
0101
1100
,
0010
0010
0100
0100
0010
0100
0010
0100
,
0220
0000
0000
0330
,
2002
0000
0000
3003
,
0110
0000
1001
0000
0001
0100
1000
0000
,
1000
0100
0010
0100
0020
0000
0031
0000
,
0100
0000
0010
0000
1000
0001
0100
0000
,
0010
1000
0001
0100
0001
0000
1000
0000
,
0000
1000
0010
1000
0200
0000
0320
0000
,
0130
0000
0100
0000
0010
0001
1000
0001
,
0000
1000
0100
0010
0001
0000
1000
0000
,
0001
0000
0100
0000
1000
0100
0001
0100
,
0000
1000
0001
0000
1001
0000
1100
0000
,
0010
1000
0100
0010
0001
0100
0001
0010
,
0000
0001
0100
1000
0100
0000
0000
0001
,
0010
0010
0001
0100
0100
0000
1010
0000
,
1000
0100
0100
0010
0001
0000
0101
0000
,
0001
0001
0010
0001
0100
0000
1010
0000
,
0001
0001
1000
0001
0001
1000
1001
0000
,
0220
0000
0330
0000
;

//---------------dance-single - Copied from----------------
#NOTES:
     dance-single:
     Copied from:
     Hard:
     7:
     0.471,0.548,0.137,0.043,0.107:
0000
0000
0000
0000
,
0000
0000
0000
0000
,
0000
0000
0000
0000
,
0000
0000
0000
0000
,
0010
0010
0010
1000
1000
1000
0100
0100
,
0100
0010
0010
0010
0001
0001
0001
0000
,
0001
1000
0100
0000
0001
1000
0001
0000
,
0100
0000
0000
0100
0000
0000
0200
0000
0000
0000
0000
0000
0000
0000
0300
0000
,
1001
0000
0000
0000
,
0010
0010
0000
0100
0010
1000
0001
0000
,
0100
0010
0001
1000
0001
0000
0100
0000
,
0010
0000
1000
0000
0010
0100
0001
1000
,
0000
0010
0010
0001
0100
0000
1010
0000
,
0000
0100
0001
1000
0100
0000
0100
0000
,
0010
0000
1000
0000
0001
0100
0001
1000
,
0000
1000
0010
0000
0110
0000
0011
0000
,
0100
0010
1000
0000
0001
0100
1000
0100
,
0000
0010
1000
0100
0010
0000
0100
0000
,
0001
1000
0001
0000
1000
0100
1000
0000
,
0000
0100
0001
0010
0002
0000
0003
1000
,
0100
0100
0000
0100
0100
0000
0010
0000
,
1001
0001
0000
0010
0010
0001
0010
0000
,
0010
0000
0000
1000
0000
0000
0100
0000
0010
0000
0000
0100
0000
0000
0010
0000
,
0001
0000
0000
0100
0000
0000
0001
0000
1000
0000
0000
0010
0000
0000
0010
0000
,
0100
0000
0000
0001
0000
0000
1000
0000
0001
0000
0000
0010
0000
0000
0100
0000
,
0010
0000
0000
0001
0000
0000
1000
0000
0100
0000
0000
0010
0000
0000
0100
0000
,
1000
0000
0000
0010
0000
0000
0100
0000
0001
0000
0000
1000
0000
0000
0001
0000
,
0100
0000
0000
0010
0000
0000
0010
0000
1000
0000
0000
0010
0000
0000
1000
0000
,
0100
0000
0000
0100
0000
0000
0010
0000
0001
0000
0000
1000
0000
0000
0001
0000
,
1000
0000
0000
0100
0000
0000
1000
0000
1000
0000
0000
0010
0000
0000
0100
0000
,
0001
0000
0001
0000
0100
0010
1000
0000
,
0001
0000
1000
0000
0100
0010
0001
0000
,
1000
0000
0010
0000
0100
0001
1000
0000
,
0010
0000
0100
0000
0010
0010
0010
0000
,
1000
0000
0001
0100
1000
0000
0001
0000
,
1000
0000
1000
0100
0001
0000
0100
0000
,
0010
0010
0010
0010
,
0100
0010
0100
0010
1000
0001
1001
0000
,
0001
0000
0100
0000
0010
0000
1000
0001
,
0100
0000
1000
0000
0001
0000
0010
0001
,
0100
0000
0010
0000
1000
0000
0010
0100
,
0001
0000
1000
0000
0010
0000
0100
0001
,
1000
0000
0000
0010
0000
0000
0100
0000
0001
0000
0000
1000
0000
0000
0100
0000
,
0010
0000
0000
0100
0000
0000
0010
0000
0001
0000
0000
1000
0000
0000
0001
0000
,
0100
0000
0000
0010
0000
0000
1000
0000
0001
0000
0000
0001
0000
0000
0100
0000
,
0010
0000
0000
1000
0000
0000
0100
0000
1000
0000
0000
0001
0000
0000
0100
0000
,
1000
1000
1000
0001
0001
0001
0100
0100
,
0100
0010
0010
0010
1000
1000
1000
0100
,
0100
0010
0100
0010
0001
0010
0001
0010
,
1001
0000
0110
0000
0011
0110
1100
0000
,
0001
1000
0100
0010
0100
0010
0001
0100
,
0020
0000
0000
0030
,
1001
0000
0101
0000
1000
0100
0010
0000
,
0001
0100
0010
1000
0001
0000
1000
0000
,
0100
0000
0010
0000
0100
0010
0001
1000
,
0001
0001
0100
0010
1000
0100
0100
0000
,
0100
0010
0001
1000
1001
0000
0110
0000
,
0001
0000
1000
0000
0001
0100
0010
1000
,
0100
0000
0010
0000
0001
0010
0001
0000
,
0100
0010
1000
0000
0010
1000
0100
0010
,
0001
0100
0010
0000
0001
1000
0001
0000
,
1000
0100
0100
0000
0010
0100
0010
0001
,
0000
1000
0100
0001
0100
0000
1000
0010
,
0100
0100
0001
0010
0010
0001
0010
0000
,
0001
0001
1000
0100
0100
1000
0100
0000
,
1000
1000
0010
0100
0100
0001
0010
0000
,
0001
0001
1000
0010
0010
0100
0010
0100
,
2002
0000
3003
0000
;

//---------------dance-single - Copied from ----------------
#NOTES:
     dance-single:
     Copied from:
     Challenge:
     9:
     0.644,0.605,0.410,0.128,0.188: // measure 1
0000
0000
0000
0000
,  // measure 2
0000
0000
0000
0000
,  // measure 3
0000
0000
0000
0000
,  // measure 4
0000
0000
0000
0000
,  // measure 5
1000
1000
0100
0010
0010
0100
0001
0001
,  // measure 6
0010
0001
0001
1000
0100
0100
0010
0000
,  // measure 7
0100
0010
1000
0001
0001
0100
0010
1000
,  // measure 8
1001
0000
0000
0110
0000
0000
2002
0000
0000
0000
0000
0000
3003
0000
0000
0000
,  // measure 9
0110
0000
0000
0000
,  // measure 10
1000
0000
1000
0000
0000
0000
1000
0000
0001
0000
0100
0010
0100
0000
0001
0000
,  // measure 11
1000
0100
0010
0001
0101
0000
1100
0000
,  // measure 12
0010
0010
1000
1000
0001
0100
0001
1000
,  // measure 13
0100
0010
0100
1000
0100
0010
1000
0001
,  // measure 14
0100
0010
1000
0001
0110
0000
1010
0000
,  // measure 15
0101
0000
0000
0000
0001
0000
1000
0000
0001
0000
0010
0001
0100
0000
0001
0000
,  // measure 16
1000
1000
0010
0010
0100
0001
1000
0100
,  // measure 17
0010
0100
0010
0100
1000
0001
1000
0001
,  // measure 18
0100
0010
0001
1000
0100
0010
0001
1000
,  // measure 19
0001
0100
0101
0000
1000
0100
1100
0000
,  // measure 20
0010
0100
0001
1000
0200
1000
1000
0310
,  // measure 21
0110
0010
0000
1001
1000
0000
0110
0000
,  // measure 22
1001
0000
0001
0000
0000
0000
0110
0000
0100
0000
0001
1000
0001
0000
0100
0000
,  // measure 23
0010
0000
0000
1000
0100
0000
0010
0000
0001
0000
0000
1000
0001
0000
0010
0000
,  // measure 24
0001
0000
0000
0001
0100
0000
0010
0000
1000
0000
0000
0010
0100
0000
0001
0000
,  // measure 25
1000
0000
0000
0010
0100
0000
0001
0000
0100
0000
0000
0100
0010
0000
1000
0000
,  // measure 26
0100
0000
0000
0100
0010
0000
0001
0000
0010
0000
0000
0010
1000
0000
0010
0000
,  // measure 27
0001
0000
0000
0100
0001
0000
1000
0000
0010
0000
0000
0100
0010
0000
0100
0000
,  // measure 28
0001
0000
0000
0100
0010
0000
0010
0000
1000
0000
0000
0001
0010
0000
0100
0000
,  // measure 29
1000
0000
0000
0100
0010
0000
0001
0000
1000
0000
0000
0100
1000
0000
0100
0000
,  // measure 30
0100
0000
0000
0010
0001
0000
1000
0000
0001
0000
0000
1000
0010
0000
0010
0000
,  // measure 31
0100
0100
0110
1000
0001
0001
0101
0000
,  // measure 32
0010
0010
1001
0100
0010
0010
1100
0000
,  // measure 33
1000
1000
1010
0010
0100
0001
0101
0000
,  // measure 34
0010
0001
0110
0010
1000
1000
1100
0000
,  // measure 35
1000
0010
0100
0001
0100
1000
0200
0010
,  // measure 36
0310
1000
0001
0100
0010
0100
2000
0100
,  // measure 37
3100
0010
1000
0100
0010
0001
1000
0001
,  // measure 38
0010
0010
0010
0010
0100
1010
1002
0100
,  // measure 39
0103
0000
0010
0000
1000
0000
0001
0100
0000
0010
1000
0000
0100
0000
0010
0000
,  // measure 40
0001
0000
1000
0000
0100
0000
0010
0100
0000
0010
0100
0000
1000
0000
0001
0000
,  // measure 41
0100
0000
0100
0000
0001
0000
0010
0001
0000
0100
0010
0000
1000
0000
0001
0000
,  // measure 42
0100
0000
0010
0000
0010
0000
1000
0100
0000
1000
0010
0000
0010
0000
1000
0000
,  // measure 43
0100
0000
0000
0100
0010
0000
0001
0000
0100
0000
0000
0010
0100
0000
0010
0000
,  // measure 44
1000
0000
0000
0001
0100
0000
0001
0000
1000
0000
0000
0100
0010
0000
0010
0000
,  // measure 45
0100
0000
0000
0010
0001
0000
1000
0000
0001
0000
0000
0100
1000
0000
0100
0000
,  // measure 46
0001
0000
0000
1000
0100
0000
0010
0000
0001
0000
0000
0010
0100
0000
1000
0000
,  // measure 47
0110
0010
0001
0011
1000
0010
0110
1000
,  // measure 48
0001
1001
0100
0100
0110
0010
1000
0000
,  // measure 49
1000
1000
1000
1000
0001
0001
0001
0001
,  // measure 50
0100
0000
0010
0000
0100
0000
0010
0000
1000
0000
0001
0000
1000
0001
1000
0001
,  // measure 51
0020
0100
0100
0130
,  // measure 52
1100
0000
0000
0110
0000
0000
0022
0000
0000
0000
0000
0000
0000
0000
0033
0000
,  // measure 53
0100
0000
0100
0000
0000
0000
0010
0000
1000
0000
0001
0100
0010
0000
1000
0000
,  // measure 54
1001
0100
0010
1000
1010
0000
0011
0000
,  // measure 55
0001
1000
0010
0100
0001
0001
1000
0100
,  // measure 56
0010
0100
1000
0001
0010
0100
0010
0001
,  // measure 57
0010
0010
0100
0100
0210
0000
0320
0000
,  // measure 58
2030
0000
0100
0000
3200
0000
0000
0000
0310
0000
0001
0010
0100
0000
1000
0000
,  // measure 59
0001
0001
1000
0100
1000
1000
0010
0100
,  // measure 60
0001
1000
0100
0001
0100
1000
0010
0100
,  // measure 61
0001
0100
0100
0010
1000
0001
0100
0010
,  // measure 62
0001
0010
0100
0010
1000
0001
1000
0100
,  // measure 63
0010
0100
0010
0001
1001
0000
0010
0100
,  // measure 64
0110
0010
0000
1001
1000
0000
0010
0100
,  // measure 65
0110
0000
0010
0000
0000
0000
1001
0000
1000
0000
1000
0100
0010
0000
0000
0000
,  // measure 66
0011
0000
0001
0000
0000
0000
1100
0000
1000
0000
0010
0100
0001
0000
0000
0000
,  // measure 67
0101
0000
0001
0000
0000
0000
1010
0000
1000
0000
0100
0010
0001
0000
0000
0000
,  // measure 68
2002
0000
3003
0000
;
