#TITLE:TELEPHONE OPERATOR (K.O.G G3 Mix);
#SUBTITLE:;
#ARTIST:SHELLEY PETER;
#TITLETRANSLIT:;
#SUBTITLETRANSLIT:;
#ARTISTTRANSLIT:;
#GENRE:;
#CREDIT:;
#MENUCOLOR:;
#NEWMETERSYSTEM:NO;
#BANNER:TELEPHONE OPERATOR (K.O.G G3 Mix)-bn.png;
#BACKGROUND:TELEPHONE OPERATOR (K.O.G G3 Mix)-bg.png;
#LYRICSPATH:;
#CDTITLE:MixMania 4 CD Title.png;
#MUSIC:TELEPHONE OPERATOR (K.O.G G3 Mix).mp3;
#OFFSET:-0.020;
#SAMPLESTART:11.180;
#SAMPLELENGTH:11.800;
#SELECTABLE:YES;
#LISTSORT:;
#BPMS:0.000=172.000;
#STOPS:;
#BGCHANGES:;
#ATTACKS:;

//---------------dance-single - ----------------
#NOTES:
     dance-single:
     :
     Easy:
     4:
     0.301,0.317,0.009,0.226,0.000:
0000
0000
0000
0000
,
0000
0000
0000
0000
,
0000
0000
0000
0000
,
0000
0000
0000
0000
,
0010
0001
0010
0001
,
1000
0100
1000
0100
,
0010
0010
0010
0010
,
1000
0001
1000
0001
,
0010
0001
0100
0010
,
0020
0000
0030
0000
,
1000
0100
1000
0010
,
0200
0000
0300
0000
,
0001
1000
0001
0010
,
0002
0000
0003
0000
,
0100
0100
0010
1000
,
0200
0000
0300
0000
,
0010
0001
1000
0100
,
2000
0000
3000
0000
,
0100
0010
0001
0010
,
0020
0000
0030
0000
,
0001
1000
0001
0010
,
0001
0100
0000
0010
,
0000
1000
0000
0100
,
0010
0010
0010
0010
,
0001
1000
0100
0000
,
0010
1000
0001
0000
,
0010
0001
0100
0000
,
1000
0001
1000
0000
,
0100
0010
0001
0000
,
0100
0010
1000
0000
,
0010
0001
1000
0000
,
0200
0000
0000
0300
,
0001
1000
0100
0010
,
0001
0100
1000
0100
,
0020
0000
0130
0000
,
0200
0000
0301
0000
,
1000
0001
0100
0010
,
0100
0001
0010
0100
,
2000
0000
3100
0000
,
0002
0000
0013
0010
,
0100
0000
0010
0010
,
1000
0000
0100
1000
,
0001
0000
0010
0001
,
1000
0000
0010
0100
,
0001
2000
0100
3100
,
0000
0000
0010
0000
,
0002
0000
0103
0000
,
0020
0000
1030
0000
,
0100
0020
1000
1030
,
0000
0000
0100
0000
,
1000
0100
0001
0000
,
0001
0100
1000
0000
,
0220
0000
0000
0330
,
0010
0010
0010
0010
,
0100
0001
1000
0100
,
2000
0000
3000
0000
,
0100
0001
0010
0001
,
2000
0000
3000
0000
,
0010
0001
1000
0100
,
0020
0000
0030
0000
,
0100
0010
1000
0100
,
0002
0000
0003
0000
,
0010
0001
0100
0010
,
0200
0000
0300
0000
,
0010
1000
0100
0001
,
0020
0000
0030
0000
,
0001
0001
1000
0100
,
0010
1000
0000
0001
,
0000
0100
0000
0010
,
0100
0100
0100
0100
,
0010
1000
0000
0100
,
0000
0010
0000
0001
,
0010
0010
0010
0010
,
0010
0010
0010
0000
,
0200
0000
0000
0300
;

//---------------dance-single - Copied from----------------
#NOTES:
     dance-single:
     Copied from:
     Beginner:
     2:
     0.118,0.209,0.000,0.028,0.000:
0000
0000
0000
0000
,
0000
0000
0000
0000
,
0000
0000
0000
0000
,
0000
0000
0000
0000
,
1000
0000
0000
0000
,
0001
0000
0000
0000
,
1000
0000
0001
0000
,
0100
0100
0100
0000
,
0010
0000
0000
0000
,
1000
0000
0000
0000
,
0100
0000
0000
0000
,
0010
0000
0001
0000
,
0100
0000
0000
0000
,
0010
0000
0000
0000
,
1000
0000
0000
0000
,
0001
0000
1000
0000
,
0100
0000
0000
0000
,
0010
0000
0000
0000
,
0100
0000
0000
0000
,
1000
0000
0001
0000
,
1000
0000
0000
0000
,
0020
0000
0000
0000
,
0000
0000
0000
0000
,
0030
0000
0000
0000
,
0100
0000
0000
0000
,
0010
0000
0000
0000
,
1000
0000
0000
0000
,
0100
0000
0000
0000
,
0010
0000
0000
0000
,
0001
0000
0000
0000
,
1000
0000
0000
0000
,
0200
0000
0300
0000
,
0100
0000
0000
0000
,
0010
0000
0000
0000
,
0001
0000
0000
0000
,
0100
0000
0010
0000
,
1000
0000
0000
0000
,
0100
0000
0000
0000
,
0010
0000
0000
0000
,
0001
0000
1000
0000
,
0001
0000
0000
0000
,
0100
0000
0000
0000
,
0010
0000
0000
0000
,
1000
0000
0000
0000
,
0000
0100
0100
0100
,
0000
0000
0000
0000
,
0001
0000
0000
0000
,
1000
0000
0000
0000
,
0000
0001
0001
0001
,
0000
0000
0000
0000
,
0100
0000
0000
0000
,
0010
0000
0000
0000
,
0200
0000
0000
0000
,
0300
0000
0000
0000
,
0010
0000
0000
0000
,
1000
0000
0000
0000
,
0001
0000
0000
0000
,
1000
0000
0000
0000
,
0010
0000
0000
0000
,
0100
0000
0000
0000
,
0001
0000
0000
0000
,
0010
0000
0000
0000
,
0100
0000
0000
0000
,
1000
0000
0000
0000
,
0001
0000
0000
0000
,
0100
0000
0000
0000
,
0010
0000
0000
0000
,
0000
1000
0000
0001
,
0000
1000
0000
0001
,
0000
1000
0000
0001
,
0000
0100
0000
0010
,
0000
1000
0000
0100
,
0000
0010
0000
0001
,
0000
1000
0000
0010
,
0010
0000
0000
0000
;

//---------------dance-single - Copied from----------------
#NOTES:
     dance-single:
     Copied from:
     Medium:
     7:
     0.519,0.528,0.104,0.094,0.000:
0000
0000
0000
0000
,
0000
0000
0000
0000
,
0000
0000
0000
0000
,
0000
0000
0000
0000
,
0001
1000
0001
0000
0100
0010
0100
0000
,
0010
1000
0010
0000
1000
0100
1000
0000
,
0010
0100
0010
0100
0010
0000
0010
0000
,
0001
1000
0001
1000
0001
0000
1000
0000
,
0001
0010
0001
0000
1000
0010
1000
0000
,
0100
0000
0010
0000
0100
0010
1000
0000
,
0001
0100
0001
0000
0010
0001
0010
0000
,
1000
0000
0010
0000
0100
0001
0010
0000
,
0100
1000
0100
0000
0010
0001
0010
0000
,
0100
0000
0100
0000
0010
1000
0100
0000
,
0010
0100
0010
0000
1000
0001
1000
0000
,
0001
0000
0001
0000
0010
0001
0100
0000
,
0010
1000
0010
0000
0100
0001
0100
0000
,
0010
0000
0001
0000
1000
0100
1000
0000
,
0010
0001
0100
0000
0010
1000
0100
0000
,
0010
0000
0100
0000
0001
1000
0001
0000
,
0100
0000
0001
0000
0010
0001
0100
0010
,
0000
1000
0100
0000
0010
0100
0000
0001
,
0010
0000
0100
0010
0000
1000
0010
0000
,
0100
0001
1000
0001
0100
0000
0010
0000
,
1001
0000
0010
1000
0100
0000
0010
0000
,
1001
0000
0010
0001
0100
0000
0010
0000
,
1000
0000
0001
0100
0010
0000
1000
0000
,
0010
0000
0100
0001
1000
0000
0010
0000
,
1000
0100
1000
0010
0000
0000
0100
0000
,
0001
0010
0001
0100
0000
0000
0010
0000
,
1000
0001
1000
0100
0000
0000
0010
0000
,
0100
0100
0010
0010
0100
0000
0000
0000
,
0010
1000
0100
0000
0010
0001
0100
0000
,
0002
0000
2003
0000
3100
0010
0001
0000
,
0100
0000
0001
0010
0001
0000
1000
0000
,
0100
0000
1000
0010
1000
0000
0100
0000
,
0010
0001
0010
0000
1000
0100
1000
0000
,
0000
0020
0200
0030
0310
0000
0100
0000
,
1000
0000
0010
0100
0001
0000
1000
0000
,
0001
0000
0010
0001
0100
0010
1000
0000
,
0100
0000
1000
0000
0010
0100
0001
1000
,
0001
0100
0001
0010
,
0100
0000
1000
0000
0010
1000
0100
1000
,
0010
0100
0001
1000
,
0001
0000
0010
0000
0001
0001
0100
0000
,
0010
1000
0001
0100
,
0020
0100
0001
1030
,
0200
0010
1000
0301
,
1000
0100
0001
0100
1000
0010
0100
0000
,
0001
1000
0001
0010
,
0001
0100
0001
0000
1000
0100
1000
0000
,
0010
0000
0100
0000
0010
1000
0001
0100
,
0020
0000
0000
0000
,
1000
1000
0100
1030
,
1010
0000
0101
0000
1000
0001
0100
0000
,
0010
0000
1000
0000
0010
0001
0100
0000
,
0011
0000
1100
0000
0001
1000
0010
0000
,
0100
0000
0010
0000
1000
0001
0100
0000
,
1010
0000
1100
0000
0001
1000
0100
0000
,
0010
0000
0100
0000
1000
0001
0100
0000
,
1001
0000
0110
0000
1000
0001
1000
0000
,
0010
0000
0100
0000
0001
1000
0001
0000
,
0100
0010
0001
0000
1000
0100
0010
0000
,
0001
0100
0010
1000
,
0100
1000
0001
0000
0100
0001
1000
0000
,
1000
1000
0001
0100
,
0010
1000
0001
0000
0100
0010
1000
0100
,
0000
0100
0010
0000
0001
1000
0000
0001
,
0100
0000
0010
1000
0000
1000
0100
0000
,
0010
0001
0010
0000
0100
1000
0100
0000
,
0000
0010
0100
0000
0010
1000
0000
0010
,
0100
0000
0010
0001
0000
0010
0100
0000
,
0010
1000
0010
0000
0100
0001
0100
0000
,
0001
0010
0001
0010
0002
0000
0103
0000
,
0220
0000
0000
0330
;

//---------------dance-single - Copied from----------------
#NOTES:
     dance-single:
     Copied from:
     Hard:
     8:
     0.600,0.598,0.094,0.141,0.005:
0000
0000
0000
0000
,
0000
0000
0000
0000
,
0000
0000
0000
0000
,
0000
0000
0000
0000
,
0001
1000
0010
0000
1000
0001
0100
0000
,
0001
0010
0001
0000
1000
0100
1000
0000
,
0001
1000
0001
1000
0001
1000
0001
1000
,
0001
0010
0001
0010
0001
0010
0001
0010
,
0001
0100
0010
0000
1000
0010
0100
0000
,
0001
1000
0100
0010
0001
1000
0010
0000
,
0100
0001
0010
0000
0100
1000
0010
0000
,
0100
0001
0010
0100
1000
0010
0100
0000
,
1000
0010
0100
0000
0001
0100
0010
0000
,
1000
0001
0010
0001
0100
0010
1000
0000
,
0100
0010
1000
0000
0001
0100
0010
0000
,
1000
0001
0100
1000
0100
0001
0100
0000
,
0010
1000
0001
0000
0100
0001
0010
0000
,
0100
0010
1000
0001
0100
0010
0001
0000
,
0100
0010
1000
0000
0001
0100
0010
0000
,
1000
0100
0010
0001
0010
0100
1000
0000
,
0001
1000
0001
0000
0100
0010
0001
0010
,
0000
0010
0100
0000
1000
0010
0000
0100
,
0001
0000
0010
0001
0000
0100
0010
1000
,
0001
0100
0010
1000
0001
0100
0010
0000
,
1000
0000
0100
0010
0001
0000
0100
0000
,
0001
1000
0010
0100
0000
0000
0010
0000
,
1000
0000
0100
0010
1000
0000
0001
0000
,
0100
0010
0001
0010
0000
0000
0010
0000
,
1000
0000
0100
0010
0001
0000
1000
0000
,
0010
0100
0001
0010
0000
0000
0010
0000
,
1000
0000
0001
0100
0010
0000
1000
0000
,
0001
1000
0001
1000
0001
0000
0100
0000
,
1010
0010
0100
0000
0001
0001
0010
0000
,
0001
0100
0010
1000
0100
0010
0001
0000
,
0200
0000
0301
0010
0100
0000
0010
0000
,
2000
0000
3001
0100
0010
0000
0100
0000
,
0101
1000
0001
0000
0100
0001
0010
0000
,
0000
0100
0010
1000
0010
0100
0010
0000
,
1000
0000
0010
0100
0001
0000
1000
0000
,
0001
0010
0100
0010
0001
1000
0001
0000
,
0100
0000
0001
0000
1000
0010
0100
0001
,
0200
0000
0310
0000
1000
0001
0100
0000
,
0010
0000
1000
0000
0001
0100
0001
0010
,
0002
0000
0103
0000
0010
1000
0001
0000
,
0100
1010
0101
1100
,
0001
0100
0010
0000
1000
0100
0010
0000
,
0002
2003
3200
0320
,
0130
0010
0100
0010
0001
1000
0001
1000
,
0100
0011
0110
1100
,
1000
0001
0100
0000
0010
1000
0001
0100
,
0020
0000
1030
0000
0100
0010
0001
0000
,
0200
0000
0310
0000
0001
0010
0100
0000
,
2002
0000
0000
3003
,
1000
0000
0000
0001
0000
0000
1000
0000
0010
0000
0100
0000
0010
0000
1000
0000
,
0001
0100
0010
0000
1000
0010
0100
0000
,
0001
1000
0100
0010
0001
0100
0010
0000
,
0001
1000
0010
0000
1000
0001
0100
0000
,
0001
1000
0010
0100
0001
1000
0100
0000
,
0010
0100
0010
0000
1000
0001
1000
0000
,
0010
0100
0001
0010
0100
1000
0100
0000
,
1000
0010
1000
0000
0001
0100
0001
0000
,
0010
0001
0100
0010
1000
0001
0010
0000
,
0100
1000
0001
0000
0010
0001
1000
0000
,
0010
0100
0001
1000
0100
1000
0010
0000
,
0100
0010
0001
0000
1000
0100
0010
0000
,
1000
0001
0010
0001
0100
0010
1000
0000
,
0001
1000
0001
0000
0100
0010
1000
0100
,
0000
0010
0001
0000
1000
0100
0000
0010
,
0100
0000
0010
0001
0000
0001
1000
0010
,
0100
0010
1000
0001
1000
0001
1000
0001
,
0000
0010
0001
0000
0100
0010
0000
1000
,
0100
0000
1000
0010
0000
0100
0001
0010
,
0001
1000
0001
1000
0001
1000
0001
1000
,
0010
0100
0010
0100
0020
0000
0000
0030
,
2002
0000
0000
3003
;

//---------------dance-single - Copied from ----------------
#NOTES:
     dance-single:
     Copied from:
     Challenge:
     9:
     0.666,0.633,0.188,0.104,0.024: // measure 1
0000
0000
0000
0000
,  // measure 2
0000
0000
0000
0000
,  // measure 3
0000
0000
0000
0000
,  // measure 4
0000
0000
0000
0000
,  // measure 5
0010
1000
0100
0000
0010
0001
0100
0000
,  // measure 6
0010
1000
0100
0000
0010
0001
0100
0000
,  // measure 7
0010
0100
0010
0100
0010
1000
0010
1000
,  // measure 8
0100
1000
0100
1000
0001
1000
0001
1000
,  // measure 9
1001
0010
1000
0000
0100
0010
1000
0000
,  // measure 10
0001
0100
0010
0000
1000
0100
0010
0000
,  // measure 11
1001
0100
0010
0000
1000
0001
0010
0000
,  // measure 12
0100
0010
1000
0000
0100
0010
0001
0100
,  // measure 13
1010
0100
0010
0000
1000
0001
0100
0000
,  // measure 14
0010
0001
1000
0000
0100
0010
0001
0000
,  // measure 15
0011
1000
0100
0000
0010
0100
0001
0000
,  // measure 16
1000
0000
0000
0001
0000
0000
0100
0000
0010
0000
1000
0100
1000
0000
0100
0000
,  // measure 17
0010
0100
0010
0100
0010
1000
0100
0010
,  // measure 18
0000
0001
0000
1000
0001
0100
0010
0100
,  // measure 19
0001
0010
0001
0010
0001
1000
0100
0010
,  // measure 20
0000
0100
0010
0001
1000
0010
0100
0001
,  // measure 21
0010
0001
0100
0000
0010
1000
0100
0001
,  // measure 22
1000
0100
0100
0010
0001
0001
0100
0010
,  // measure 23
0010
1000
0100
0100
0010
0001
0001
1000
,  // measure 24
0010
0100
0010
0100
0010
0100
0010
1000
,  // measure 25
0110
0000
0001
1000
0001
0000
0100
0000
,  // measure 26
0110
0000
1000
0100
1000
0010
0100
0001
,  // measure 27
0010
0000
0001
0100
0001
0000
0100
0000
,  // measure 28
0010
0000
0100
0010
1000
0000
0110
0000
,  // measure 29
1000
0000
0001
0100
1000
0000
0001
0000
,  // measure 30
1000
0000
0001
0100
1000
0000
0010
0000
,  // measure 31
0100
0000
1000
0100
0001
0000
0010
0000
,  // measure 32
1001
1001
1001
0000
,  // measure 33
0110
0100
1000
0000
0001
1000
0001
0100
,  // measure 34
0020
0000
2030
0100
3100
0010
0001
1000
,  // measure 35
0001
0010
0001
0100
0010
1000
0001
0000
,  // measure 36
1000
0010
0100
0001
1000
0010
1000
0000
,  // measure 37
1001
0010
0001
0000
0100
0001
0010
0100
,  // measure 38
0000
0002
0010
0013
1000
0001
1000
0100
,  // measure 39
0010
1000
0001
0100
0001
0010
0001
0000
,  // measure 40
1000
0001
1000
0010
1000
0100
1000
0010
,  // measure 41
0000
0100
0000
0010
1000
0001
0100
0001
,  // measure 42
0020
0000
0031
0000
0200
0000
0310
0100
,  // measure 43
0000
1000
0000
0100
1000
0010
0100
0001
,  // measure 44
0020
0000
0130
0000
0200
0000
0301
0010
,  // measure 45
0000
1001
0000
0010
0100
0010
0100
0000
,  // measure 46
1000
0100
0001
0100
,  // measure 47
1000
0010
0100
0001
1000
0010
0100
0000
,  // measure 48
0001
0100
0010
1000
0001
0100
0010
0100
,  // measure 49
0000
1001
0000
0010
0001
1000
0010
0000
,  // measure 50
0100
0001
0100
1000
,  // measure 51
0100
0010
0100
0010
1000
0001
1000
0001
,  // measure 52
0010
0001
0100
0010
1000
0100
0010
0001
,  // measure 53
0200
0000
0000
0000
,  // measure 54
0310
0000
0000
1000
0000
0000
0001
0000
0010
0000
0001
1000
0001
0000
0100
0010
,  // measure 55
0100
0010
1000
0000
0100
0010
0001
1000
,  // measure 56
0010
0100
0001
1000
0100
0010
0001
0000
,  // measure 57
1001
0001
0100
0000
0010
0001
0100
0010
,  // measure 58
1000
0001
0100
0010
1000
0001
0010
0000
,  // measure 59
0101
1000
0001
0000
0010
0001
0010
0100
,  // measure 60
1000
0010
0100
0001
0010
0100
1000
0000
,  // measure 61
0110
0001
1000
0000
0100
1000
0001
0100
,  // measure 62
0010
1000
0100
0010
0100
0010
0001
0100
,  // measure 63
0110
1000
0001
0000
0001
1000
0010
0100
,  // measure 64
0010
1000
0001
0010
0001
0100
0010
0000
,  // measure 65
1001
0100
0010
0000
0100
0010
0001
0100
,  // measure 66
0010
1000
0001
0100
1000
0100
0001
0000
,  // measure 67
0001
0010
1000
0000
1000
0010
0001
0100
,  // measure 68
0000
0100
0010
0010
1000
0001
0001
0100
,  // measure 69
0010
0010
0100
0010
0010
0100
1000
0100
,  // measure 70
0001
0010
0100
1000
0001
0010
0100
1000
,  // measure 71
0010
1000
1000
0100
0001
0001
0100
1000
,  // measure 72
1000
0100
0010
0010
0001
0100
0001
0100
,  // measure 73
0001
0010
1000
0010
0001
0010
0100
0010
,  // measure 74
1000
0001
0010
0001
0002
0100
0103
0000
,  // measure 75
0220
0000
0000
0330
;
