#TITLE:SpringSpring;
#SUBTITLE:;
#ARTIST:LOKI;
#TITLETRANSLIT:;
#SUBTITLETRANSLIT:;
#ARTISTTRANSLIT:;
#GENRE:;
#CREDIT:;
#MENUCOLOR:;
#NEWMETERSYSTEM:NO;
#BANNER:SpringSpring-bn.png;
#BACKGROUND:SpringSpring-bg.png;
#LYRICSPATH:;
#CDTITLE:MixMania 4 CD Title.png;
#MUSIC:SpringSpring.mp3;
#OFFSET:-0.060;
#SAMPLESTART:36.040;
#SAMPLELENGTH:12.000;
#SELECTABLE:YES;
#LISTSORT:;
#BPMS:0.000=160.000;
#STOPS:;
#BGCHANGES:;
#ATTACKS:;

//---------------dance-single - ----------------
#NOTES:
     dance-single:
     :
     Easy:
     2:
     0.158,0.195,0.000,0.065,0.000: // measure 1
0000
0000
0000
0000
,  // measure 2
0000
0000
0000
0000
,  // measure 3
0000
0000
0000
0000
,  // measure 4
0000
0000
0000
0000
,  // measure 5
0000
0000
0000
0000
,  // measure 6
0000
0000
0000
0000
,  // measure 7
0000
0000
0000
0000
,  // measure 8
0000
0000
0000
0000
,  // measure 9
1000
0000
0000
0100
,  // measure 10
0100
0000
0010
0000
,  // measure 11
0001
0000
0000
0100
,  // measure 12
0001
0000
1000
0000
,  // measure 13
0010
0000
0000
0100
,  // measure 14
0010
0000
1000
0000
,  // measure 15
0200
0000
0000
0000
,  // measure 16
0000
0000
0020
0330
,  // measure 17
0001
0000
1000
0000
,  // measure 18
0001
0001
0100
0000
,  // measure 19
0000
0010
1000
0000
,  // measure 20
0100
0000
0000
0000
,  // measure 21
1000
0000
0001
0000
,  // measure 22
0100
0010
0100
0000
,  // measure 23
0000
0010
1000
0000
,  // measure 24
0100
0000
1000
0000
,  // measure 25
0100
0000
0000
0100
,  // measure 26
0010
0000
0000
0010
,  // measure 27
0001
0000
0000
0001
,  // measure 28
1000
0000
0000
0000
,  // measure 29
1000
0000
0000
0100
,  // measure 30
1000
0000
0000
0010
,  // measure 31
0100
0000
0000
0010
,  // measure 32
0001
0000
0000
0000
,  // measure 33
0010
0000
0000
0000
,  // measure 34
0010
0000
0000
0000
,  // measure 35
0100
0000
0000
0000
,  // measure 36
0010
0000
1000
0000
,  // measure 37
0001
0000
0000
0000
,  // measure 38
0001
0000
0000
0000
,  // measure 39
1000
0000
0000
0000
,  // measure 40
1000
0000
0100
0100
,  // measure 41
1000
0000
0010
0000
,  // measure 42
0100
0000
0001
0000
,  // measure 43
0010
0000
1000
0000
,  // measure 44
0010
0000
0200
0300
,  // measure 45
1000
0000
0010
0000
,  // measure 46
0100
0000
0100
0000
,  // measure 47
0010
0000
0100
0000
,  // measure 48
0001
0000
0020
0030
,  // measure 49
0001
0000
1000
0000
,  // measure 50
0100
0000
0010
0000
,  // measure 51
0100
0000
1000
0000
,  // measure 52
0010
0000
2000
3000
,  // measure 53
0001
0000
0010
0000
,  // measure 54
0100
0000
1000
0000
,  // measure 55
0010
0000
0010
0000
,  // measure 56
0100
0000
0002
0003
,  // measure 57
0010
0000
0100
0000
,  // measure 58
0100
0010
0100
0000
,  // measure 59
1000
0000
0001
0000
,  // measure 60
1000
0001
1000
0000
,  // measure 61
0010
0000
0100
0000
,  // measure 62
0010
0100
0010
0000
,  // measure 63
1000
0000
0100
0000
,  // measure 64
0010
0001
0010
0000
,  // measure 65
0001
0000
0000
0000
,  // measure 66
0100
0000
0000
0000
,  // measure 67
1000
0000
0000
0000
,  // measure 68
0100
0000
0010
0000
,  // measure 69
0100
0000
0000
0000
,  // measure 70
1000
0000
0000
0000
,  // measure 71
0001
0000
0100
0000
,  // measure 72
2000
0000
0000
3000
,  // measure 73
0100
0000
0000
0000
,  // measure 74
0010
0000
0000
0000
,  // measure 75
1000
0000
0000
0000
,  // measure 76
0100
0000
0010
0000
,  // measure 77
0001
0000
0000
0000
,  // measure 78
1000
0000
0000
0000
,  // measure 79
0010
0000
1000
0000
,  // measure 80
0001
0000
0000
0000
,  // measure 81
0020
0000
0000
0030
;

//---------------dance-single - Copied from----------------
#NOTES:
     dance-single:
     Copied from:
     Beginner:
     1:
     0.100,0.161,0.056,0.040,0.000: // measure 1
0000
0000
0000
0000
,  // measure 2
0000
0000
0000
0000
,  // measure 3
0000
0000
0000
0000
,  // measure 4
0000
0000
0000
0000
,  // measure 5
0000
0000
0000
0000
,  // measure 6
0000
0000
0000
0000
,  // measure 7
0000
0000
0000
0000
,  // measure 8
0000
0000
0000
0000
,  // measure 9
1000
0000
0000
0000
,  // measure 10
0001
0000
0000
0000
,  // measure 11
0000
0100
0000
0100
,  // measure 12
0000
0100
0000
0000
,  // measure 13
1000
0000
0000
0000
,  // measure 14
0001
0000
0000
0000
,  // measure 15
0010
0000
0000
0000
,  // measure 16
0000
0000
0110
0000
,  // measure 17
0100
0000
0000
0000
,  // measure 18
1000
0000
0000
0000
,  // measure 19
0000
0001
0001
0000
,  // measure 20
1000
0000
0000
0000
,  // measure 21
0010
0000
0000
0000
,  // measure 22
0100
0000
0000
0000
,  // measure 23
0000
1000
1000
0000
,  // measure 24
0001
0000
0000
0000
,  // measure 25
1001
0000
0000
0000
,  // measure 26
0100
0000
0000
0000
,  // measure 27
0010
0000
0000
0000
,  // measure 28
0100
0000
0000
0000
,  // measure 29
1001
0000
0000
0000
,  // measure 30
0100
0000
0000
0000
,  // measure 31
0010
0000
0000
0000
,  // measure 32
0100
0000
0000
0000
,  // measure 33
0002
0000
0000
0000
,  // measure 34
0000
0000
0003
0000
,  // measure 35
0200
0000
0000
0000
,  // measure 36
0000
0000
0300
0000
,  // measure 37
2000
0000
0000
0000
,  // measure 38
0000
0000
3000
0000
,  // measure 39
0200
0000
0000
0000
,  // measure 40
0000
0000
0300
0000
,  // measure 41
1001
0000
0000
0000
,  // measure 42
0010
0000
0000
0000
,  // measure 43
0110
0000
0000
0000
,  // measure 44
1000
0000
0000
0000
,  // measure 45
0101
0000
0000
0000
,  // measure 46
0001
0000
0000
0000
,  // measure 47
1100
0000
0000
0000
,  // measure 48
1000
0000
0000
0000
,  // measure 49
0010
0000
0010
0000
,  // measure 50
0000
0000
0000
0000
,  // measure 51
1000
0000
1000
0000
,  // measure 52
0000
0000
0000
0000
,  // measure 53
0100
0000
0100
0000
,  // measure 54
0000
0000
0000
0000
,  // measure 55
0001
0000
0001
0000
,  // measure 56
0000
0000
0000
0000
,  // measure 57
0010
0000
0001
0000
,  // measure 58
1000
0000
0000
0000
,  // measure 59
0100
0000
1000
0000
,  // measure 60
0010
0000
0000
0000
,  // measure 61
0100
0000
0010
0000
,  // measure 62
0100
0000
0000
0000
,  // measure 63
0001
0000
0010
0000
,  // measure 64
0001
0000
0000
0000
,  // measure 65
1000
0000
0000
0000
,  // measure 66
0100
0000
0000
0000
,  // measure 67
0010
0000
0000
0000
,  // measure 68
0001
0000
0000
0000
,  // measure 69
0100
0000
0000
0000
,  // measure 70
1000
0000
0000
0000
,  // measure 71
0020
0000
0000
0000
,  // measure 72
0030
0000
0000
0000
,  // measure 73
0001
0000
0000
0000
,  // measure 74
1000
0000
0000
0000
,  // measure 75
0001
0000
0000
0000
,  // measure 76
0010
0000
0000
0000
,  // measure 77
1000
0000
0000
0000
,  // measure 78
0100
0000
0000
0000
,  // measure 79
1000
0000
0000
0000
,  // measure 80
0010
0000
0000
0000
,  // measure 81
0010
0000
0000
0000
;

//---------------dance-single - Copied from----------------
#NOTES:
     dance-single:
     Copied from:
     Medium:
     6:
     0.374,0.484,0.073,0.169,0.000: // measure 1
0000
0000
0000
0000
,  // measure 2
0000
0000
0000
0000
,  // measure 3
0000
0000
0000
0000
,  // measure 4
0000
0000
0000
0000
,  // measure 5
0000
0000
0000
0000
,  // measure 6
0000
0000
0000
0000
,  // measure 7
0001
0100
0000
0100
,  // measure 8
1000
0100
0000
0100
,  // measure 9
0110
0000
0010
1000
0100
0000
0010
0000
,  // measure 10
0001
0100
1000
0000
,  // measure 11
0100
0000
0010
0100
0000
0100
0010
0000
,  // measure 12
0100
0000
0001
0000
1000
0100
0010
0000
,  // measure 13
0100
0000
0010
0001
0100
0000
0001
0000
,  // measure 14
1000
0100
0010
0100
,  // measure 15
2000
0001
0001
3100
,  // measure 16
0110
0110
2002
3003
,  // measure 17
0001
0000
0100
0001
1000
0000
0100
0000
,  // measure 18
1000
0100
0010
0000
,  // measure 19
0000
0000
0100
1000
0010
0000
0000
0100
,  // measure 20
0000
0010
0000
0010
0000
0000
0000
0000
,  // measure 21
0001
0000
0010
0001
0100
0000
0010
0000
,  // measure 22
1000
1000
0100
0000
,  // measure 23
0000
0000
1000
0100
0010
0000
0000
0100
,  // measure 24
0000
1000
0000
0001
0000
0000
0000
0000
,  // measure 25
0101
0000
0000
1000
0100
0000
0010
0000
,  // measure 26
0100
0000
0000
0010
0100
0000
0010
0000
,  // measure 27
0010
0000
0000
0001
0100
0000
0001
0000
,  // measure 28
1000
0000
0000
0100
1000
0000
0010
0000
,  // measure 29
0100
0000
0000
0001
1000
0000
0100
0000
,  // measure 30
0010
0000
0000
1000
0100
0000
0010
0000
,  // measure 31
0100
0000
0000
0001
0010
0000
0100
0000
,  // measure 32
0010
0000
0000
1000
0001
0000
0100
0000
,  // measure 33
0002
0000
0100
0000
,  // measure 34
0100
0000
1000
0000
,  // measure 35
2003
0000
0100
0000
,  // measure 36
0010
0000
0100
0000
,  // measure 37
3200
0000
0010
0000
,  // measure 38
1000
0000
0010
0000
,  // measure 39
0320
0000
0001
0000
,  // measure 40
0100
0000
0100
0030
,  // measure 41
1001
0001
0100
1000
,  // measure 42
0100
0001
1000
0100
,  // measure 43
0010
0100
1000
0010
,  // measure 44
0100
0001
0010
0100
,  // measure 45
0010
0100
1000
0100
,  // measure 46
0001
0010
0100
1000
,  // measure 47
0010
0100
0001
0010
,  // measure 48
1000
0100
0010
1000
,  // measure 49
1100
1000
0100
0010
,  // measure 50
0100
1000
0001
0010
,  // measure 51
0100
0010
0001
1000
,  // measure 52
0001
0000
0100
0000
0010
0100
0010
0000
,  // measure 53
0001
0100
1000
0100
,  // measure 54
0010
1000
0100
0001
,  // measure 55
0100
1000
0010
0100
,  // measure 56
0001
0000
1000
0100
0010
0100
1000
0000
,  // measure 57
0100
1000
0100
0000
0010
0001
0010
0000
,  // measure 58
0001
0100
0001
0000
2000
0000
3200
0000
,  // measure 59
0310
0100
0010
0000
1000
0100
1000
0000
,  // measure 60
0002
0203
0320
2030
,  // measure 61
3010
0100
1000
0000
0001
0100
0001
0000
,  // measure 62
0010
0100
0010
0000
0002
0000
2003
0000
,  // measure 63
3010
0100
0010
0000
1000
0100
1000
0000
,  // measure 64
0001
0100
0010
1000
,  // measure 65
0001
0000
0001
0100
0000
0010
0000
1000
,  // measure 66
0000
1000
0100
0000
0010
0000
0010
0000
,  // measure 67
0100
0000
0010
0001
0000
1000
0000
0001
,  // measure 68
0000
0001
0100
0000
0010
0000
1000
0000
,  // measure 69
0001
0000
0001
0100
0000
0001
0000
1000
,  // measure 70
0000
0100
1000
0000
0010
0000
0100
0000
,  // measure 71
0020
0000
0000
2030
0000
0000
3002
0000
,  // measure 72
0100
0100
1003
1001
,  // measure 73
1000
0000
0100
1000
0000
0010
0000
0100
,  // measure 74
0000
0010
1000
0000
0100
0000
0010
0000
,  // measure 75
0001
0000
0100
0010
0000
1000
0000
0001
,  // measure 76
0000
0010
0001
0000
1000
0000
0100
0000
,  // measure 77
1000
0000
0100
0010
0000
0001
0000
1000
,  // measure 78
0000
0001
0100
0000
0010
0000
0010
0000
,  // measure 79
0200
0000
0000
0302
0000
0000
2003
0000
,  // measure 80
0100
0100
3010
1001
,  // measure 81
0100
0000
0000
0000
;

//---------------dance-single - Copied from----------------
#NOTES:
     dance-single:
     Copied from:
     Hard:
     7:
     0.491,0.520,0.129,0.202,0.000: // measure 1
0000
0000
0000
0000
,  // measure 2
0000
0000
0000
0000
,  // measure 3
0000
0000
0000
0000
,  // measure 4
0000
0000
0000
0000
,  // measure 5
0000
0000
0000
0000
,  // measure 6
0000
0000
0000
0000
,  // measure 7
1000
0000
0100
0001
0000
0000
0100
0000
,  // measure 8
1000
0000
0010
0100
0000
0000
0010
0000
,  // measure 9
1000
0000
0100
0010
0001
0000
1000
0000
,  // measure 10
0001
0000
0100
1000
0000
1000
0100
0010
,  // measure 11
1000
0000
0100
0010
0001
0000
1000
0000
,  // measure 12
0001
0100
0010
1000
0002
0000
0103
0000
,  // measure 13
1000
0000
0100
0010
0100
0000
1000
0000
,  // measure 14
0001
0100
0010
0100
,  // measure 15
0001
0000
0001
1000
0001
0100
0001
0010
,  // measure 16
0100
0100
2002
3003
,  // measure 17
0010
0000
1000
0100
0010
0000
0100
0000
,  // measure 18
1000
0001
0100
0010
,  // measure 19
0100
0000
0001
0010
0100
1000
0100
0020
,  // measure 20
0000
0230
0000
1300
0001
0100
0001
0000
,  // measure 21
1001
0000
0001
0100
1000
0000
0100
0000
,  // measure 22
0010
1000
0010
0000
0100
0000
0010
0000
,  // measure 23
1000
0000
0001
0010
0100
0020
0000
0032
,  // measure 24
0000
0203
0000
1300
0100
0000
0010
0000
,  // measure 25
1010
0000
0000
0010
1000
0000
0010
0000
,  // measure 26
1010
0000
0000
0010
1000
0000
0001
0100
,  // measure 27
0011
0000
0000
0001
0010
0000
0001
0000
,  // measure 28
0011
0000
0000
0001
0010
0000
0001
1000
,  // measure 29
1100
0000
0000
0100
1000
0000
0100
0000
,  // measure 30
1100
0000
0000
0100
1000
0000
0010
0100
,  // measure 31
1001
0000
0000
0001
1000
0000
0001
0000
,  // measure 32
1001
0000
0000
0001
1000
0001
0000
0000
,  // measure 33
0110
0000
0010
0000
0010
0100
1000
0000
,  // measure 34
1000
0000
1000
0100
0010
0000
0010
0000
,  // measure 35
0010
0000
0010
0100
0001
0000
0001
0000
,  // measure 36
0001
0000
0001
0100
0010
0000
0010
0100
,  // measure 37
0002
0100
1000
0103
,  // measure 38
2000
0100
0010
3100
,  // measure 39
0002
1000
0010
1003
,  // measure 40
2000
0100
0010
3001
,  // measure 41
0001
0000
0100
1000
0100
0010
0100
0000
,  // measure 42
0001
0000
1000
0100
0010
0001
0010
0000
,  // measure 43
0100
0000
0010
0100
1000
0001
0100
0000
,  // measure 44
0001
0000
0010
0001
0020
0000
0230
0000
,  // measure 45
0310
0000
0001
1000
0100
1000
0100
0000
,  // measure 46
0010
0000
0100
1000
0001
0001
0010
0000
,  // measure 47
0001
0000
0100
0010
1000
0001
0100
0000
,  // measure 48
0100
0000
0001
1000
0200
0000
0320
0000
,  // measure 49
0130
0000
1000
0001
0100
0001
0100
0000
,  // measure 50
0010
0000
0100
0010
1000
1000
0001
0000
,  // measure 51
0100
0000
0001
0010
0100
0010
0001
0000
,  // measure 52
1000
0000
0010
0100
0002
0000
2003
0000
,  // measure 53
3100
0000
1000
0010
0010
0100
0001
0000
,  // measure 54
0010
0000
0001
0100
0010
1000
0001
0000
,  // measure 55
1000
0000
0100
0010
0001
0010
1000
0000
,  // measure 56
0100
0000
0010
1000
0001
0000
0101
0000
,  // measure 57
1000
0001
0100
0001
,  // measure 58
1000
0000
0100
0000
0010
0010
0100
0000
,  // measure 59
1000
0001
0100
0010
,  // measure 60
1000
0000
0001
0000
0010
0010
0001
0000
,  // measure 61
0100
0010
1000
0001
,  // measure 62
0100
0000
1000
0000
0100
0100
0001
0000
,  // measure 63
1000
0100
0010
0100
,  // measure 64
1000
0000
0001
0000
0100
0001
0100
0000
,  // measure 65
1001
0000
0001
0100
1000
0100
0001
0010
,  // measure 66
0100
1000
0001
0000
0100
0000
0001
0000
,  // measure 67
1000
0000
0100
0010
0100
1000
0010
0100
,  // measure 68
0001
0100
1001
0100
,  // measure 69
0010
0000
0100
0001
1000
0100
0010
0001
,  // measure 70
0100
0010
1000
0001
,  // measure 71
0200
0000
0301
0020
0000
0130
2000
0000
,  // measure 72
3010
0100
0001
1000
0100
0010
0001
0000
,  // measure 73
1000
0000
0100
0010
0001
0010
0100
1000
,  // measure 74
0010
0100
0001
0000
1000
0000
1001
0000
,  // measure 75
0001
0000
0100
0010
1000
0001
0100
0001
,  // measure 76
0010
0100
1000
0000
0001
0000
0100
0000
,  // measure 77
1000
0000
0100
0010
0100
1000
0010
0100
,  // measure 78
0001
0001
0010
0000
1000
0000
1100
0000
,  // measure 79
0002
0000
0103
0020
0000
1030
0200
0000
,  // measure 80
1300
0100
0010
0001
1000
0001
0001
0000
,  // measure 81
2000
0000
3000
0000
;

//---------------dance-single - Copied from ----------------
#NOTES:
     dance-single:
     Copied from:
     Challenge:
     8:
     0.624,0.619,0.218,0.218,0.133: // measure 1
0000
0000
0000
0000
,  // measure 2
0000
0000
0000
0000
,  // measure 3
0000
0000
0000
0000
,  // measure 4
0000
0000
0000
0000
,  // measure 5
0000
0000
0000
0000
,  // measure 6
0000
0000
0000
0000
,  // measure 7
0000
0000
0000
0000
,  // measure 8
0000
0000
0000
0000
0100
0010
0100
0000
,  // measure 9
0110
0000
0010
1000
0100
0000
0010
0000
,  // measure 10
0001
0000
0100
0001
0000
1000
0001
1000
,  // measure 11
0001
0000
0010
0001
0100
0000
0010
0000
,  // measure 12
1000
0000
0001
0100
0010
0010
0010
0000
,  // measure 13
1000
0000
1000
0100
0001
0000
0100
0000
,  // measure 14
1000
0010
0100
0001
,  // measure 15
0010
0000
0000
0000
0001
0000
1000
0000
0001
0000
0010
0100
1000
0000
0100
0000
,  // measure 16
1000
0001
0220
0330
,  // measure 17
1001
0000
0001
0010
0100
0000
0010
0000
,  // measure 18
1000
0000
0100
0010
0000
0010
0001
1000
,  // measure 19
0001
0000
0100
0001
0010
0100
1000
0010
,  // measure 20
0100
0010
1000
0010
0100
0000
0100
0000
,  // measure 21
0010
0000
1000
0100
0010
0000
0100
0000
,  // measure 22
0010
0001
1000
0001
0100
0000
0010
0000
,  // measure 23
0100
0000
0001
0010
0100
0010
0001
1000
,  // measure 24
0010
1000
0001
1000
0010
0000
0001
0000
,  // measure 25
1001
0000
0001
0001
1000
0001
0101
0000
,  // measure 26
0101
0000
1000
0010
1000
0100
0010
0010
,  // measure 27
0100
0000
0010
0100
1000
0100
1100
0000
,  // measure 28
1100
0000
0000
0000
0100
0000
0010
0000
0001
0000
1000
0000
0001
0100
0001
0100
,  // measure 29
0001
0000
0010
0010
0100
1000
1001
0000
,  // measure 30
1001
0000
0010
0100
0001
0010
0100
0100
,  // measure 31
0010
0000
0001
1000
0100
0010
0011
0000
,  // measure 32
0011
0000
1000
1000
0100
0001
0010
0000
,  // measure 33
0010
0000
0010
0010
0001
0010
0100
0000
,  // measure 34
0100
0000
0100
1000
0100
1000
0100
0100
,  // measure 35
0010
0000
0010
0010
0001
0010
0100
0000
,  // measure 36
0100
0000
0100
1000
0100
0010
0100
0000
,  // measure 37
1001
0000
0100
0100
0010
0100
1000
0000
,  // measure 38
1000
0000
1000
0100
0010
0001
0010
0010
,  // measure 39
0001
0000
0100
0100
1000
0100
0001
0000
,  // measure 40
0001
0000
0000
0000
0010
0000
0001
0000
0010
0000
0000
0000
0001
1000
0001
1000
,  // measure 41
0001
0000
0010
0100
0000
0100
0010
0000
0001
0000
0001
0000
1000
0000
1000
0000
,  // measure 42
0100
0000
1000
0100
1000
0100
0010
0010
,  // measure 43
0100
0000
1000
0100
0000
0010
0001
0000
0100
0000
0100
0000
0001
0000
0001
0000
,  // measure 44
0010
0000
0001
0001
0200
0000
0302
0000
,  // measure 45
0013
0000
0001
1000
0000
1000
0010
0000
0100
0000
0100
0000
0001
0000
0001
0000
,  // measure 46
0010
0000
0100
0001
0010
0001
0010
0100
,  // measure 47
1000
0000
0010
0100
0000
0001
0100
0000
0010
0000
0010
0000
0100
0000
0100
0000
,  // measure 48
0001
0000
1000
0010
2000
0000
3002
0000
,  // measure 49
0103
0000
0001
0100
0000
0001
0100
0000
0010
0000
1000
0000
0100
0000
1000
0000
,  // measure 50
0100
0000
0100
0010
0100
0010
0001
0001
,  // measure 51
1000
0000
0100
0010
0000
0100
0010
0000
0001
0000
1000
0000
0001
0000
0010
0000
,  // measure 52
0001
0000
1000
1000
0200
0000
2300
0000
,  // measure 53
3001
0000
0010
0001
0000
0010
0001
0000
1000
0000
0010
0000
1000
0000
0010
0000
,  // measure 54
0100
0000
0001
0010
0001
0010
0100
1000
,  // measure 55
0010
0000
1000
0001
0000
1000
0001
0000
0100
0000
0001
0000
0010
0000
0100
0000
,  // measure 56
2000
3020
0032
0023
,  // measure 57
0130
0000
0010
0100
0000
0010
0100
0000
0001
0000
1000
0000
0100
0000
1000
0000
,  // measure 58
0010
0100
0001
0000
1100
0000
0011
0000
,  // measure 59
1000
0000
0010
1000
0000
0010
1000
0000
0001
0000
0100
0000
0001
0000
0010
0001
,  // measure 60
0020
0230
2300
3002
,  // measure 61
0103
0000
0001
0100
0000
0001
0100
0000
0010
0000
0100
0000
0001
0000
1000
0000
,  // measure 62
0010
0100
0002
0000
0023
0000
0032
0000
,  // measure 63
0103
0000
0001
1000
0000
0001
1000
0000
0100
0000
0010
0000
0100
0000
1000
0010
,  // measure 64
2000
3200
0320
0032
,  // measure 65
0103
0001
0100
0100
0010
0100
1000
0100
,  // measure 66
0010
0100
0100
0000
1000
0100
1001
0000
,  // measure 67
0001
0010
0001
0001
0100
0001
0010
0001
,  // measure 68
1000
0001
0001
1000
0001
0010
0110
0000
,  // measure 69
0010
0100
0010
0010
1000
0010
0001
0010
,  // measure 70
0100
0010
0010
0000
1000
0001
0110
0000
,  // measure 71
1000
0100
0010
0002
0010
0100
1003
0000
,  // measure 72
1001
0000
0000
0000
0110
0000
0000
0000
0001
0100
0001
0000
1001
0000
0000
0000
,  // measure 73
1000
0001
1000
1000
0010
1000
0010
1000
,  // measure 74
0100
1000
1000
0000
0100
0010
1100
0000
,  // measure 75
0001
0100
0001
0001
0100
0001
1000
0001
,  // measure 76
0010
0001
0001
0100
0001
1000
0011
0000
,  // measure 77
0100
1000
0100
0100
0010
0100
0001
0100
,  // measure 78
1000
0100
0100
0010
0100
1000
0100
0000
,  // measure 79
0001
0010
0100
2000
0100
0010
3001
0000
,  // measure 80
1100
0000
0000
0000
0011
0000
0000
0000
1000
0010
1000
0000
1001
0000
0000
0000
,  // measure 81
0220
0000
0000
0330
;
