#TITLE:Spaced (Al Storm Remix);
#SUBTITLE:;
#ARTIST:Wink;
#TITLETRANSLIT:;
#SUBTITLETRANSLIT:;
#ARTISTTRANSLIT:;
#GENRE:;
#CREDIT:;
#MENUCOLOR:;
#NEWMETERSYSTEM:NO;
#BANNER:Spaced (Al Storm Remix)-bn.png;
#BACKGROUND:Spaced (Al Storm Remix)-bg.png;
#LYRICSPATH:;
#CDTITLE:MixMania 4 CD Title.png;
#MUSIC:Spaced (Al Storm Remix).mp3;
#OFFSET:-0.020;
#SAMPLESTART:51.820;
#SAMPLELENGTH:12.000;
#SELECTABLE:YES;
#LISTSORT:;
#BPMS:0.000=176.000;
#STOPS:;
#BGCHANGES:;
#ATTACKS:;

//---------------dance-single - ----------------
#NOTES:
     dance-single:
     :
     Easy:
     4:
     0.349,0.398,0.034,0.236,0.000:
0000
0000
0000
0000
,
0000
0000
0000
0000
,
0000
0000
0000
0000
,
0000
0000
0000
0000
,
0001
0100
0001
0100
,
0010
1000
0010
1000
,
0100
0010
0100
0010
,
0002
0100
0100
0003
,
0010
0010
0000
0000
,
1000
0100
0020
1030
,
0100
0000
0010
0001
,
0100
0010
0010
0000
,
1000
0001
0000
0000
,
0100
0010
2000
3100
,
0010
0000
0100
0010
,
0002
0000
1000
0003
,
0100
0000
0010
1000
,
0001
0000
1000
0100
,
1000
0000
0001
0100
,
0001
0000
0010
0001
,
0100
0000
0010
1000
,
0100
0000
0010
0100
,
0020
0000
0031
0000
,
2000
0000
3100
0000
,
0010
0100
0001
1000
,
0100
0000
0100
0000
,
0010
0000
0010
0000
,
0001
1000
0001
0100
,
0000
0010
1000
0100
,
0010
0002
0103
2000
,
3100
0010
0100
0010
,
0002
1000
1003
0000
,
2000
3100
0002
0103
,
0100
0010
1000
0001
,
0100
0000
0100
0000
,
0010
1000
0001
0010
,
0001
0000
1000
0000
,
0100
0000
1000
0000
,
0020
0000
0130
0010
,
0002
1000
1003
0100
,
1001
1000
0100
1000
,
0001
0000
0100
0001
,
1000
0000
0100
1000
,
0010
0100
0001
0000
,
1000
0001
0100
0000
,
0010
1000
0100
0010
,
0001
0000
0100
0001
,
0010
0001
2000
3100
,
0010
0100
0010
0001
,
1000
0001
0100
0010
,
1000
0100
1000
0001
,
0010
0001
0100
0000
,
0010
1000
0100
1000
,
0001
0010
0001
0100
,
0001
0100
1000
0100
,
0002
0000
1003
1001
,
0100
1000
0000
0000
,
0001
1000
0002
0103
,
0010
0000
0001
1000
,
2000
0010
3100
0000
,
1000
0100
0000
0000
,
1000
0001
0020
0130
,
1000
0001
0100
0001
,
2000
0000
0000
3000
,
1100
1000
1000
0001
,
0100
0010
0200
0000
,
0310
1000
0001
0100
,
0001
0010
0020
0000
,
0031
0100
1000
0100
,
0010
0001
1000
0001
,
0200
0000
0310
0000
,
2000
0000
3001
0000
,
0010
1000
0001
0100
,
0001
1000
0100
0000
,
1000
0010
0100
0001
,
1000
0000
0100
0000
,
0010
0001
1000
0100
,
0010
0100
1000
0001
,
0010
0100
0010
0001
,
0200
0000
0310
0000
,
0100
0001
1000
0010
,
0100
0001
1000
0100
,
2000
0000
3100
0010
,
0002
0000
0100
0003
,
0220
0000
0000
0000
,
0000
0000
0000
0000
,
0330
0000
0000
0000
;

//---------------dance-single - Copied from----------------
#NOTES:
     dance-single:
     Copied from:
     Beginner:
     2:
     0.124,0.217,0.025,0.152,0.000:
0000
0000
0000
0000
,
0000
0000
0000
0000
,
0000
0000
0000
0000
,
0000
0000
0000
0000
,
0001
0000
0000
0000
,
0001
0000
0001
0000
,
1000
0000
0000
0000
,
2000
0000
0000
0000
,
3000
0000
0000
0000
,
0100
0000
0200
0000
,
0300
0000
0000
0000
,
0010
0000
0000
0000
,
1000
0000
0000
0000
,
0010
0000
0002
0000
,
0003
0000
0000
0000
,
0200
0000
0300
0000
,
0110
0000
0000
0000
,
0001
0000
0000
0000
,
1000
0000
0000
0000
,
0100
0000
0000
0000
,
0010
0000
0000
0000
,
1000
0000
0000
0000
,
0002
0000
0003
0000
,
2000
0000
3000
0000
,
0100
0000
0000
0000
,
0010
0000
0000
0000
,
0001
0000
0000
0000
,
1000
0000
0000
0000
,
0010
0000
0000
0000
,
0100
0000
0000
0000
,
0001
0000
0000
0000
,
1000
0000
0000
0000
,
0100
0000
0000
0000
,
1000
0000
0000
0000
,
0010
0000
0000
0000
,
0100
0000
0000
0000
,
0100
0000
0000
0000
,
0001
0000
0000
0000
,
0020
0000
0030
0000
,
0200
0000
0300
0000
,
1001
0000
0000
0000
,
0001
0000
0000
0000
,
1000
0000
0000
0000
,
0010
0000
0000
0000
,
0100
0000
0000
0000
,
0001
0000
0000
0000
,
1000
0000
0000
0000
,
0100
0000
0000
0000
,
0001
0000
0000
0000
,
0100
0000
0000
0000
,
1000
0000
0000
0000
,
0010
0000
0000
0000
,
1000
0000
0000
0000
,
0001
0000
0000
0000
,
0100
0000
0000
0000
,
0002
0000
0003
0000
,
1001
0000
0000
0000
,
0010
0000
0020
0000
,
0030
0000
0000
0000
,
0100
0000
0000
0000
,
0001
0000
0000
0000
,
1000
0000
0200
0000
,
0300
0000
0000
0000
,
0020
0000
0000
0000
,
0030
0000
0000
0000
,
0001
0000
1000
0000
,
0001
0000
0000
0000
,
0100
0000
0010
0000
,
0100
0000
0000
0000
,
0001
0000
0000
0000
,
2000
0000
3000
0000
,
0200
0000
0300
0000
,
0010
0000
0000
0000
,
0001
0000
0000
0000
,
1000
0000
0000
0000
,
0001
0000
0000
0000
,
0100
0000
0000
0000
,
0010
0000
0000
0000
,
1000
0000
0000
0000
,
0002
0000
0003
0000
,
1000
0000
0000
0000
,
0100
0000
0000
0000
,
0020
0000
0030
0000
,
0200
0000
0300
0000
,
2000
0000
0000
0000
,
0000
0000
0000
0000
,
3000
0000
0000
0000
;

//---------------dance-single - Copied from----------------
#NOTES:
     dance-single:
     Copied from:
     Medium:
     6:
     0.448,0.471,0.194,0.211,0.000:
0000
0000
0000
0000
,
0000
0000
0000
0000
,
0000
0000
0000
0000
,
0000
0000
0000
0000
,
0001
0000
1000
0000
0001
0000
0100
0010
,
0000
1000
0000
0001
0100
0000
0001
0000
,
1000
0000
0100
0000
0010
0000
0001
1000
,
0000
0001
0000
0100
0001
0000
1001
0000
,
0010
0000
0010
0000
0100
0000
0010
1000
,
0000
0100
0000
0010
0200
0000
0310
0000
,
1000
0001
0100
0001
,
2000
0100
3100
0000
,
0010
0000
0100
0000
0001
0000
1000
0100
,
0000
0100
0000
0010
0002
0000
0103
0000
,
0010
0100
0001
1000
,
0200
0000
0010
0000
,
0310
0001
1000
0001
,
0100
0010
1000
0100
,
0010
0001
1000
0001
,
0100
0010
1000
0001
,
0100
0001
1000
0001
,
0100
0000
0000
0001
0000
0000
1000
0000
,
0200
0000
0000
0310
0000
0000
0001
0000
,
0200
0000
0000
0310
0000
0000
1000
0000
,
0100
1000
0000
0000
0001
0000
0100
0000
,
0010
1000
0001
1000
,
0100
1000
0001
0100
,
0010
0100
0000
0000
0010
0000
1000
0000
,
0100
0000
0010
0000
0001
0000
1000
0001
,
0000
0100
0001
1000
,
0010
0100
0001
1000
,
0001
0100
0000
0000
0010
0000
0100
0000
,
0101
1000
0100
0001
,
0100
1000
0010
0100
,
0001
1000
0100
0010
,
0001
1000
0000
0000
0001
0000
1000
0000
,
0010
0000
0000
0110
0000
0000
1000
0000
,
1001
0000
0000
0110
0000
0000
0010
0000
,
0002
0000
0000
1003
0000
0000
0100
0000
,
0020
0000
0000
0130
0000
0000
0010
0000
,
1001
0100
0010
0001
,
1000
0000
0001
0000
0100
0010
1000
0000
,
0100
0010
0001
1000
,
0001
0000
0100
0000
0010
0100
0010
0000
,
1000
0100
0010
0001
,
1000
0000
0001
0000
0010
0001
0010
0000
,
0001
0100
0010
0100
,
0001
0000
1000
0000
0001
1000
0001
0000
,
1001
0010
0100
0010
,
1000
0000
0100
0000
1000
0010
0100
0000
,
0001
1000
0010
1000
,
0100
0000
0010
0000
0001
1000
0001
0000
,
0010
0001
0100
0001
,
1000
1000
0010
0100
,
0001
1000
0001
0010
,
0001
0000
0001
0000
0100
0100
0100
0000
,
0010
0000
0010
0000
0100
0000
0001
1000
,
0000
0001
0000
0010
0200
0000
1300
0000
,
0010
0100
0001
1000
,
2002
0003
0020
3030
,
1001
0000
1000
0000
0100
0000
0010
0001
,
0000
1000
0000
0001
0020
0000
0031
0000
,
1000
0100
1000
0010
,
0220
0300
2000
3030
,
1001
0000
0001
0000
0100
0000
0001
0010
,
0000
0001
0000
1000
0200
0000
0310
0000
,
1001
0000
1000
0000
0001
0000
0100
0001
,
0000
1000
0000
0010
2000
0000
3100
0000
,
1001
0000
0011
0000
1000
0001
1000
0000
,
0001
0100
0010
1000
,
2100
0000
0000
0010
3000
0000
0100
0000
,
0102
0000
0000
0013
0000
0000
0100
0000
,
1001
0000
0011
0000
1000
0001
0100
0000
,
0010
1000
0100
0010
,
0100
0001
0100
1000
,
0001
0000
0100
0000
0001
1000
0001
0000
,
0011
0000
1100
0000
0010
0100
0010
0000
,
1000
0100
0001
0100
,
1000
0010
0100
0001
,
0200
0000
0000
0310
0000
0000
0100
0000
,
1001
0000
1000
0000
0100
1000
0010
0000
,
0100
0001
2000
3001
,
0010
0001
0100
0000
0010
0000
1000
0000
,
0002
0000
0103
0110
,
2002
0000
0000
0000
,
0000
0000
0000
0000
,
3003
0000
0000
0000
;

//---------------dance-single - Copied from----------------
#NOTES:
     dance-single:
     Copied from:
     Hard:
     8:
     0.569,0.543,0.194,0.244,0.008:
0000
0000
0000
0000
,
0000
0000
0000
0000
,
0000
0000
0000
0000
,
0000
0000
0000
0000
,
0020
0000
1030
0100
0010
0001
0100
0001
,
0000
0100
0000
0010
1000
0001
0100
0000
,
0002
0000
1003
0100
0010
0100
0010
1000
,
0000
0001
0000
0100
0001
0100
0001
0000
,
1000
0000
0001
0000
0100
0010
1000
0001
,
0000
0101
0000
1000
0020
0000
0130
0000
,
0010
0000
1000
0000
0001
0100
0010
0000
,
2000
0100
0010
3100
,
1000
0000
0100
0000
0010
0100
1000
0010
,
0000
0110
0000
0100
0001
0000
0010
0000
,
0002
0000
0103
0000
0010
1000
0100
0000
,
0200
0010
0001
1300
,
1001
0000
0001
0100
0000
0001
1000
0100
,
1000
0000
0010
0100
0001
0000
1000
0000
,
0100
0010
0001
1000
,
0001
0100
0010
1000
,
0001
0000
0100
0001
0000
1000
0010
0100
,
0001
0000
1000
0100
0000
0100
1000
0000
,
1020
0000
0000
0130
0000
0000
0001
0000
,
1002
0000
0000
0103
0000
0000
1000
0100
,
1000
0010
0000
0100
0001
1000
0001
0100
,
0010
0000
1000
0000
0001
0000
0100
0001
,
1000
0000
0100
0000
1000
0000
0010
0100
,
0001
1000
0000
0001
0100
1000
0100
0000
,
0001
0000
1000
0000
0100
0000
0000
0010
0000
0000
0100
0000
1000
0000
0001
0000
,
0000
0100
0010
1000
0001
0000
0110
0000
,
0001
1000
0001
0100
,
0010
1000
0000
0100
0010
0001
1000
0001
,
0100
0000
0000
0000
0010
0000
0000
0001
0000
0000
0010
0000
0100
0000
0010
0000
,
1000
0000
0100
0000
1000
0000
0100
0010
,
0001
0000
1000
0000
0001
0000
0100
0010
,
1000
0000
0001
0100
0001
1000
0100
1000
,
0010
0000
0100
0001
0000
1000
0001
1000
,
0100
0000
0100
1000
0000
0010
0100
0000
,
0210
0000
0000
0301
0000
0000
0010
0000
,
0120
0000
0000
1030
0000
0000
1001
0000
,
0101
0000
0001
0000
1000
0001
0100
0001
,
1000
0000
0100
1000
0010
0100
0010
0000
,
0001
0000
1000
0100
0010
0001
0100
0000
,
0001
0000
1000
0001
0200
0000
0310
0000
,
0010
0000
0100
0001
1000
0100
0001
0100
,
1000
0000
0010
0100
0001
0000
1000
0000
,
0100
0000
1000
0000
0010
0100
0001
0000
,
0001
0010
0100
1000
0100
0010
0001
0000
,
1000
0000
0001
0100
0000
0001
1000
0100
,
1000
0000
1000
0010
0000
0100
0010
0000
,
1000
0000
0001
0100
1000
0100
0001
0000
,
1000
0200
0320
1030
,
0001
0000
0100
0001
0000
1000
0100
1000
,
0010
0000
0100
0010
0000
0100
0001
0000
,
0002
0203
0320
2030
,
3100
0000
0100
0000
0100
0100
0110
0000
,
0001
0000
1000
0000
1000
0010
0001
0020
,
0000
1030
0000
0010
0001
0100
0010
0000
,
0101
0000
1000
0000
0100
1000
0010
0000
,
1100
0010
0100
0001
,
0100
0000
1000
0000
0010
0001
0100
0010
,
0000
1001
0000
0001
0010
0001
1000
0000
,
0120
0000
1030
0000
1000
0100
0010
0100
,
2000
0000
0010
3001
,
0101
0000
1000
0001
1000
0001
0100
0010
,
0000
1000
0000
0001
0100
0000
1010
0000
,
1000
0000
0100
1000
0010
0100
0001
0010
,
0000
0001
0001
1000
1000
0100
1000
0000
,
0010
0100
0000
0010
0100
0001
1000
0100
,
1000
0010
0000
0100
0001
1000
0001
0000
,
0201
0000
0000
0310
0000
0000
0100
0000
,
1020
0000
0000
0130
0000
0000
1001
0000
,
0010
1000
0000
0010
0100
0001
0010
0001
,
0000
0100
0000
0010
1000
0100
1000
0010
,
0000
0100
0001
1000
0001
0100
0001
0000
,
1000
0000
0100
0010
0001
0100
1000
0000
,
0010
0100
0000
0001
1000
0001
0100
0001
,
0000
0010
0000
0001
0100
0001
1000
0100
,
1000
0010
0100
0001
,
2001
0000
0000
3010
0000
0000
0100
0000
,
0001
1000
0000
1000
0100
1000
0010
0200
,
0000
0302
0000
1003
0100
0000
1100
0000
,
2000
0000
3010
0000
0100
0001
1000
0000
,
0002
0000
0100
1003
,
0220
0000
0000
0000
,
0000
0000
0000
0000
,
0330
0000
0000
0000
;

//---------------dance-single - Copied from----------------
#NOTES:
     dance-single:
     Copied from:
     Challenge:
     9:
     0.740,0.760,0.354,0.354,0.143: // measure 1
0000
0000
0000
0000
,  // measure 2
0000
0000
0000
0000
,  // measure 3
0000
0000
0000
0000
,  // measure 4
0000
0000
0000
0000
,  // measure 5
0020
0000
0130
0010
1000
0100
0010
0002
,  // measure 6
0000
0203
0000
0310
1000
0001
0100
0100
,  // measure 7
0002
0000
1003
0100
0010
0100
0010
2000
,  // measure 8
0000
0000
3001
0000
0000
0000
0001
0010
0100
0000
1000
0000
0010
0000
0100
0000
,  // measure 9
0001
0000
1001
0000
1000
0010
0100
0002
,  // measure 10
1000
1003
0100
0010
0001
1000
0010
0100
,  // measure 11
1001
0000
0010
1000
0100
0010
0001
0100
,  // measure 12
0120
0000
0100
0000
1000
1000
1030
0000
,  // measure 13
0100
0000
1001
0000
0010
0001
1000
0200
,  // measure 14
0000
0310
0001
1000
0001
0010
0001
1000
,  // measure 15
1100
0000
0010
0001
0100
0010
1000
0100
,  // measure 16
0020
0001
0100
0031
,  // measure 17
1001
0000
0010
1000
0000
1000
0100
0010
,  // measure 18
0001
0000
0100
0001
0000
0010
0001
0100
,  // measure 19
0010
1000
0001
0100
,  // measure 20
0010
1000
0010
0000
0100
0001
0100
0000
,  // measure 21
0001
0000
1000
0100
0000
0100
0010
0001
,  // measure 22
0100
0000
0100
1000
0000
1000
0010
0000
,  // measure 23
0100
0010
0001
1001
0000
0010
0100
0010
,  // measure 24
1000
0100
0100
0110
0000
0010
0001
1000
,  // measure 25
0101
0001
0000
1000
0001
0100
0100
0010
,  // measure 26
1000
0000
0001
0000
0100
0001
0000
0001
0010
0000
0010
0100
0000
0100
1000
0000
,  // measure 27
0001
0000
1000
0000
0001
1000
0000
1000
0100
0000
0100
0001
0000
0001
0100
0000
,  // measure 28
0010
1000
0000
1000
0100
0010
0001
0001
,  // measure 29
0100
0000
0001
0000
1000
0000
0001
1000
0000
1000
0100
0000
0010
0000
0001
0000
,  // measure 30
1000
0000
0001
0000
0100
0001
0000
1000
0000
0100
0000
0100
0000
0000
0000
0000
,  // measure 31
0110
0000
1000
0000
0001
0010
0000
0010
0100
0000
0100
1000
0000
1000
0001
0000
,  // measure 32
0010
0110
0000
0100
0001
1000
1000
0010
,  // measure 33
1001
0000
0010
0000
0001
0000
0100
0001
0000
1000
0001
0000
0100
0000
0001
0000
,  // measure 34
0010
0100
1000
0100
0010
0100
2000
0000
,  // measure 35
3001
0100
0001
1000
0100
0010
0100
1000
,  // measure 36
0001
0101
0000
0001
1000
1000
0100
0010
,  // measure 37
0110
0000
0010
2000
0000
3100
0010
0001
,  // measure 38
0200
0000
0310
0200
0000
0301
0020
0000
,  // measure 39
0031
1000
0001
0011
0000
0010
0010
0010
,  // measure 40
0100
0001
1000
1100
0000
0100
0020
0000
,  // measure 41
0130
0000
1001
0000
1000
0100
0001
0100
,  // measure 42
1000
0010
0100
0001
0100
0010
1000
0001
,  // measure 43
0100
1000
0100
0001
0010
0001
0100
0010
,  // measure 44
1000
0100
0001
0100
0002
0000
0203
0000
,  // measure 45
0310
1000
0100
0010
0100
0010
0001
0010
,  // measure 46
0100
0001
1000
0100
0001
0100
1000
0010
,  // measure 47
0100
0001
0010
0001
0100
0010
1000
0010
,  // measure 48
0100
0001
0100
0001
1000
0000
1001
0000
,  // measure 49
0100
0001
0010
0001
0100
0010
1000
0100
,  // measure 50
0010
0001
0010
0100
0001
1000
0001
0100
,  // measure 51
0010
1000
0100
0010
0100
0001
1000
0001
,  // measure 52
0100
0010
0001
0010
0001
0100
0001
0100
,  // measure 53
0010
0000
0010
0100
0000
0100
0001
1000
,  // measure 54
0100
0000
0100
0010
0000
0010
0001
0000
,  // measure 55
0100
1000
0001
0100
1000
0100
0001
1000
,  // measure 56
0100
0000
0000
0000
0100
0000
0001
1000
0001
0000
0100
0000
0010
0000
0000
0000
,  // measure 57
1001
0000
1001
0000
1000
0100
0010
0002
,  // measure 58
0100
0203
0000
0310
2000
0001
3001
0000
,  // measure 59
0102
0000
1000
1000
1003
0000
0110
0000
,  // measure 60
2001
0000
0010
0010
0020
0000
3030
0000
,  // measure 61
0110
0000
0110
0000
0001
0010
0100
2000
,  // measure 62
0010
3002
0000
0103
0020
0000
1030
0000
,  // measure 63
0210
0000
0001
0001
0301
0000
1001
0000
,  // measure 64
0120
0000
2000
3030
,  // measure 65
1001
0000
0110
0001
1000
0001
0010
0002
,  // measure 66
0000
0203
0000
0310
1000
0001
0100
0000
,  // measure 67
0110
0000
0010
1000
0001
0010
0001
2000
,  // measure 68
0000
3100
1000
0100
0100
0100
0100
0010
,  // measure 69
1001
0010
0000
0001
0100
0001
1000
0100
,  // measure 70
0000
0010
0001
1000
0001
0010
0100
0010
,  // measure 71
0001
1000
0100
0110
0000
0100
0100
0100
,  // measure 72
0010
0001
1000
0101
0000
1000
1000
1000
,  // measure 73
1001
0010
0000
1000
0001
0100
0010
0100
,  // measure 74
0001
0000
1000
0000
0001
0000
0100
0010
0000
0100
0010
0000
1000
0000
0001
0000
,  // measure 75
0100
0000
0001
0000
1000
0010
0000
0100
0000
0001
0000
1000
0000
0000
0000
0000
,  // measure 76
0020
0000
0000
0130
0001
1000
1000
0100
,  // measure 77
0110
0010
0000
0001
1000
0001
0010
0100
,  // measure 78
1000
0000
0001
0000
1000
0000
0100
0010
0000
0010
0001
0000
0100
0000
0001
0000
,  // measure 79
1000
0000
0001
0000
0010
0100
0000
1000
0000
0100
0000
0010
0000
0000
0000
0000
,  // measure 80
1002
0000
0000
0200
0000
0000
0303
0100
,  // measure 81
1001
0100
0000
0100
0001
1000
0100
0020
,  // measure 82
0000
0032
0000
0103
0100
0010
1000
0100
,  // measure 83
2100
0000
0010
0010
3010
0000
1001
0000
,  // measure 84
0102
0000
2000
3003
,  // measure 85
2002
0000
0000
0000
,  // measure 86
0000
0000
0000
0000
,  // measure 87
3003
0000
0000
0000
;
