#TITLE:Sleepless (Happy Hardcore Remix);
#SUBTITLE:;
#ARTIST:Sanxion7;
#TITLETRANSLIT:;
#SUBTITLETRANSLIT:;
#ARTISTTRANSLIT:;
#GENRE:;
#CREDIT:;
#MENUCOLOR:;
#NEWMETERSYSTEM:NO;
#BANNER:Sleepless (Happy Hardcore Remix)-bn.png;
#BACKGROUND:Sleepless (Happy Hardcore Remix)-bg.png;
#LYRICSPATH:;
#CDTITLE:MixMania 4 CD Title.png;
#MUSIC:Sleepless (Happy Hardcore Remix).mp3;
#OFFSET:-0.040;
#SAMPLESTART:61.420;
#SAMPLELENGTH:12.000;
#SELECTABLE:YES;
#LISTSORT:;
#BPMS:0.000=172.000,240.000=86.000,268.000=172.000;
#STOPS:;
#BGCHANGES:;
#ATTACKS:;

//---------------dance-single - ----------------
#NOTES:
     dance-single:
     :
     Easy:
     3:
     0.210,0.249,0.000,0.015,0.000: // measure 1
0000
0000
0000
0000
,  // measure 2
0000
0000
0000
0000
,  // measure 3
0000
0000
0000
0000
,  // measure 4
0000
0000
0000
0000
,  // measure 5
0000
0000
0000
0000
,  // measure 6
0000
0000
0000
0000
,  // measure 7
0000
0000
0000
0000
,  // measure 8
0020
0000
0000
0000
,  // measure 9
0130
0000
0010
0000
,  // measure 10
1000
0000
0100
0010
,  // measure 11
0001
0000
0100
0000
,  // measure 12
0010
0000
1000
0001
,  // measure 13
1000
0000
0100
0000
,  // measure 14
0010
0000
0100
1000
,  // measure 15
0001
0000
1000
0000
,  // measure 16
0001
0000
0001
1000
,  // measure 17
0010
0000
0100
0000
,  // measure 18
0010
0000
0100
0001
,  // measure 19
1000
0000
0100
0000
,  // measure 20
0010
0000
0001
1000
,  // measure 21
1000
0000
0001
0000
,  // measure 22
0100
0000
0010
1000
,  // measure 23
0001
0000
1000
0000
,  // measure 24
0010
0100
0010
0200
,  // measure 25
0310
0010
0100
0010
,  // measure 26
0000
0001
1000
0001
,  // measure 27
0000
0010
0001
0000
,  // measure 28
0100
0000
1000
0000
,  // measure 29
0001
0000
0100
0100
,  // measure 30
0010
0000
0100
0000
,  // measure 31
0010
0000
1000
0000
,  // measure 32
0001
0100
1000
0000
,  // measure 33
0000
0001
1000
0100
,  // measure 34
0000
0010
0001
1000
,  // measure 35
0000
0100
0100
0000
,  // measure 36
0010
0001
1000
0000
,  // measure 37
0001
0000
0100
0000
,  // measure 38
0100
0000
0010
0000
,  // measure 39
1000
0000
0100
0000
,  // measure 40
0010
0000
0001
0000
,  // measure 41
0100
0000
0100
0100
,  // measure 42
0010
0000
0010
0010
,  // measure 43
0100
0000
0001
0000
,  // measure 44
0100
0000
0010
0010
,  // measure 45
1000
0100
0000
0001
,  // measure 46
0001
0100
0000
0001
,  // measure 47
1000
0000
0100
0000
,  // measure 48
0010
0000
0001
0000
,  // measure 49
1000
0100
0000
0010
,  // measure 50
0001
1000
0000
0010
,  // measure 51
0100
0000
0001
0000
,  // measure 52
1000
0000
0001
0000
,  // measure 53
0100
0010
0000
1000
,  // measure 54
0100
1000
0000
0001
,  // measure 55
0100
0000
0010
0000
,  // measure 56
1000
0000
0001
0000
,  // measure 57
0100
0010
0000
0010
,  // measure 58
0100
0010
0000
0010
,  // measure 59
0100
0000
0001
0000
,  // measure 60
1000
0000
0001
0001
,  // measure 61
1000
0000
0100
0010
,  // measure 62
0100
0000
0010
0001
,  // measure 63
1000
0000
0001
0100
,  // measure 64
0010
0000
1000
0100
,  // measure 65
1000
0000
0001
0010
,  // measure 66
0100
0000
0001
0010
,  // measure 67
1000
0000
1000
0100
,  // measure 68
0010
0000
0000
0000
,  // measure 69
0010
0000
0100
0000
,  // measure 70
0010
0100
0000
1000
,  // measure 71
0100
0010
0000
0010
,  // measure 72
0001
0000
0100
0000
,  // measure 73
0010
0000
1000
0000
,  // measure 74
0001
0100
0000
0100
,  // measure 75
0010
1000
0000
0100
,  // measure 76
0010
0000
0001
0000
,  // measure 77
1000
0000
0001
0000
,  // measure 78
0001
0100
0000
0010
,  // measure 79
1000
0100
0000
0010
,  // measure 80
0001
0000
1000
0000
,  // measure 81
0001
0000
1000
0000
,  // measure 82
0100
0010
0000
0001
,  // measure 83
1000
0001
0000
0001
,  // measure 84
0100
0000
0010
0000
,  // measure 85
1000
0000
1000
0000
,  // measure 86
0001
0000
0000
0000
;

//---------------dance-single - Copied from----------------
#NOTES:
     dance-single:
     Copied from:
     Beginner:
     1:
     0.094,0.155,0.000,0.000,0.000:
0000
0000
0000
0000
,
0000
0000
0000
0000
,
0000
0000
0000
0000
,
0000
0000
0000
0000
,
0000
0000
0000
0000
,
0000
0000
0000
0000
,
0000
0000
0000
0000
,
0000
0000
0000
0000
,
0010
0000
0000
0000
,
0100
0000
0000
0000
,
1000
0000
0000
0000
,
0001
0000
0000
0000
,
0010
0000
0000
0000
,
0100
0000
0000
0000
,
1000
0000
0000
0000
,
0001
0000
0000
0000
,
1000
0000
0000
0000
,
0001
0000
0000
0000
,
1000
0000
0000
0000
,
0001
0000
0000
0000
,
0100
0000
0000
0000
,
0010
0000
0000
0000
,
0100
0000
0000
0000
,
0010
0000
0000
0000
,
0000
0001
0000
0000
,
0000
1000
0000
0000
,
0000
0001
0000
0000
,
1000
0000
0001
0000
,
1000
0000
0000
0000
,
0100
0000
0000
0000
,
0010
0000
0000
0000
,
0001
0000
0000
0000
,
0000
0100
0000
0000
,
0000
0010
0000
0000
,
0000
0100
0000
0000
,
0001
0000
1000
0000
,
0100
0000
0000
0000
,
0010
0000
0000
0000
,
0001
0000
0000
0000
,
1000
0000
0000
0000
,
1000
0000
0000
0000
,
0010
0000
0000
0000
,
0100
0000
0000
0000
,
0001
0000
0010
0000
,
0100
0000
0000
0000
,
0010
0000
0000
0000
,
0001
0000
0000
0000
,
1000
0000
0000
0000
,
0100
0000
0000
0000
,
0010
0000
0000
0000
,
0100
0000
0000
0000
,
1000
0000
0000
0000
,
0001
0000
0000
0000
,
0100
0000
0000
0000
,
0010
0000
0000
0000
,
1000
0000
0000
0000
,
0100
0000
0000
0000
,
1000
0000
0000
0000
,
0001
0000
0000
0000
,
0000
0000
0000
0010
,
0010
0000
0100
0000
,
0100
0000
0010
0000
,
1000
0000
0001
0000
,
0100
0000
0001
0000
,
1000
0000
0010
0000
,
0100
0000
0001
0000
,
0010
0000
1000
0000
,
0010
0000
0000
0000
,
0001
0000
0000
0000
,
1000
0000
0000
0000
,
0100
0000
0000
0000
,
0010
0000
0001
0000
,
1000
0000
0000
0000
,
0010
0000
0000
0000
,
0100
0000
0000
0000
,
0001
0000
0000
0000
,
1000
0000
0000
0000
,
0100
0000
0000
0000
,
1000
0000
0000
0000
,
0010
0000
0100
0000
,
0001
0000
0000
0000
,
1000
0000
0000
0000
,
0001
0000
0000
0000
,
0100
0000
0000
0000
,
0010
0000
0000
0000
,
1000
0000
0000
0000
;

//---------------dance-single - Copied from----------------
#NOTES:
     dance-single:
     Copied from:
     Medium:
     5:
     0.361,0.407,0.037,0.110,0.000: // measure 1
0000
0000
0000
0000
,  // measure 2
0000
0000
0000
0000
,  // measure 3
0000
0000
0000
0000
,  // measure 4
0000
0000
0000
0000
,  // measure 5
0000
0000
0000
0000
,  // measure 6
0000
0000
0000
0000
,  // measure 7
0000
0000
0000
0000
,  // measure 8
0120
0000
0001
0000
,  // measure 9
1030
0000
0000
0100
0000
0010
0000
0000
,  // measure 10
0001
0000
0000
1000
0000
0001
0000
0000
,  // measure 11
0010
0000
0000
0001
0000
0100
0000
0000
,  // measure 12
0010
0000
0000
0100
0000
0100
0000
0000
,  // measure 13
0010
0000
0000
1000
0000
0100
0000
0000
,  // measure 14
0010
0000
0000
0100
0000
0001
0000
0000
,  // measure 15
0100
0000
0000
0010
0000
1000
0000
0000
,  // measure 16
0010
0000
0000
0100
0000
0001
0000
0000
,  // measure 17
1000
0000
0000
0001
0000
0001
0000
0000
,  // measure 18
0010
0000
0000
0100
0000
0100
0000
0000
,  // measure 19
1000
0000
0000
0010
0000
0010
0000
0000
,  // measure 20
0100
0000
0000
0010
0000
0010
0000
0000
,  // measure 21
0001
0000
0000
0001
0000
0001
0000
0000
,  // measure 22
0100
0000
0000
0001
0000
0001
0000
0000
,  // measure 23
0010
0000
0000
0100
0000
0100
0000
0000
,  // measure 24
0010
0000
0000
1000
0000
1000
0000
0000
,  // measure 25
0100
0010
1000
0001
,  // measure 26
0100
0001
1000
0010
,  // measure 27
0100
0001
0001
1000
,  // measure 28
0100
0100
0010
0100
,  // measure 29
1000
0001
0100
0010
,  // measure 30
1000
0001
0100
0010
,  // measure 31
1001
0100
0001
0010
,  // measure 32
0100
0000
1000
0000
0010
0100
0010
0100
,  // measure 33
0010
1000
0001
0100
,  // measure 34
0010
1000
0100
1000
,  // measure 35
0010
0100
0100
0001
,  // measure 36
0010
0010
0001
1000
,  // measure 37
0100
1000
0010
0100
,  // measure 38
0001
0010
0100
0010
,  // measure 39
1001
0100
0001
0010
,  // measure 40
0100
1000
0010
0100
,  // measure 41
0002
1003
0200
1300
,  // measure 42
0020
0130
0002
1003
,  // measure 43
0100
1000
0010
0100
,  // measure 44
0001
0000
0010
0000
0001
0100
0001
0100
,  // measure 45
0010
1000
0100
1000
,  // measure 46
0001
0100
0010
1000
,  // measure 47
0001
0100
0010
1000
,  // measure 48
0200
0310
0002
1003
,  // measure 49
0100
0000
0010
0000
1000
0001
0000
0001
,  // measure 50
0100
0000
0010
0000
1000
0010
0000
1000
,  // measure 51
0100
0010
0001
1000
,  // measure 52
0001
0100
0010
0100
,  // measure 53
0010
1000
0100
0010
,  // measure 54
0001
1000
0001
0100
,  // measure 55
0010
1000
0100
0010
,  // measure 56
0002
0103
0020
1030
,  // measure 57
0001
0000
0100
0000
0010
0010
0000
1000
,  // measure 58
0100
0000
0010
0000
0001
1000
0000
0001
,  // measure 59
0100
1000
0010
0100
,  // measure 60
0001
0000
1000
0000
0001
1000
0001
0100
,  // measure 61
0010
0000
1000
0100
0000
0010
0001
0100
,  // measure 62
0001
0000
1000
0010
0000
0100
0001
1000
,  // measure 63
0001
0000
0100
0010
0000
1000
0100
0010
,  // measure 64
0001
0000
1000
0010
0000
0100
0001
0010
,  // measure 65
0100
0000
1000
0010
0000
1000
0100
0010
,  // measure 66
0100
0000
0010
0001
0000
0100
0001
0010
,  // measure 67
0001
0000
1000
0010
0000
0100
0010
1000
,  // measure 68
0001
0000
0000
1001
0000
0000
1000
0000
,  // measure 69
0000
0110
0000
0000
0010
0000
0200
0000
,  // measure 70
0310
1000
0001
0100
,  // measure 71
0001
0010
0100
1000
,  // measure 72
0010
0100
0001
1000
,  // measure 73
0200
0310
0002
1003
,  // measure 74
0100
0000
1000
0000
0010
1000
0000
0001
,  // measure 75
0100
0000
0001
0000
1000
0010
0000
0100
,  // measure 76
0010
0001
0100
0010
,  // measure 77
1000
0000
0001
0000
1000
0100
1000
0100
,  // measure 78
0010
0001
0100
0010
,  // measure 79
1000
0001
0100
0001
,  // measure 80
0010
0001
1000
0100
,  // measure 81
0020
0130
2000
3001
,  // measure 82
0100
0000
0001
0000
1000
0001
0000
0001
,  // measure 83
0100
0000
0010
0000
1000
0010
0000
1000
,  // measure 84
0010
0100
0010
1000
,  // measure 85
0001
0000
0100
0000
0001
1000
0001
1000
,  // measure 86
0200
0000
0300
0000
;

//---------------dance-single - Copied from----------------
#NOTES:
     dance-single:
     Copied from:
     Hard:
     7:
     0.490,0.594,0.227,0.198,0.051: // measure 1
0000
0000
0000
0000
,  // measure 2
0000
0000
0000
0000
,  // measure 3
0000
0000
0000
0000
,  // measure 4
0000
0000
0000
0000
,  // measure 5
0000
0000
0000
0000
,  // measure 6
0000
0000
0000
0000
,  // measure 7
0000
0000
0000
0000
,  // measure 8
2100
0010
0001
3100
,  // measure 9
1000
0000
0000
0101
0000
0110
0000
0000
,  // measure 10
1000
0000
0000
0101
0000
0011
0000
0000
,  // measure 11
1000
0000
0000
0101
0000
1010
0000
0000
,  // measure 12
0001
0000
0000
1001
0000
0110
0000
0000
,  // measure 13
0100
0000
0000
0011
0000
1100
0000
0000
,  // measure 14
0100
0000
0000
1010
0000
0011
0000
0000
,  // measure 15
0010
0000
0000
1001
0000
1100
0000
0000
,  // measure 16
1000
0000
0000
1001
0000
0101
0000
0000
,  // measure 17
1000
0001
0100
0002
0000
0203
0000
0310
,  // measure 18
0010
1000
0001
0200
0000
0320
0000
0130
,  // measure 19
1000
0010
1000
0200
0000
0302
0000
0103
,  // measure 20
1000
0010
0100
2000
0000
3002
0000
0013
,  // measure 21
0100
0010
1000
0002
0000
2003
0000
3100
,  // measure 22
0010
0001
0010
0200
0000
0320
0000
0031
,  // measure 23
1000
0001
0100
0020
0000
2030
0000
3100
,  // measure 24
0010
0001
1000
0002
0000
2003
0200
3300
,  // measure 25
1001
0000
0001
0100
0010
1000
0100
0000
,  // measure 26
0010
0000
1000
0100
0010
0001
0010
0000
,  // measure 27
0001
0000
0100
0010
1000
0001
0100
0001
,  // measure 28
0010
0001
0100
0010
1000
0000
0100
0000
,  // measure 29
1100
0010
0101
1100
,  // measure 30
0110
0001
1001
0100
,  // measure 31
1001
0000
0100
0001
0010
0000
0100
1000
,  // measure 32
0010
0000
0100
0001
1000
0001
0100
0000
,  // measure 33
0010
0000
1000
0100
0010
0100
0010
0000
,  // measure 34
0100
0000
0001
0010
0100
0010
0100
0000
,  // measure 35
0001
0000
1000
0100
0001
0000
0001
0100
,  // measure 36
1000
0010
0100
0001
0100
0000
0010
0000
,  // measure 37
1001
0010
0101
0011
,  // measure 38
1010
0100
1001
0010
,  // measure 39
0011
0000
0100
0001
0010
0000
0100
1000
,  // measure 40
0010
0000
0100
0001
1000
0001
0100
0000
,  // measure 41
1010
0100
0002
0203
,  // measure 42
0320
0000
1030
0100
0020
0000
0230
0000
,  // measure 43
0302
0000
1003
0100
0001
0000
0001
0100
,  // measure 44
1000
0000
0010
0100
0001
0010
0001
0100
,  // measure 45
0010
1000
0100
1000
,  // measure 46
0001
0000
0100
0000
0001
0000
0010
0001
,  // measure 47
0100
0000
0010
1000
0100
0000
0010
0000
,  // measure 48
0100
0001
1000
0000
0002
0000
0203
0000
,  // measure 49
0310
0000
1000
0000
0100
0010
0000
0010
,  // measure 50
0001
0000
0100
0000
0001
1000
0000
0100
,  // measure 51
1000
0000
0010
0100
0001
0000
1000
0100
,  // measure 52
0010
0100
0010
0001
0010
0001
0100
0000
,  // measure 53
0010
0000
1000
0000
0001
0100
0010
0000
,  // measure 54
1000
0000
0001
0000
1000
0100
0010
0000
,  // measure 55
0100
0010
0001
1000
,  // measure 56
0001
0100
0001
0000
1000
0100
1000
0000
,  // measure 57
0010
0000
0100
0000
0001
1000
0000
1000
,  // measure 58
0100
0000
0010
0000
0100
0010
0000
0001
,  // measure 59
0100
0010
1000
0000
1000
0100
0010
0000
,  // measure 60
1000
0001
0100
0001
0100
1000
0100
0010
,  // measure 61
0100
0000
0000
0010
0000
0000
0100
0000
0000
0010
0000
0000
1000
0000
0100
0000
,  // measure 62
0010
0000
0000
0001
0000
0000
1000
0000
0000
0001
0000
0000
0100
0000
0010
0000
,  // measure 63
1000
0000
0000
0010
0000
0000
0100
0000
0000
0001
0000
0000
0010
0000
1000
0000
,  // measure 64
0010
0000
0000
0001
0000
0000
1000
0000
0000
0100
0000
0000
0100
0000
1000
0000
,  // measure 65
0010
0000
0000
0100
0000
0000
0010
0000
0000
1000
0000
0000
0001
0000
0010
0000
,  // measure 66
0001
0000
0000
0100
0000
0000
0010
0000
0000
0001
0000
0000
0010
0000
1000
0000
,  // measure 67
0100
0000
0000
0010
0000
0000
0001
0000
0000
1000
0000
0000
0100
0000
0100
0000
,  // measure 68
0010
0000
1000
0010
0000
0010
0001
0000
,  // measure 69
1000
0000
0001
0010
0000
0010
0100
0000
,  // measure 70
1000
0001
0100
0001
,  // measure 71
1000
0010
0100
0010
,  // measure 72
1000
0010
1000
0000
0001
0010
0001
0000
,  // measure 73
0100
0000
1000
0001
0100
0001
1000
0000
,  // measure 74
0010
0000
0100
0000
0001
1000
0000
1000
,  // measure 75
0100
0000
0010
0000
0100
0010
0000
0010
,  // measure 76
0001
0000
0100
0001
1000
0000
0001
1000
,  // measure 77
0100
0000
0010
0100
0010
0100
0010
0001
,  // measure 78
0100
0010
1000
0001
,  // measure 79
0100
0010
1000
0001
,  // measure 80
0010
0001
0010
0000
1000
0010
1000
0000
,  // measure 81
0100
0000
0010
0000
1000
0001
1000
0000
,  // measure 82
0001
0000
0100
0000
0010
1000
0000
0001
,  // measure 83
1000
0000
0100
0000
1000
0010
0000
0100
,  // measure 84
0001
0000
0010
0001
0100
0000
0010
0000
,  // measure 85
1000
0100
1000
0100
0010
0001
0010
0001
,  // measure 86
2000
0000
3000
0000
;

//---------------dance-single - Copied from----------------
#NOTES:
     dance-single:
     Copied from:
     Challenge:
     9:
     0.606,0.626,0.337,0.124,0.099: // measure 1
0000
0000
0000
0000
,  // measure 2
0000
0000
0000
0000
,  // measure 3
0000
0000
0000
0000
,  // measure 4
0000
0000
0000
0000
,  // measure 5
0000
0000
0000
0000
,  // measure 6
0000
0000
0000
0000
,  // measure 7
0000
0000
0000
0000
,  // measure 8
1002
0010
0100
1003
,  // measure 9
1000
0000
0010
0101
0000
1100
0000
0010
,  // measure 10
1000
0000
0001
0101
0000
1001
0000
0100
,  // measure 11
0010
0000
1000
0101
0000
1100
0000
0010
,  // measure 12
1000
0000
0100
1001
0000
0110
0000
0001
,  // measure 13
1000
0000
0100
0011
0000
1001
0000
0100
,  // measure 14
0010
0000
1000
1100
0000
0011
0000
0100
,  // measure 15
0001
0000
0010
0110
0000
1001
0000
0001
,  // measure 16
0010
0000
0100
1010
0000
0101
0000
0010
,  // measure 17
0001
1000
0001
0000
1000
0000
0001
0000
0100
0000
0010
0000
1000
0000
0100
0000
,  // measure 18
0010
0100
0010
0000
0001
0000
1000
0000
0001
0000
0100
0000
0010
0000
0100
0000
,  // measure 19
0010
1000
0010
0000
0100
0000
0001
0000
0010
0000
0100
0000
1000
0000
0100
0000
,  // measure 20
0010
0001
0010
0000
0001
0000
0100
0000
0010
0000
1000
0000
0001
0000
0100
0000
,  // measure 21
0010
1000
0100
0000
0010
0000
0001
0000
1000
0000
0001
0000
0100
0000
0010
0000
,  // measure 22
1000
0001
0010
0000
0001
0000
0100
0000
0010
0000
1000
0000
0100
0000
0100
0000
,  // measure 23
0010
0100
1000
0000
0100
0000
0010
0000
0001
0000
1000
0000
0001
0000
0010
0000
,  // measure 24
0001
0010
0100
0000
1000
0000
0010
0000
0100
0000
0001
0000
1000
0000
0100
0000
,  // measure 25
0110
0000
1000
0100
0010
0001
0100
0010
,  // measure 26
0110
0000
0010
1000
0001
0100
0001
0010
,  // measure 27
1001
0000
0001
0010
0001
0100
1000
0100
,  // measure 28
0010
0001
1000
0001
0100
0010
0100
0100
,  // measure 29
0010
0000
1000
0001
0100
0100
0010
0000
,  // measure 30
1001
0000
0010
0001
0100
0100
0001
0000
,  // measure 31
1100
0000
0010
0001
1000
0100
1000
0010
,  // measure 32
0100
0001
0001
0100
0010
1000
0001
0100
,  // measure 33
0010
1000
0001
1000
0001
0100
0101
0000
,  // measure 34
1000
0000
0010
0100
0010
1000
1100
0000
,  // measure 35
1000
0000
0001
0100
0010
0001
0100
0001
,  // measure 36
0010
0001
0100
0010
1000
0100
0010
0100
,  // measure 37
1001
0000
0100
0001
0010
0001
0100
0010
,  // measure 38
1100
0000
0010
0100
0010
0100
0001
0000
,  // measure 39
1001
0000
1000
0100
0010
0100
1000
0100
,  // measure 40
0010
0001
0010
0100
0010
0001
1000
0001
,  // measure 41
0110
0000
0001
0001
1001
0000
0110
0000
,  // measure 42
1001
0000
1000
1000
1100
0000
0100
0000
,  // measure 43
0101
0000
0010
0001
1000
0010
1000
0100
,  // measure 44
0010
0100
1000
0001
0010
1000
0010
0001
,  // measure 45
0210
0000
0310
0000
1000
0001
0200
0000
,  // measure 46
0310
0010
1000
0000
1000
0010
0001
0000
,  // measure 47
0100
0010
0100
0010
1000
0100
0010
0001
,  // measure 48
0100
0010
0100
0010
1000
0100
0010
0001
,  // measure 49
0102
0000
1003
0000
1000
0100
0000
0010
,  // measure 50
0200
0010
0310
0000
0001
1000
0000
0001
,  // measure 51
0100
0011
0100
1001
,  // measure 52
0100
0000
0001
1000
0001
0000
0100
0000
0010
0000
0100
0000
0100
0000
0000
0000
,  // measure 53
2010
0000
3100
0000
0010
0001
0100
0001
,  // measure 54
0002
1000
1003
0000
0010
0100
1000
0010
,  // measure 55
0100
0001
0010
1000
0100
0010
0001
1000
,  // measure 56
0001
0010
0100
0100
0010
1000
0001
0000
,  // measure 57
0201
0000
1300
0000
1000
0100
0000
0010
,  // measure 58
0100
0001
1000
0000
1000
0100
0000
0010
,  // measure 59
0002
0100
2003
0010
,  // measure 60
3100
1000
0010
0100
0001
0010
0001
1000
,  // measure 61
0100
0000
0000
0010
0000
0000
0100
0000
0000
1000
0000
0000
0001
0000
0010
0000
,  // measure 62
0001
0000
0000
0100
0000
0000
0100
0000
0000
0010
0000
0000
1000
0000
0001
0000
,  // measure 63
0010
0000
0000
0100
0000
0000
1000
0000
0000
0001
0000
0000
0100
0000
0100
0000
,  // measure 64
0010
0000
0000
1000
0000
0000
0100
0000
0000
1000
0000
0000
1000
0000
0001
0000
,  // measure 65
0100
0000
0000
0001
0000
0000
0010
0000
0000
1000
0000
0000
0010
0000
0001
0000
,  // measure 66
0100
0000
0000
0010
0000
0000
0100
0000
0000
0010
0000
0000
0001
0000
0010
0000
,  // measure 67
1000
0000
0000
0100
0000
0000
0010
0000
0000
0001
0000
0000
0100
0000
0001
0000
,  // measure 68
1000
0001
1000
0000
0010
0000
0100
0010
0100
0000
0001
0000
1000
0000
0100
0000
,  // measure 69
0010
0001
1000
0001
0200
0000
0310
0000
,  // measure 70
1002
0000
0103
0000
0100
0000
0010
0001
,  // measure 71
0020
0001
0031
0000
0100
0010
1000
0001
,  // measure 72
0100
0010
1000
0000
1000
0100
0001
0000
,  // measure 73
0001
0010
1000
0100
0001
0010
0001
0000
,  // measure 74
0100
0001
0010
0000
0010
0100
0000
0100
,  // measure 75
0010
1000
0100
0000
0010
0001
0000
1000
,  // measure 76
0001
0100
0001
0000
1000
0100
1000
0000
,  // measure 77
0010
0000
0100
0010
0100
0000
0001
0000
1000
0000
0100
0000
0100
0000
0010
0000
,  // measure 78
0102
0000
1003
0000
0100
0000
0010
1000
,  // measure 79
0002
0100
0103
0000
0010
1000
0001
0000
,  // measure 80
0100
0001
0010
0100
1000
0001
0100
0001
,  // measure 81
1000
0010
1000
0000
0001
0100
0001
0000
,  // measure 82
0110
0000
1001
0000
0001
0100
1000
0100
,  // measure 83
1001
0000
0110
0000
1000
0100
0010
0001
,  // measure 84
0100
0100
1000
0000
0100
0001
1000
0000
,  // measure 85
0100
0000
0010
0001
1000
0000
0100
0000
0100
0000
0010
0000
0001
0000
1000
0000
,  // measure 86
0220
0000
0330
0000
;
