#TITLE:シュレーディンガーの猫;
#SUBTITLE:;
#ARTIST:Cait Sith;
#TITLETRANSLIT:Schroedinger's Cat;
#SUBTITLETRANSLIT:;
#ARTISTTRANSLIT:;
#GENRE:;
#CREDIT:;
#MENUCOLOR:#FFFFFF;
#NEWMETERSYSTEM:NO;
#BANNER:Schoedinger's Cat-bn.png;
#BACKGROUND:Schoedinger's Cat-bg.png;
#LYRICSPATH:;
#CDTITLE:MixMania 4 CD Title.png;
#MUSIC:Schroedinger's Cat.mp3;
#OFFSET:0.240;
#SAMPLESTART:8.100;
#SAMPLELENGTH:11.980;
#SELECTABLE:YES;
#LISTSORT:;
#BPMS:0.000=187.000;
#STOPS:;
#BGCHANGES:;
#ATTACKS:;

//---------------dance-single - ----------------
#NOTES:
     dance-single:
     :
     Easy:
     5:
     0.441,0.560,0.186,0.089,0.049:
0000
0000
0000
0000
,
0000
0000
0000
0000
,
0000
0000
0000
0000
,
0001
0000
0000
0100
0000
0001
0000
0100
,
0000
0010
1000
0010
,
0000
0100
0000
0010
0000
0100
0000
0000
,
0001
1000
0001
0010
,
0100
0100
1000
0010
,
0100
0001
0000
0000
0001
0000
1000
0000
,
0001
0020
0000
0000
0000
0000
0030
0000
,
0001
0100
0001
1000
,
0100
0000
1000
0000
0010
0100
0000
0000
,
0100
0000
0010
0000
0100
0002
0000
0000
,
0000
0003
0010
0100
,
1000
0000
0000
0100
0000
0000
0010
0000
,
0001
0000
0000
1000
0000
0001
0000
0100
,
0000
0000
0001
0000
0000
0001
0000
0010
,
0000
0100
0000
1000
0000
0000
0010
0000
,
0000
0100
0000
0010
0000
0100
0000
0000
,
0001
0010
0100
1000
,
0001
0101
1000
0100
,
1000
0100
0010
0001
,
0010
0001
0100
0001
,
0010
0100
0010
1000
,
0100
0010
0001
0101
,
1000
1100
0010
0100
,
0010
0100
0001
0011
,
1000
1010
1000
0100
,
0010
0000
0001
0000
0100
0000
0001
0100
,
0000
0010
1000
0000
0100
0000
1000
0000
,
0100
0010
0100
1000
,
0001
0010
0001
0100
0000
0000
0010
0000
,
0010
0010
1000
0100
,
1000
0010
0100
0001
,
0010
1000
0100
0001
,
0010
0100
0010
0001
,
1000
0010
0100
0001
,
1000
0010
0100
0001
,
0010
0100
1100
1000
,
0010
0100
0101
0001
,
0010
0100
1001
0010
,
0100
0001
1010
0100
,
1000
0010
0101
0010
,
0011
0100
0101
0010
,
1100
0010
1001
0010
,
0010
0010
1000
1000
,
1000
0000
0100
0000
1001
0000
0000
0001
,
0000
0000
0100
0000
0000
0100
0000
0000
,
0010
0000
0000
0010
0000
0000
1000
0000
,
0000
1000
0000
0000
0100
0000
0000
0100
,
0000
0000
0010
0000
0000
0010
0000
0000
,
0001
0100
0001
1000
,
0100
1000
0010
0100
,
0010
1000
1100
0101
,
2002
0000
0000
0000
,
0003
0020
0000
3030
,
0001
0100
0001
1000
,
0100
1000
0010
0100
,
0001
0010
0100
1000
,
0001
1000
0001
0100
,
0010
0010
1000
0000
0001
0001
0100
0000
,
1000
0100
0010
0001
,
0001
0100
0001
1000
,
0100
1000
0010
0100
,
0001
1000
0200
0320
,
0032
1003
0010
0100
,
0001
1000
0100
1000
,
0001
0000
0000
1000
0000
0000
0001
0000
0010
0000
0001
0000
,
0000
0000
0000
0000
1000
0000
0010
0000
1000
0000
0010
0000
,
0000
0000
0000
0000
0010
0000
0100
0000
0010
0000
0100
0000
,
0000
0000
0001
0000
1000
0000
0001
0000
0100
0000
0000
0000
,
0010
1001
0010
0100
,
0001
1000
0100
0010
,
0100
1000
0001
0010
,
0001
0100
0010
0100
,
0010
1000
0001
0100
,
0001
0010
0100
1000
,
0001
0100
1000
0001
,
0002
0100
0100
0103
,
2000
0100
0100
3100
,
0010
0100
0001
1000
0100
0000
0100
0000
,
0010
0100
0010
0001
1000
0000
0001
0000
,
0100
0001
0100
0000
1000
0100
1000
0000
,
0010
0100
0010
1000
0001
0000
1100
0000
,
0011
0100
0000
0000
;

//---------------dance-single - Copied from----------------
#NOTES:
     dance-single:
     Copied from:
     Beginner:
     3:
     0.233,0.299,0.115,0.089,0.022:
0000
0000
0000
0000
,
0000
0000
0000
0000
,
0000
0000
0000
0000
,
0001
0000
0000
1000
0000
0000
0000
0001
,
0000
0100
0000
0010
,
0000
1000
0000
0000
0000
0100
0000
0000
,
0010
0000
0001
0001
,
0001
0000
1000
1000
,
1000
0000
0010
0010
,
0010
0000
0000
0000
,
0100
0000
0100
0000
,
0001
0001
0001
0000
,
1000
1000
1000
0000
,
0000
0000
0100
0000
,
0010
0000
0000
1000
0000
0000
0001
0000
,
0000
0001
0000
0001
0000
0000
0000
0100
,
0000
0000
0010
0000
0000
0010
0000
0010
,
0000
0010
0000
0000
0000
0000
0000
0001
,
0000
0001
0000
0000
0000
1000
0000
1000
,
0000
0010
0010
0010
,
0000
1000
1000
0000
,
0001
0000
0100
0000
,
0001
0000
1000
0000
,
0010
0000
0100
0100
,
0100
0100
0000
0110
,
0000
1001
0000
1000
,
0000
0001
0000
0011
,
0000
1100
0000
0100
,
0000
0100
0100
0000
,
0010
0000
0001
0001
,
0001
0000
1000
0000
,
1000
1000
0000
0100
,
0000
0200
0000
0000
,
0000
0000
0000
0000
,
0000
0000
0000
0000
,
0000
0000
0000
0000
,
0000
0000
0000
0000
,
0000
0000
0000
0000
,
0300
0000
0110
0000
,
0000
0000
1001
0000
,
0100
0000
1001
0000
,
0001
0000
1010
0000
,
0100
0000
1001
0000
,
0001
0000
1000
0000
,
0001
0000
0210
0000
,
0300
0000
0120
0000
,
0030
0000
0000
0000
0001
0000
0000
0001
,
0000
0000
1000
0000
0000
1000
0000
0000
,
0001
0000
0000
0001
0000
0000
1000
0000
,
0000
1000
0000
0000
0010
0000
0000
0010
,
0000
0000
0100
0000
0000
0100
0000
0000
,
0010
0000
0000
1000
,
0000
0000
0100
0000
,
0000
0001
0000
0000
,
2002
0000
0000
0000
,
0000
0000
3003
0000
,
0001
0000
0001
0000
,
1000
0000
0100
0000
,
1000
0000
0010
0000
,
0100
0000
0001
0000
,
2000
3000
2000
3000
,
2000
3000
0000
0001
,
0001
0000
0100
0000
,
0010
0000
1000
0000
,
0001
0000
1000
1000
,
1000
0000
0001
0000
,
0100
0000
0001
0001
,
0001
0000
0000
0000
0000
0000
0000
0000
0000
0000
0100
0000
,
0000
0000
0000
0000
0000
0000
0000
0000
0000
0000
0010
0000
,
0000
0000
0000
0000
0000
0000
0000
0000
0000
0000
1000
0000
,
0000
0000
0001
0000
0000
0000
1000
0000
0000
0000
0010
0000
,
0000
0000
0110
0000
,
0001
0000
1000
0000
,
0001
0000
0010
0000
,
0001
0000
0100
0000
,
0010
0000
1000
0000
,
0001
0000
1000
0000
,
0100
0100
0100
0000
,
0020
0000
0030
0000
,
0002
0000
0003
0000
,
1000
1000
1000
0000
,
0001
0001
0001
0000
,
0000
0100
0000
0010
,
0000
0001
0000
0010
,
0010
0010
0000
0000
;

//---------------dance-single - Copied from----------------
#NOTES:
     dance-single:
     Copied from:
     Medium:
     8:
     0.620,0.635,0.266,0.257,0.129:
0000
0000
0000
0000
,
0000
0000
0000
0000
,
0000
0000
0000
0000
,
1000
0100
1000
0001
0000
0001
0000
0100
,
0001
0100
0010
0000
0010
0000
0010
1000
,
0010
0100
0000
0100
0000
0001
1000
0001
,
0010
0000
0010
0000
0100
1000
0100
0010
,
0001
0000
0100
0001
0100
0010
1000
0100
,
0100
1000
0000
0010
0100
0001
0010
0001
,
0010
0001
0000
1000
0000
1000
0000
0001
,
1000
0100
1000
0010
0100
0000
0001
0010
,
0001
1000
0010
0100
0001
0010
0000
0001
,
0010
0100
1000
0010
0100
0001
0000
0001
,
0000
0010
0000
0000
1001
0000
0001
0100
,
0001
1000
0000
1000
0100
0000
0010
0100
,
0010
0001
0000
1000
0010
0100
0010
1000
,
0001
0000
0100
0010
1000
0001
0000
0100
,
0001
0010
0100
1000
0100
0000
1000
0100
,
0010
0001
0000
0100
0001
0100
1000
0000
,
0010
0100
0010
1000
0100
0010
0001
1000
,
0100
0000
1001
0000
0010
0100
0010
0000
,
1000
0100
1000
0000
0001
0100
0001
0000
,
0010
0001
0010
0000
0100
0010
0100
0000
,
0001
1000
0001
0000
1000
0100
0010
0001
,
1000
0001
0101
1010
,
1100
0000
0011
0000
1000
0010
0100
0001
,
0010
0100
1000
0000
0011
0000
1100
0000
,
1010
0000
0101
0000
0010
0100
0010
1000
,
0100
0010
0001
0000
0100
0001
0100
1000
,
0000
0100
0010
0000
2000
0000
3200
0000
,
0320
0000
0032
0000
0103
0010
0100
0000
,
1000
0100
1000
0010
0000
0000
0100
0000
,
0010
0100
0002
2003
,
3020
0230
0302
0023
,
2030
3200
0320
2030
,
3002
0023
0230
2300
,
3020
0230
0302
0023
,
0032
2003
3200
0302
,
0203
0000
1300
0000
0101
0000
1000
0001
,
0010
0000
0100
0000
1001
0000
0100
1000
,
0010
0000
1000
0000
0011
0000
0010
1000
,
0001
0000
1000
0000
1010
0000
0100
0010
,
0001
1000
0011
0100
,
1010
0100
1001
0010
,
0101
0000
0010
0000
1001
0000
1000
0100
,
1000
0000
1000
0100
1000
0000
0010
0100
,
0010
0000
0010
0100
0001
0000
0001
0100
,
0000
0000
1000
0000
1000
0100
0000
0000
,
0010
0000
0010
0100
0000
0000
1000
0000
,
1000
0001
0000
0000
0100
0000
0100
0010
,
0000
0000
0001
0000
0001
0100
0000
0000
,
0010
0100
0010
0000
1000
0000
1000
0001
,
1000
0000
0001
0000
0001
0010
0001
0000
,
0100
0000
0000
0100
0000
0001
0010
0000
0100
1000
0000
0000
,
2002
0000
0000
0000
,
0000
0000
0000
3003
,
0010
0100
0001
0000
1000
0010
0100
0000
,
1000
0100
0010
0000
0100
0010
0001
0000
,
0100
0001
0100
0010
1000
0001
0100
0000
,
1000
0100
1000
0000
0001
0010
0001
0000
,
1000
0100
0010
0000
0100
0010
0001
0000
,
1000
0100
0010
0001
1000
0000
0101
0000
,
1010
0000
1000
0100
0000
0000
0010
0000
0000
0100
0000
0000
,
0010
0000
0001
0100
0000
0000
0010
0000
1000
0100
0000
0000
,
0010
0000
0001
0100
0000
0001
1000
0000
1000
0100
0000
0100
,
0010
0000
0000
0001
0000
0000
1000
0000
0000
0001
0000
0010
,
0001
0000
0000
0100
0000
0010
1000
0000
1000
0010
0000
0000
,
0101
0000
0000
0001
0000
0000
1000
0000
0100
0000
1000
0000
,
0000
0010
0000
0000
0100
0000
0001
0000
0010
0000
0100
0000
,
0000
1000
0000
0000
0010
0000
0100
0000
0001
0000
1000
0000
,
0010
0000
0100
0000
0001
0000
1000
0000
0001
0000
0010
0000
,
0001
1001
1010
1000
,
0100
0100
0010
0010
,
0001
0000
0000
0001
0000
0001
0100
0000
0000
0100
0000
0000
,
0010
0010
1000
1000
,
0001
0000
0000
0001
0000
1000
0100
0000
0000
0100
0000
0000
,
0010
0010
0100
0100
,
1000
0000
0000
1000
0000
0001
0100
0000
0000
0100
0000
0000
,
0001
0011
0001
0101
,
1000
1100
1000
1010
,
0001
0100
0001
1000
0100
0000
0100
0000
,
0010
0100
1000
0001
0100
0000
0100
0000
,
0001
0010
0001
1000
0100
1000
0010
0100
,
0001
0000
1000
0100
0001
0000
0010
0100
,
0010
1001
0000
0000
;

//---------------dance-single - Copied from----------------
#NOTES:
     dance-single:
     Copied from:
     Hard:
     10:
     0.741,0.709,0.372,0.080,0.270: // measure 1
0000
0000
0000
0000
,  // measure 2
0000
0000
0000
0000
,  // measure 3
0000
0000
0000
0000
,  // measure 4
0010
0100
0010
1000
0001
0100
0001
0010
,  // measure 5
0001
0100
0010
1000
0100
0010
0100
1000
,  // measure 6
0001
0100
0001
0010
1000
0010
0001
0100
,  // measure 7
0010
1000
0010
0100
0001
0100
0001
0010
,  // measure 8
0010
0000
0000
0000
0001
0000
0100
0000
0010
0000
1000
0000
0100
0000
0100
0010
,  // measure 9
0001
0000
0010
0000
0000
0000
0001
0100
0001
0000
1000
0000
0100
0000
0010
0000
,  // measure 10
0100
2000
0000
0100
0000
0100
0000
3001
,  // measure 11
0100
0001
1000
0001
0010
0000
0100
1000
,  // measure 12
0010
0000
0100
0000
0001
0000
1000
0100
0010
0000
0100
0000
0000
0000
1000
0001
,  // measure 13
0100
0001
1000
0001
0010
0002
0000
0100
,  // measure 14
0000
0100
0000
0103
0010
0100
0001
1000
,  // measure 15
0100
0010
0000
0100
1000
0000
0010
0100
,  // measure 16
0001
0010
0000
0010
0001
1000
0100
0010
,  // measure 17
0100
0000
0100
1000
0010
0100
0000
0100
,  // measure 18
0001
0010
0001
0100
0010
0000
0010
0100
,  // measure 19
0001
0010
0000
0010
0100
1000
0010
0000
,  // measure 20
0100
0001
1000
0100
0010
0100
1000
0001
,  // measure 21
0010
0000
1001
0000
0100
0010
0100
0001
,  // measure 22
0010
0001
1000
0100
0010
0100
1000
0001
,  // measure 23
0010
0001
0100
0010
0100
0001
0010
1000
,  // measure 24
0010
0001
1000
0100
0001
0100
0001
0100
,  // measure 25
1000
0100
1000
0100
1000
0010
1010
0000
,  // measure 26
0001
0010
0011
0000
0010
0100
0010
0100
,  // measure 27
0001
0010
0100
1000
0001
0100
0101
0000
,  // measure 28
1000
0100
1100
0000
0100
0010
0100
0010
,  // measure 29
1000
0100
0010
0001
0100
0001
1000
0200
,  // measure 30
0000
0310
0001
1000
0001
0000
0011
0000
,  // measure 31
0110
0000
1100
0000
1000
0010
0100
0001
,  // measure 32
0010
0100
1000
0020
0000
0000
0100
0000
,  // measure 33
1000
0000
0001
0000
1030
0100
1000
0000
,  // measure 34
0001
0100
0001
0000
0010
0001
0010
0000
,  // measure 35
0100
0010
0100
0000
1000
0010
0100
0000
,  // measure 36
0001
0010
0100
0000
0010
0001
1000
0000
,  // measure 37
0010
0100
0001
0000
0010
0100
1000
0000
,  // measure 38
0010
0100
0001
0000
0010
0001
0010
0001
,  // measure 39
0010
0100
1000
0010
0110
0000
0001
0100
,  // measure 40
1000
0100
0001
0000
0011
0000
0010
0100
,  // measure 41
0010
0001
1000
0000
1100
0000
0010
0100
,  // measure 42
0001
1000
0010
0000
0101
0000
0010
0100
,  // measure 43
0001
0100
0010
0000
1010
0000
0100
0000
,  // measure 44
0110
0000
0001
0000
1000
0100
0010
0001
,  // measure 45
0100
0010
0100
0001
0101
0000
1100
0000
,  // measure 46
0110
0011
1001
0110
,  // measure 47
0011
0000
1001
0000
0110
0000
0010
0100
,  // measure 48
0010
0000
1001
0000
0001
0100
0010
0000
,  // measure 49
1100
0000
0100
0010
0001
0000
1010
0000
,  // measure 50
1000
0100
0010
0000
0101
0000
0010
0001
,  // measure 51
0100
0000
1001
0000
0010
0001
0100
0000
,  // measure 52
0010
1000
0010
0100
0001
0010
1000
0010
,  // measure 53
0001
0100
0010
1000
0100
0001
0100
1000
,  // measure 54
0010
0000
0000
0100
0000
0000
0001
0000
0010
0000
0001
0000
1000
0000
0100
0000
1000
0000
0010
0000
0000
0000
0000
0000
,  // measure 55
0120
0000
2000
0000
,  // measure 56
3030
0001
1000
0001
,  // measure 57
0100
0010
1000
0010
0100
0001
0010
1000
,  // measure 58
0100
0010
1000
0100
0010
0001
1000
0001
,  // measure 59
0100
0001
0100
0001
1000
0010
1000
0100
,  // measure 60
0010
0100
1000
0001
0010
0100
1000
0001
,  // measure 61
0010
0010
0011
0000
0100
0100
1100
0000
,  // measure 62
0010
0000
0000
0100
0000
0000
0110
0000
0000
0000
0000
0000
1001
0000
0000
0000
0000
0000
1000
0000
0000
0000
1000
0000
,  // measure 63
0100
0000
0100
0010
0000
0000
0001
0000
0100
0001
0000
1000
,  // measure 64
0010
0000
0100
0010
0000
0010
0100
0000
0000
0010
0000
0010
,  // measure 65
0001
0000
1000
0100
0000
1000
0020
0000
1030
0200
0000
0310
,  // measure 66
0002
0000
0000
0103
0000
0000
0110
0000
0000
1010
0000
1000
,  // measure 67
0100
0000
0100
0010
0000
0010
0001
0000
0001
0100
0000
0000
,  // measure 68
1010
0000
0000
1000
0000
0000
0100
0000
0010
0000
0001
0000
,  // measure 69
0000
1000
0000
0000
0100
0000
0010
0000
0100
0000
1000
0000
,  // measure 70
0000
0001
0000
0000
0100
0000
0001
0000
0100
0000
0010
0000
,  // measure 71
1000
0000
0010
0000
0100
0000
0001
0000
1000
0000
0100
0000
,  // measure 72
0010
0000
0000
1001
0000
0000
1000
0000
1000
0100
0000
0000
,  // measure 73
0001
0000
0001
0100
0000
0000
0010
0000
0100
0010
0000
1000
,  // measure 74
0100
0000
0001
0100
0000
0000
0100
0000
0001
0100
0000
0000
,  // measure 75
0100
0000
1000
0100
0000
0000
0010
0000
1000
0100
0000
0001
,  // measure 76
0100
0000
0010
0100
0000
1000
0010
0000
0100
0001
0000
0010
,  // measure 77
0100
0000
0001
1000
0000
0010
0001
0000
1000
0100
0000
0010
,  // measure 78
0001
0000
0010
0001
0000
1000
0100
0000
0010
0100
0000
1000
,  // measure 79
0001
0000
0000
0101
0000
0000
1001
0000
0000
0010
0000
0100
,  // measure 80
1000
1100
1001
1000
,  // measure 81
0100
0010
0100
1000
0001
0100
0001
0010
,  // measure 82
0100
0010
0001
1000
0001
0100
0010
0100
,  // measure 83
0001
0100
0001
1000
0100
1000
0010
0100
,  // measure 84
0010
0000
1000
0000
0100
0000
1000
0000
0001
0000
0000
0000
1000
0001
1000
0001
,  // measure 85
0100
1001
0000
0000
;

//---------------dance-single - Copied from ----------------
#NOTES:
     dance-single:
     Copied from:
     Challenge:
     10:
     0.842,0.859,0.487,0.115,0.439: // measure 1
0000
0000
0000
0000
,  // measure 2
0000
0000
0000
0000
,  // measure 3
0000
0000
0000
0000
,  // measure 4
0001
0100
0100
0001
1000
0100
1000
0010
,  // measure 5
0100
0100
0010
0100
0010
1000
0100
1000
,  // measure 6
1000
0001
0100
0001
1000
0010
0001
0001
,  // measure 7
0010
1000
0100
0010
0100
1000
0001
0100
,  // measure 8
0001
0000
0000
0000
0010
0000
0001
0000
0100
0000
0010
0000
1000
0000
0001
0010
,  // measure 9
0100
0000
1000
0000
0010
0000
0100
0010
0100
0000
0001
0000
1000
0000
0001
0000
,  // measure 10
0010
0001
0100
0000
0101
0000
1100
0000
,  // measure 11
0010
0100
0010
1000
0100
1000
0001
0001
,  // measure 12
0010
0000
0001
0000
0100
0000
0010
0100
1000
0000
0010
0000
0100
0000
0001
0010
,  // measure 13
0001
1000
0100
1000
0010
0100
0001
0000
,  // measure 14
1100
0000
0101
0000
1000
0100
1000
0010
,  // measure 15
0100
1001
0000
0010
1001
0000
0100
0001
,  // measure 16
0010
0110
0000
1000
0010
0100
0001
1000
,  // measure 17
0011
0000
0100
0010
0100
1001
0000
1000
,  // measure 18
0100
0010
0001
1000
0110
0000
0001
0010
,  // measure 19
0100
1100
0000
1000
0010
0100
0101
0000
,  // measure 20
0010
0100
0001
0010
0100
1000
0010
0100
,  // measure 21
1010
0000
0101
0000
1000
0100
0001
0100
,  // measure 22
1000
0100
0001
0100
1000
0010
0001
0010
,  // measure 23
1000
0010
0001
0010
0100
0010
0100
0001
,  // measure 24
0100
0010
0100
0001
1000
0100
0010
0001
,  // measure 25
1000
0000
0100
0000
0010
0000
0001
0000
1000
0100
1000
0100
1000
0000
0000
0000
,  // measure 26
0001
0100
0001
0100
0001
0000
0000
0000
0010
0000
0100
0000
0010
0000
1000
0000
,  // measure 27
0100
0000
0010
0000
0100
0000
1000
0000
0001
0010
0001
0010
0001
0000
0000
0000
,  // measure 28
1000
0010
1000
0010
1000
0000
0000
0000
0001
0000
0010
0000
0001
0000
1000
0000
,  // measure 29
0001
0100
0010
1000
0100
0010
0001
0100
,  // measure 30
0000
0010
0100
0010
1000
1000
0100
0100
,  // measure 31
0010
0010
0001
0001
0100
0001
0010
1000
,  // measure 32
0010
0001
0100
0010
0000
1000
0100
0000
,  // measure 33
0110
0000
1001
0000
0001
0100
0001
1000
,  // measure 34
0100
0010
0100
1000
0100
0001
0100
1000
,  // measure 35
0010
0100
0001
0010
1000
0100
0010
0100
,  // measure 36
0001
0010
0100
1000
0001
0100
0001
1000
,  // measure 37
0010
1000
0100
0010
0001
1000
0010
0100
,  // measure 38
0001
0010
0100
1000
0001
0010
0001
1000
,  // measure 39
0100
1000
0100
1000
1001
0000
0010
0100
,  // measure 40
0001
0010
0100
1000
0101
0000
1000
0010
,  // measure 41
0100
0001
1000
0010
1100
0000
1000
0100
,  // measure 42
0010
0100
1000
0001
0101
0000
0001
0100
,  // measure 43
0001
1000
0010
1000
0110
0000
0100
0001
,  // measure 44
1001
0000
0100
0001
1100
0000
0010
0100
,  // measure 45
0101
0000
1000
0100
0011
0000
1100
0000
,  // measure 46
1010
0101
0110
0011
,  // measure 47
1010
0000
0101
0000
0110
0000
0001
2000
,  // measure 48
0001
3000
0110
0000
1000
0002
1000
0003
,  // measure 49
0011
0000
1000
0200
1000
0300
0011
0000
,  // measure 50
0001
0020
0001
0030
1010
0000
0100
0002
,  // measure 51
0100
0003
1010
0000
0100
0020
0100
0030
,  // measure 52
0001
0010
0001
0010
0001
0010
0100
1000
,  // measure 53
0100
1000
0100
1000
0010
0100
0010
0100
,  // measure 54
0010
0000
0000
0100
0000
0000
0001
0000
0010
0000
0100
0000
1000
0000
0100
0000
0010
0000
0001
0000
0000
0000
0000
0000
,  // measure 55
2002
3003
0220
0000
,  // measure 56
0330
0000
1000
0100
1000
0100
1000
0100
,  // measure 57
1000
0010
0100
0001
0010
0100
1000
0001
,  // measure 58
0100
0001
0010
0001
0100
0010
1000
0010
,  // measure 59
0001
0010
1000
0001
0100
0001
1000
0010
,  // measure 60
0100
0100
1000
0100
0001
0010
0100
1000
,  // measure 61
0010
0010
0110
0000
1000
1000
1001
0000
,  // measure 62
0010
0000
0000
0010
0000
0000
0011
0000
0000
0000
0000
0000
1100
0000
0000
0000
0000
0000
0010
0000
0100
0000
0001
0000
,  // measure 63
0010
0100
1000
0100
0000
0010
0001
0000
0100
0010
1000
0001
,  // measure 64
0100
0000
0010
0100
0000
0010
1000
0000
0001
0100
0010
1000
,  // measure 65
0100
0000
0010
0001
0000
1000
0020
0000
0130
0002
0000
1003
,  // measure 66
0200
0000
0310
0001
0000
1000
0100
1000
0010
0100
0000
0001
,  // measure 67
0010
0000
0100
1000
0010
0100
0001
0000
0010
0001
1000
0001
,  // measure 68
0100
0000
0000
0100
0000
0000
0010
0000
1000
0000
0011
0000
,  // measure 69
0000
0110
0000
0000
0010
0000
1000
0000
0001
0000
0110
0000
,  // measure 70
0000
1100
0000
0000
0001
0000
0100
0000
1001
0000
0100
0000
,  // measure 71
1000
0000
1001
0000
0100
0000
0001
0000
1001
0000
0010
0000
,  // measure 72
0100
0000
0000
1100
0000
0000
1001
0000
0001
0010
0000
0100
,  // measure 73
1000
0000
0010
0100
0000
1000
0010
0000
0100
0001
0000
0010
,  // measure 74
0100
0000
1000
0001
0000
0010
0001
0000
0100
0001
0000
1000
,  // measure 75
0100
0000
0010
0100
0000
0010
1000
0000
0010
0001
0000
0100
,  // measure 76
0010
0000
1000
0001
0000
0010
0001
0000
0010
0100
0000
0010
,  // measure 77
1000
0000
1000
0100
0000
0010
0001
0000
0001
0100
0000
0010
,  // measure 78
0100
0000
0001
0010
0000
1000
0100
0000
0100
0010
0000
0001
,  // measure 79
0010
0001
0010
0001
0100
0001
0100
0001
1000
0001
0000
1000
,  // measure 80
0100
1000
0100
1000
0010
1000
0010
1000
0001
1000
0000
0000
,  // measure 81
1100
1000
0010
0100
0001
0010
0001
0010
,  // measure 82
0001
0100
0010
1000
0100
1000
0100
1000
,  // measure 83
0010
0100
0001
1000
0100
0010
0001
0010
,  // measure 84
0100
0000
1000
0000
0001
0000
0100
0000
0001
0000
0000
0000
1000
0100
0010
0001
,  // measure 85
1000
1001
0000
0000
;
