#TITLE:STOP;
#SUBTITLE:;
#ARTIST:3rd Coast;
#TITLETRANSLIT:;
#SUBTITLETRANSLIT:;
#ARTISTTRANSLIT:;
#GENRE:;
#CREDIT:;
#MENUCOLOR:;
#NEWMETERSYSTEM:NO;
#BANNER:STOP-bn.png;
#BACKGROUND:STOP-bg.png;
#LYRICSPATH:;
#CDTITLE:MixMania 4 CD Title.png;
#MUSIC:STOP.mp3;
#OFFSET:-1.580;
#SAMPLESTART:35.740;
#SAMPLELENGTH:11.960;
#SELECTABLE:YES;
#LISTSORT:;
#BPMS:0.000=90.000,16.000=162.000;
#STOPS:;
#BGCHANGES:;
#ATTACKS:;

//---------------dance-single - ----------------
#NOTES:
     dance-single:
     :
     Easy:
     4:
     0.323,0.408,0.266,0.233,0.000:
0000
0000
0000
0000
,
0000
0000
0000
0000
,
0001
1001
1000
0110
,
1000
1001
0002
0000
,
1003
0000
0010
0001
,
0000
0100
1000
0001
,
0100
0000
0010
1000
,
0000
1000
0100
0010
,
0000
0001
0001
0101
,
0000
1000
1000
1100
,
0000
0010
0010
0110
,
0001
0010
0100
1000
,
2001
0000
3010
0000
,
1002
0000
0103
0000
,
1000
0100
0001
0010
,
0100
0000
0100
0001
,
0110
0000
0010
1000
,
1001
0000
1000
0100
,
0001
0100
1000
0010
,
0200
0000
0000
0300
,
1001
0000
0010
0000
,
0100
0010
1000
0100
,
1001
0000
0001
0000
,
1000
0001
0010
0001
,
1001
0000
0100
0000
,
1000
0100
0010
0100
,
1001
0000
0100
0100
,
1001
0000
0010
0010
,
0001
0010
0001
1000
,
0100
1000
0010
0000
,
0100
0010
0100
0000
,
0010
0010
0010
0010
,
2000
3100
0002
0103
,
1000
0010
0001
0100
,
2000
3100
0002
0103
,
1000
0001
0100
0001
,
0202
0303
2200
3300
,
0010
0100
0020
0030
,
2020
3030
0202
0303
,
0001
0100
0010
1000
,
0100
1000
0010
0100
,
0001
0010
0100
0010
,
0002
0003
2000
3000
,
0100
0100
0010
0010
,
1001
0000
0001
0100
,
0000
1000
0100
0010
,
1000
0000
1000
0100
,
0000
0100
0010
0001
,
0000
0001
0001
0101
,
0000
1000
1000
1100
,
0000
0010
0010
0110
,
0100
0010
1000
0001
,
0220
0000
0330
0000
;

//---------------dance-single - Copied from----------------
#NOTES:
     dance-single:
     Copied from:
     Beginner:
     2:
     0.149,0.231,0.067,0.122,0.000:
0000
0000
0000
0000
,
0000
0000
0000
0000
,
0010
0000
0010
0000
,
0010
0000
0200
0000
,
0300
0000
0000
0000
,
0010
0000
0000
0000
,
0010
0000
0000
0000
,
0001
0000
0000
0000
,
0000
1000
1000
0000
,
0000
0001
0001
0000
,
0000
0100
0100
0000
,
0010
0010
0010
0010
,
0010
0000
0000
0000
,
1000
0000
0000
0000
,
0001
0000
0000
0000
,
0100
0000
0000
0000
,
0002
0000
0003
0000
,
0020
0000
0030
0000
,
0000
0100
0000
1000
,
2000
0000
3000
0000
,
1001
0000
0000
0000
,
0000
0100
0000
0000
,
1001
0000
0000
0000
,
0000
0010
0000
0000
,
1001
0000
0000
0000
,
0000
1000
0000
0000
,
2002
0000
3003
0000
,
2002
0000
3003
0000
,
0000
0001
0000
0100
,
0000
0010
0000
0100
,
0000
0010
0000
1000
,
1000
1000
1000
1000
,
0000
0100
0000
0010
,
0000
0100
0000
1000
,
0000
0001
0000
0100
,
0000
0001
0000
0000
,
0020
0000
0030
0000
,
0200
0000
0300
0000
,
0020
0000
0030
0000
,
0000
1000
0000
0001
,
0000
1000
0000
0001
,
0000
1000
0000
0001
,
0000
0010
0000
0100
,
0000
0010
0000
0001
,
0001
0000
0000
0000
,
1000
0000
0000
0000
,
0001
0000
0000
0000
,
0010
0000
0000
0000
,
0000
0100
0100
0000
,
0000
1000
1000
0000
,
0000
0010
0010
0000
,
0100
0000
0100
0000
,
1001
0000
0000
0000
;

//---------------dance-single - Copied from----------------
#NOTES:
     dance-single:
     Copied from:
     Medium:
     6:
     0.406,0.466,0.322,0.100,0.000:
0000
0000
0000
0000
,
0000
0000
0000
0000
,
0001
0000
1001
0000
1000
0100
1100
0000
,
0001
0000
1001
0000
1000
0100
0010
0001
,
1001
0000
0000
0001
0100
0000
0001
0000
,
0000
1000
0000
0100
0010
0000
0100
0000
,
1000
0000
0000
0010
0100
0000
0001
0000
,
0000
0100
0000
0001
0100
0000
1000
0000
,
0000
0100
0010
0000
0110
0000
0110
0000
,
0000
0001
0100
0000
0101
0000
0101
0000
,
0000
1000
0100
0000
1100
0000
1100
0000
,
1000
0100
1000
0100
0010
0000
0010
0000
,
0002
0100
1003
1000
,
2000
0100
3010
0001
,
0100
0001
0100
1000
,
0020
0100
0130
0001
,
0200
0001
1300
0001
,
0020
1000
0031
0100
,
0100
0001
0010
0100
,
2200
0000
0000
3300
,
1001
0100
0001
0010
,
0100
0000
1000
0010
1000
0000
0001
0000
,
0101
0001
0010
0100
,
1000
0000
0001
0010
0001
0000
0001
0000
,
0101
0010
0100
1000
,
0010
0000
0100
0001
0100
0000
1000
0000
,
1100
0000
0000
0010
0000
0110
0000
0000
,
0101
0000
0000
0001
0000
0011
0000
0000
,
1000
0100
0010
0001
,
1000
0100
1000
0010
,
0100
0100
0001
0010
,
0001
0010
0100
1000
0001
0010
0100
1000
,
0010
0010
0100
0000
0010
0010
0100
0000
,
0001
0100
1000
0100
,
0001
0001
1000
0000
0001
0001
1000
0000
,
0001
0000
0010
0000
0100
0000
1000
1000
,
0100
0000
1100
0000
,
0010
0100
0011
0100
,
0001
0000
0101
0000
,
0001
0000
0100
0000
0010
1000
0010
0000
,
1000
0000
0100
0000
0100
0100
0010
0000
,
0100
0000
0010
0000
0001
0001
0010
0000
,
0100
1000
0010
0100
,
0001
1000
0001
1000
0010
0100
0010
0000
,
0110
0000
0000
0010
1000
0000
1000
0000
,
0000
0001
0000
1000
0100
0000
0100
0000
,
0001
0000
0000
0001
0100
0000
1000
0000
,
0000
0100
0000
0100
0010
0000
1000
0100
,
0000
0010
0100
0000
0110
0000
0110
0000
,
0000
1000
0100
0000
1100
0000
1100
0000
,
0000
0001
0100
0000
0101
0000
0101
0000
,
1000
0100
1000
0100
0010
0000
0001
0000
,
0220
0000
0330
0000
;

//---------------dance-single - Copied from----------------
#NOTES:
     dance-single:
     Copied from:
     Hard:
     8:
     0.530,0.495,0.200,0.111,0.022:
0000
0000
0000
0000
,
0000
0000
0000
0000
,
1000
0001
0000
0000
1001
0000
0000
0000
0010
0000
0100
0100
0010
0000
0000
0000
,
0001
1000
0000
0000
1001
0000
0000
0000
0100
0000
0010
0010
0100
0000
0000
0000
,
0001
0000
0000
0010
0100
0000
1000
0100
,
0010
0100
0000
0100
1000
0001
0100
0000
,
0001
0000
0010
0001
0100
0000
0100
0010
,
0000
0100
0000
0010
1000
0100
0010
0001
,
0000
0100
0001
0000
0100
0001
0010
0000
,
0000
0100
1000
0000
0100
1000
0010
0000
,
0000
0100
0010
0000
1000
0100
0001
0000
,
0100
1000
0100
1000
0001
0100
0001
0100
,
0010
0000
0100
0001
0010
0000
0100
0000
,
1000
0000
0010
1000
0100
0000
0010
0000
,
0100
1000
0010
0000
0100
0001
0010
0000
,
0100
0010
0100
1000
0001
0000
0101
0000
,
1100
0000
1000
0010
0100
0000
0101
0000
,
1100
0000
0001
1000
0100
1000
0010
0000
,
0100
0001
0010
0100
1000
0001
0010
0100
,
2000
3200
0320
0031
,
1001
0000
0001
0100
0000
0100
0001
1000
,
0100
0010
0001
1000
0100
1000
0001
0000
,
1001
0000
0010
0100
0000
0100
1000
0000
,
0100
0010
0001
1000
0001
0100
0010
0000
,
1001
0000
1000
0100
0000
0100
0010
0000
,
0001
1000
0001
1000
0100
0010
0100
0000
,
1001
0000
0100
0001
0100
0001
1000
0000
,
1000
0000
0100
0010
0100
0010
0200
0000
,
0310
0000
0001
1000
0100
0001
0100
0000
,
1000
0010
0100
0000
0001
0100
0001
0000
,
1000
0010
1000
0100
0010
0000
0100
1000
,
0002
0023
0230
2300
,
3001
0001
0100
0000
1000
1000
0100
0000
,
0010
0100
1000
0010
0100
0001
0100
0000
,
1000
1000
0100
0000
0001
0001
0100
0000
,
0010
0100
0001
0100
0010
0100
0001
0000
,
1001
0000
0100
1000
1010
0000
1000
0000
,
1100
0000
0010
0100
0101
0000
0010
0000
,
0011
0000
0100
0001
1001
0000
0100
0000
,
1000
0000
0010
0100
0001
0010
0100
1000
,
0001
0100
0001
1000
0100
1000
0010
0100
,
0001
0010
0100
1000
0010
0010
0100
0000
,
0010
0100
0001
0010
0001
0100
0010
1000
,
0100
1000
0100
0001
0100
1000
0010
0000
,
0110
0000
0010
1000
0010
0000
0100
1000
,
0000
1000
0100
0010
0001
0000
0001
0100
,
0001
0000
0001
0010
0100
0000
0100
1000
,
0000
0010
0100
0010
0100
0000
0001
1000
,
0000
0100
1000
0010
0100
0001
0010
0000
,
0000
0001
0010
0100
1000
0010
0100
0000
,
0000
0001
0010
0001
0100
0010
1000
0000
,
1000
0100
0010
0001
1000
0100
0010
0001
,
2002
0000
3003
0000
;

//---------------dance-single - Copied from ----------------
#NOTES:
     dance-single:
     Copied from:
     Challenge:
     8:
     0.584,0.583,0.189,0.078,0.111: // measure 1
0000
0000
0000
0000
,  // measure 2
0000
0000
0000
0000
,  // measure 3
1000
0100
0000
0000
1100
0000
0000
0000
0001
0100
0001
0010
0100
0000
0000
0000
,  // measure 4
0001
0100
0000
0000
0101
0000
0000
0000
1000
0100
0010
0001
2000
0000
0000
0000
,  // measure 5
3100
0000
1000
0100
1001
0000
0001
0100
,  // measure 6
0000
0100
0001
0010
0100
0000
0100
1000
,  // measure 7
0010
0000
0010
0100
1001
0000
0010
0100
,  // measure 8
0000
0001
0010
0100
1000
0000
1000
0100
,  // measure 9
0000
0100
1000
0001
1000
0001
0100
0000
,  // measure 10
0100
0001
0010
0100
1000
0010
0100
0000
,  // measure 11
1000
0010
0100
0001
0010
0100
0010
0000
,  // measure 12
0001
0010
0001
0010
1000
0010
1000
0100
,  // measure 13
0010
0000
0010
1000
0010
0100
0001
0000
,  // measure 14
0010
0001
0010
0100
1000
0000
1100
0000
,  // measure 15
0001
1000
0010
0100
0001
0100
0001
1000
,  // measure 16
0200
0000
0310
0001
0101
0000
0001
0000
,  // measure 17
1000
0100
1000
0010
0100
0000
0100
0100
,  // measure 18
0010
0100
1000
0100
0001
0000
1010
0000
,  // measure 19
1000
0100
0001
0100
1000
0100
0001
0100
,  // measure 20
2000
0000
0010
0000
3002
0000
0100
0003
,  // measure 21
1100
0000
1000
0100
0010
0100
1000
0001
,  // measure 22
0100
0001
0010
0001
0010
0001
0100
0001
,  // measure 23
1001
0000
1000
0010
0001
0010
1000
0010
,  // measure 24
0001
0100
1000
0100
1000
0100
0010
0100
,  // measure 25
1001
0000
0010
0100
0001
0100
0010
0100
,  // measure 26
0001
0010
0100
0010
0100
0010
0001
0010
,  // measure 27
1001
0000
1000
0100
1000
0100
0000
0010
,  // measure 28
1001
0000
0001
0100
0001
0200
0000
0300
,  // measure 29
1001
0000
0000
0000
0001
0000
0000
1000
0000
0001
1000
0000
0100
0000
0000
0000
,  // measure 30
0100
0000
0000
0000
0010
0000
0000
0001
0000
1000
0100
0000
0010
0000
0000
0000
,  // measure 31
0100
0000
0000
0000
1000
0000
0000
0001
0000
0100
0001
0000
0010
0000
0000
0000
,  // measure 32
0001
0001
0010
0010
0100
0100
1000
1000
,  // measure 33
0100
1000
0100
1000
0100
0000
0000
0000
0100
0010
0100
0010
0100
0000
0000
0000
,  // measure 34
0010
0001
0010
1000
0010
0001
0010
0000
,  // measure 35
0010
0001
0010
0001
0010
0000
0000
0000
0010
0100
0010
0100
0010
0000
0000
0000
,  // measure 36
0100
1000
0001
0010
0100
1000
0010
0100
,  // measure 37
0110
0000
0010
0000
1000
0001
0100
0000
,  // measure 38
0001
0000
0010
0000
0100
1000
0100
0000
,  // measure 39
0010
0100
1000
0001
0100
0000
1001
0000
,  // measure 40
0100
0000
0001
0010
0001
0100
1000
0100
,  // measure 41
0001
0010
0100
1000
0010
0100
0001
0100
,  // measure 42
1000
0100
0010
1000
0100
0001
0100
1000
,  // measure 43
0010
0010
0100
0100
,  // measure 44
0010
0100
0010
0100
0001
1000
0001
1000
,  // measure 45
0110
0000
0001
0100
1000
0010
0100
0001
,  // measure 46
0010
0100
0000
0100
1000
0001
1000
0000
,  // measure 47
1000
0100
0010
0000
0010
0100
0010
0001
,  // measure 48
0010
0100
0000
0100
0010
0100
0010
0001
,  // measure 49
1000
0001
1000
0100
0010
0001
1000
0010
,  // measure 50
0000
0001
0010
0100
1000
0001
0010
0100
,  // measure 51
0000
1000
0001
1000
0010
0100
0010
0100
,  // measure 52
0001
0001
0010
0010
0100
0100
1000
1000
,  // measure 53
2200
0000
3300
0000
;
