#TITLE:☆;
#SUBTITLE:;
#ARTIST:Plus-Tech Squeeze Box;
#TITLETRANSLIT:STAR;
#SUBTITLETRANSLIT:;
#ARTISTTRANSLIT:;
#GENRE:;
#CREDIT:;
#MENUCOLOR:;
#NEWMETERSYSTEM:NO;
#BANNER:STAR-bn.png;
#BACKGROUND:STAR-bg.png;
#LYRICSPATH:;
#CDTITLE:MixMania 4 CD Title.png;
#MUSIC:STAR.mp3;
#OFFSET:-0.200;
#SAMPLESTART:44.740;
#SAMPLELENGTH:12.000;
#SELECTABLE:YES;
#LISTSORT:;
#BPMS:0.000=140.000;
#STOPS:;
#BGCHANGES:;
#ATTACKS:;

//---------------dance-single - ----------------
#NOTES:
     dance-single:
     :
     Easy:
     3:
     0.251,0.255,0.038,0.053,0.000:
0000
0000
0000
0000
,
0000
0000
0000
0000
,
0000
0000
0000
0000
,
0000
0000
0000
0000
,
1000
0000
0100
0000
,
0010
0000
0001
0100
,
0001
0000
0010
0000
,
0100
0000
1000
0000
,
1001
0100
1000
0001
,
0100
0001
0010
0000
,
0001
1000
0100
0010
,
0100
1000
0200
0300
,
0010
0001
1000
0010
,
0100
0001
0002
0003
,
0010
0001
1000
0100
,
1000
0010
0200
0300
,
0010
1000
0001
0100
,
1000
0100
0020
0030
,
0001
1000
0100
0000
,
0010
0010
0100
0001
,
0000
0010
0100
0000
,
0010
0001
0100
1000
,
0000
0010
0100
0000
,
1000
0100
0010
0001
,
1001
0000
0000
1000
,
0001
0100
0010
0100
,
0001
1000
0100
0010
,
0100
0000
0010
0001
,
0100
0000
1000
0010
,
0100
0010
1000
0000
,
0100
0010
0001
1000
,
0001
0000
0100
0010
,
1000
0000
0010
0000
,
0100
0001
1000
0100
,
0000
0010
0001
1000
,
0100
0000
0010
0001
,
1000
0000
0001
0010
,
0100
0000
0010
0001
,
1000
0100
1000
0010
,
0100
0000
0010
1000
,
0001
0000
0100
0000
,
0010
1000
0100
0010
,
0100
0000
0010
0001
,
0000
1000
0100
1000
,
0010
0000
0100
0010
,
0000
0001
0100
0010
,
1000
0000
0001
1000
,
0000
0100
1000
0010
,
0001
0000
0100
0001
,
0000
1000
0100
1000
,
0010
0100
0100
0010
,
0100
0000
0010
0010
,
0100
0001
0001
1000
,
0001
0000
1000
1000
,
0100
0000
0010
0000
,
0001
0100
0010
0000
,
1000
0000
0001
0000
,
0200
0000
0010
0310
,
0110
0001
1000
0100
,
1000
0000
0010
0001
,
0000
0001
0100
0000
,
0010
1000
0001
0100
,
0000
1000
0100
0000
,
0010
0100
0010
0001
,
1001
0000
0000
1000
,
0001
0001
0010
1000
,
0010
0001
1000
0100
,
0010
0000
0100
0010
,
0001
0000
1000
0010
,
0100
0001
0100
1000
,
0010
1000
0001
0000
,
0010
0001
0100
0010
,
1000
0000
0100
0000
,
0010
0001
1000
1000
,
0220
0000
0000
0000
,
0000
0330
0000
0000
;

//---------------dance-single - Copied from----------------
#NOTES:
     dance-single:
     Copied from:
     Beginner:
     1:
     0.082,0.142,0.008,0.023,0.000:
0000
0000
0000
0000
,
0000
0000
0000
0000
,
0000
0000
0000
0000
,
0000
0000
0000
0000
,
0010
0000
0000
0000
,
0010
0000
0000
0000
,
0010
0000
0000
0000
,
0010
0000
0000
0000
,
0100
0000
0000
0000
,
0010
0000
0000
0000
,
0001
0000
0000
0000
,
1000
0000
0000
0000
,
0100
0000
0000
0000
,
0010
0000
0000
0000
,
0100
0000
0000
0000
,
1000
0000
0000
0000
,
0001
0000
0000
0000
,
0010
0000
0000
0000
,
0001
0000
0000
0000
,
0100
0000
0100
0000
,
0000
0000
0000
0000
,
1000
0000
1000
0000
,
0000
0000
0100
0000
,
0010
0000
0100
0000
,
0000
0000
0001
0000
,
1000
0000
0000
0000
,
0100
0000
0000
0000
,
0010
0000
0000
0000
,
1000
0000
0000
0000
,
0001
0000
0000
0000
,
0001
0000
0000
0000
,
0010
0000
0000
0000
,
0100
0000
0000
0000
,
1000
0000
0000
0000
,
0001
0000
0000
0000
,
1000
0000
0000
0000
,
0100
0000
0000
0000
,
1000
0000
0000
0000
,
0010
0000
0000
0000
,
0100
0000
0000
0000
,
0010
0000
0000
0000
,
0001
0000
0000
0000
,
1000
0000
0000
0001
,
0000
0000
0000
0000
,
0001
0000
0000
0100
,
0000
0000
0000
0000
,
0010
0000
0000
1000
,
0000
0000
0000
0000
,
0100
0000
0000
0001
,
0000
0000
0000
0000
,
2002
0000
0000
0000
,
0000
0000
3003
0000
,
0100
0000
0000
0000
,
0100
0000
0000
0000
,
0010
0000
0000
0000
,
0010
0000
0000
0000
,
1000
0000
0000
0000
,
0001
0000
0000
0000
,
0100
0000
0000
0000
,
0010
0000
0000
0000
,
1000
0000
0000
0000
,
0100
0000
0000
0000
,
0010
0000
0000
0000
,
0001
0000
0000
0000
,
1000
0000
0000
0000
,
0010
0000
0000
0000
,
0100
0000
0000
0000
,
0001
0000
0000
0000
,
1000
0000
0000
0000
,
0010
0000
0000
0000
,
0100
0000
0000
0000
,
0001
0000
0000
0000
,
1000
0000
0000
0000
,
0010
0000
0000
0000
,
2000
0000
0000
0000
,
0000
3000
0000
0000
;

//---------------dance-single - Copied from----------------
#NOTES:
     dance-single:
     Copied from:
     Medium:
     4:
     0.325,0.340,0.158,0.204,0.000:
0000
0000
0000
0000
,
0000
0000
0000
0000
,
0000
0000
0000
0000
,
0000
0000
0000
0000
,
0001
0000
0010
0000
,
0100
0000
1000
0000
,
0100
0000
0010
0000
,
0100
0000
0010
0000
,
1002
0000
0010
0000
,
0010
1000
1003
1001
,
2010
0100
0001
0010
,
0100
0001
0010
3001
,
0010
0100
0001
1000
,
0100
0010
0100
0010
,
1001
0100
0001
1000
,
1001
0010
0100
0010
,
0001
1000
0001
0100
,
0020
1000
0001
1030
,
0100
1000
0010
0100
,
0001
1000
0200
0310
,
0001
0100
1000
0100
,
0001
0010
0200
1300
,
0010
0100
0100
0010
,
0001
1000
0001
0001
,
0010
0100
1000
0001
,
2001
0100
0001
3100
,
0010
0100
0001
1000
,
0020
0100
2000
3030
,
0100
1000
0010
0100
,
0020
0100
0100
0130
,
1000
0100
0001
0100
,
1000
0010
0100
0001
,
0020
0001
0200
0330
,
0010
1000
0001
0100
,
0110
0001
1000
0100
,
0020
0100
0002
0033
,
1000
0001
0100
0010
,
2000
0001
0001
3001
,
0100
1000
0001
0010
,
0001
1000
0100
1000
,
0200
0010
0020
0330
,
1000
0001
0100
0001
,
1001
0000
0000
0010
0000
0000
1001
0000
,
0000
0100
0010
1000
,
1100
0000
0000
0001
0000
0000
0101
0000
,
0000
0010
0001
0100
,
0110
0000
0000
1000
0000
0000
1010
0000
,
0000
0100
1000
0010
,
0011
0000
0000
0100
0000
0000
1001
0000
,
0000
0010
0001
0100
,
0010
1000
0001
0100
,
0010
1000
0001
0100
,
0001
1000
0100
1000
,
0001
0010
0001
1000
,
0100
1000
0010
0001
,
0100
1000
0001
0100
,
0010
1000
0100
0010
,
0002
0100
0100
0103
,
1001
1000
0100
0010
,
0001
1000
0100
0010
,
0100
0010
0001
1000
,
0001
0101
1100
1001
,
0010
0100
0020
1030
,
0100
1000
0010
0100
,
0001
1000
0100
0010
,
0220
0000
0000
0330
,
1000
0001
0100
0010
,
2000
0100
0020
3030
,
0001
0100
1000
0100
,
0002
0010
0010
0013
,
1000
0001
0100
0010
,
1000
0001
1000
0100
,
0002
0100
2000
3003
,
0100
1000
0001
0100
,
2002
0000
0000
0000
,
0000
3003
0000
0000
;

//---------------dance-single - Copied from----------------
#NOTES:
     dance-single:
     Copied from:
     Hard:
     6:
     0.369,0.369,0.158,0.166,0.000:
0000
0000
0000
0000
,
0000
0000
0000
0000
,
0000
0000
0000
0000
,
0000
0000
0000
0000
,
0001
0000
0000
1000
0000
0000
0100
0000
,
0000
0010
0000
0000
0100
0000
0010
0000
,
0001
0000
0000
1000
0000
0000
0010
0000
,
0000
0100
0000
0000
0010
0000
1000
0000
,
1001
0100
0010
1000
,
0100
0000
0010
0000
0001
1000
0001
1000
,
0001
0100
0010
1000
,
0001
0000
0100
0000
0010
0100
0100
0000
,
0010
1000
0100
0010
,
0001
0000
1000
0000
0100
0010
0010
0000
,
0001
1000
0001
0100
,
0010
0000
1000
0000
0010
0100
0100
0000
,
0010
1000
0001
0100
,
1000
0000
0100
0000
0001
0001
0001
0000
,
0100
0000
0010
0000
1000
0100
0000
1000
,
0000
0001
0000
0010
0001
0000
1000
0000
,
0100
0000
0010
0000
1000
0001
0000
0100
,
0000
0010
0000
1000
0000
1001
0000
1001
,
0000
0000
0010
0000
1001
0000
0100
1000
,
0000
0001
0000
0100
0000
0001
0000
0000
,
1000
0000
0001
0000
0100
0000
0010
0200
,
0000
0010
0001
0310
,
1001
0000
1001
0000
0100
1000
0100
0000
,
0010
0001
0100
0010
,
1000
0001
0010
0000
1000
0001
0010
0000
,
0010
0100
0001
1000
,
1100
0000
0010
0000
0100
0001
1000
0000
,
0100
0001
1000
0000
0010
0000
0100
0000
,
0002
0000
0000
0200
0000
0000
0303
0000
,
0010
1000
0100
0000
0010
1000
0100
0000
,
1001
0000
1001
0000
0100
0010
0001
0000
,
1000
0001
1000
0100
,
0001
0100
1000
0000
0001
0100
1000
0000
,
0001
1000
0100
0010
,
1001
0000
0100
0000
0010
1000
0100
0000
,
0010
1000
0100
0000
1000
0000
0001
0000
,
2000
0000
0000
0200
0000
0000
3300
0000
,
0100
1000
0001
0000
0100
1000
0001
0000
,
2000
0000
0000
3002
0000
0000
0203
0000
,
0000
0001
0001
0310
,
0020
0000
0000
2030
0000
0000
3200
0000
,
0000
1000
0010
1300
,
2000
0000
0000
0002
3000
0000
0023
0000
,
0000
0100
1000
0130
,
0020
0000
0000
0032
0000
0000
2003
0000
,
0000
0010
0001
3010
,
0110
0000
1000
0001
1000
0000
0100
0000
,
1000
0010
1000
0000
0100
0000
0100
0000
,
0010
0000
0001
1000
0001
0000
0100
0000
,
0010
1000
0010
0000
0100
0000
0100
0000
,
1000
0000
0001
1000
0001
0000
0010
0000
,
0001
1000
0001
0000
0100
0000
0010
0000
,
1000
0000
0100
0001
0100
0000
1000
0000
,
0010
1000
0010
0000
0101
0000
1010
0000
,
0100
0000
1000
0000
0100
0001
0000
1000
,
0000
0001
0000
1000
0100
0000
0010
0000
,
0001
0000
1000
0000
0001
0100
0000
0010
,
0000
1000
0000
0100
0000
0110
0000
1001
,
0000
0000
1010
0000
0101
0000
0001
0100
,
0000
0010
0000
1000
0000
0100
0000
0000
,
0010
0000
1000
0000
0001
0000
0100
0020
,
0000
1000
0100
0031
,
0110
0000
0110
0000
1000
0001
1000
0000
,
0001
0010
0100
1000
,
0010
0001
0010
0000
0100
1000
0100
0000
,
1000
0100
0001
0100
,
1001
0000
0100
0000
0010
0100
1000
0000
,
0010
0100
1000
0000
1000
0000
0010
0000
,
0200
0000
0000
0002
0000
0000
0303
0000
,
1000
0100
0001
0000
0001
0100
1000
0000
,
2002
0000
0000
0000
,
0000
3003
0000
0000
;

//---------------dance-single - Copied from----------------
#NOTES:
     dance-single:
     Copied from:
     Challenge:
     7:
     0.544,0.596,0.294,0.384,0.000: // measure 1
0000
0000
0000
0000
,  // measure 2
0000
0000
0000
0000
,  // measure 3
0000
0000
0000
0000
,  // measure 4
0000
0000
0000
0000
,  // measure 5
0010
0001
1000
0100
0000
0010
0100
0000
,  // measure 6
0001
1000
0000
0010
0100
0001
0010
0000
,  // measure 7
0100
1000
0010
0100
0000
0001
1000
0000
,  // measure 8
0100
0010
0000
1000
0001
0100
0010
0000
,  // measure 9
1001
0010
0001
0100
,  // measure 10
0010
0000
1000
0000
0100
1000
0010
0100
,  // measure 11
0001
0100
0010
0100
0000
1000
0100
0010
,  // measure 12
0000
0001
1000
0001
0100
0010
1000
0000
,  // measure 13
0100
0010
0001
1000
0000
0100
1000
0010
,  // measure 14
0000
0100
0001
0100
0010
1000
0100
0000
,  // measure 15
0100
0010
1000
0100
0000
0001
0100
1000
,  // measure 16
0000
0100
0001
0010
0100
1000
0010
0000
,  // measure 17
0100
0001
1000
0100
0000
0010
0001
1000
,  // measure 18
0000
0100
1000
0010
0000
0100
0001
0010
,  // measure 19
1001
0000
0001
0100
0010
2000
0000
3200
,  // measure 20
0000
0320
0000
0130
0010
1000
0001
0000
,  // measure 21
0101
0000
0010
0001
0100
0020
0000
2030
,  // measure 22
0000
3200
0000
2300
0000
3002
0000
0023
,  // measure 23
0000
0030
0101
0000
1100
0000
0010
1000
,  // measure 24
0100
0010
0001
0100
0001
1000
0100
1000
,  // measure 25
0010
0000
0100
0000
0010
0000
1000
0002
,  // measure 26
0100
0010
1000
0103
,  // measure 27
1001
0000
0010
1000
0100
0010
0001
1000
,  // measure 28
0000
0001
0100
0010
0000
1000
0100
0000
,  // measure 29
0110
0000
0001
0100
0000
0010
1000
0100
,  // measure 30
0000
0010
0001
0001
0010
0001
0100
0000
,  // measure 31
1001
0000
1000
0100
0010
0001
0100
0001
,  // measure 32
0000
1000
0010
0100
0000
0001
0100
0000
,  // measure 33
1001
0000
0010
0110
0000
1000
0001
0000
,  // measure 34
0001
0010
0100
1000
0001
0010
0100
1000
,  // measure 35
1001
0000
0001
0100
0010
1000
0001
0100
,  // measure 36
0000
0010
0100
0010
0000
0001
0010
0000
,  // measure 37
1001
1000
0000
0100
0000
0010
0001
0100
,  // measure 38
0000
0010
1000
1000
0010
0100
0001
0000
,  // measure 39
0110
0000
0001
0010
0100
1000
0001
0100
,  // measure 40
0000
0010
1000
0001
0000
1000
0100
0000
,  // measure 41
0110
0000
0010
1001
0000
0010
0100
0000
,  // measure 42
1000
0100
0010
0001
1000
0100
0010
0001
,  // measure 43
2001
0000
3010
0210
0000
0301
2002
0000
,  // measure 44
3003
0100
0010
1000
0001
0010
0010
0000
,  // measure 45
0210
0000
0301
1002
0000
1003
2200
0000
,  // measure 46
3300
1000
0100
1000
0001
0010
0001
0100
,  // measure 47
1002
0000
0013
0021
0000
1030
2020
0000
,  // measure 48
3030
0010
0100
0001
1000
0100
0100
0010
,  // measure 49
1200
0000
0301
0102
0000
0013
0220
0000
,  // measure 50
0330
0010
1000
0010
1000
0001
1000
0100
,  // measure 51
0110
0001
0010
0002
0000
1003
0200
0000
,  // measure 52
1300
0020
0000
0130
0001
1000
0100
1000
,  // measure 53
0010
0100
0010
2000
0000
3100
0020
0000
,  // measure 54
0031
0020
0000
0031
1000
0100
1000
0010
,  // measure 55
2000
0000
3000
1200
0000
0310
0002
0000
,  // measure 56
0013
0200
0000
0310
0010
0001
1000
0010
,  // measure 57
0100
0001
0010
0002
0000
0013
0020
0000
,  // measure 58
0130
2000
0000
3100
0100
0010
0001
0100
,  // measure 59
1001
0000
1000
0100
0010
0002
0000
2003
,  // measure 60
0000
3200
0000
0310
0001
1000
1000
0000
,  // measure 61
1100
0000
1000
0001
0010
0200
0000
0302
,  // measure 62
0000
2003
0000
3020
0000
0230
0000
0320
,  // measure 63
0000
0030
1100
0000
0011
0000
0010
1000
,  // measure 64
0001
0100
0001
1000
0001
1000
0010
1000
,  // measure 65
0100
0000
0001
0000
1000
0000
0010
2000
,  // measure 66
0010
0010
0001
3100
,  // measure 67
1001
0000
0010
1000
0001
0010
0001
0100
,  // measure 68
0000
1000
0100
0001
0000
0001
1000
0000
,  // measure 69
0110
0000
0010
1000
0000
0010
1000
0001
,  // measure 70
0000
0010
0100
0010
1000
0001
0100
0000
,  // measure 71
0110
0000
0100
1000
0100
0010
0100
0001
,  // measure 72
0000
1000
0001
1000
0000
0010
1000
0000
,  // measure 73
0110
0000
0010
1001
0000
0100
0010
0000
,  // measure 74
0001
0010
0100
1000
0001
0010
0100
1000
,  // measure 75
0220
0000
0000
0000
,  // measure 76
0000
0330
0000
0000
;
